osu file format v14

[General]
AudioFilename: Ghost Rule - Mafumafu.mp3
AudioLeadIn: 0
PreviewTime: 48057
Countdown: 0
SampleSet: Normal
StackLeniency: 0.7
Mode: 0
LetterboxInBreaks: 1
WidescreenStoryboard: 0

[Editor]
DistanceSpacing: 0.5
BeatDivisor: 4
GridSize: 8
TimelineZoom: 1.9

[Metadata]
Title:Ghost Rule
TitleUnicode:Ghost Rule
Artist:Mafumafu
ArtistUnicode:まふまふ
Creator:ChuuritsuTv
Version:Mayday
Source:
Tags:deco*27 cover goosuto ruuru vocaloid
BeatmapID:1412683
BeatmapSetID:667670

[Difficulty]
HPDrainRate:7
CircleSize:4
OverallDifficulty:8.2
ApproachRate:9.6
SliderMultiplier:2.2
SliderTickRate:1

[Events]
//Background and Video events
0,0,"BG.jpg",0,0
//Break Periods
2,45828,47691
//Storyboard Layer 0 (Background)
//Storyboard Layer 1 (Fail)
//Storyboard Layer 2 (Pass)
//Storyboard Layer 3 (Foreground)
//Storyboard Sound Samples

[TimingPoints]
200,285.714285714286,4,1,0,100,1,0
10200,-133.333333333333,4,1,0,100,0,0
10914,-100,4,1,0,100,0,0
12485,-133.333333333333,4,1,0,100,0,0
13200,-100,4,1,0,100,0,0
14771,-133.333333333333,4,1,0,100,0,0
15485,-100,4,1,0,100,0,0
17057,-133.333333333333,4,1,0,100,0,0
17771,-100,4,1,0,100,0,0
48200,-100,4,1,0,100,0,1
52414,285.714285714286,4,1,0,100,1,1
66342,285.714285714286,4,1,0,100,1,1
84342,-100,4,1,0,100,0,0
84555,285.714285714286,4,1,0,100,1,0

[HitObjects]
192,170,8485,6,0,P|203:245|236:276,1,110
287,112,8771,1,0,0:0:0:0:
84,219,8914,1,0,0:0:0:0:
294,345,9057,1,0,0:0:0:0:
208,95,9200,1,0,0:0:0:0:
108,329,9342,1,0,0:0:0:0:
223,302,9485,1,0,0:0:0:0:
340,267,9628,6,0,P|349:202|323:165,1,110
73,84,9914,2,0,P|72:151|101:184,1,110
208,95,10200,2,0,B|294:95|294:95|321:58|321:58|342:99,1,165.000006294251
433,89,10628,1,0,0:0:0:0:
340,267,10771,1,0,0:0:0:0:
196,195,10914,2,0,P|186:127|208:94,1,110
323,89,11200,2,0,L|440:89,2,110
121,71,11628,5,0,0:0:0:0:
112,83,11700,1,0,0:0:0:0:
104,92,11771,2,0,P|119:155|154:179,1,110
277,234,12057,1,0,0:0:0:0:
387,174,12200,2,0,P|362:122|315:85,1,110
219,88,12485,2,0,B|202:143|277:177|306:212|258:259,1,165.000006294251
390,336,12914,5,0,0:0:0:0:
386,173,13057,1,0,0:0:0:0:
201,286,13200,2,0,P|246:285|275:224,1,110
220,89,13485,2,0,L|105:57,2,110
364,61,13914,5,0,0:0:0:0:
372,65,13985,1,0,0:0:0:0:
378,70,14057,2,0,P|399:120|369:191,1,110
307,251,14342,1,0,0:0:0:0:
220,199,14485,2,0,L|220:80,1,110
301,115,14771,2,0,B|326:176|326:176|379:192|386:261,1,165.000006294251
241,293,15200,5,0,0:0:0:0:
301,115,15342,1,0,0:0:0:0:
384,249,15485,2,0,P|341:283|306:242,1,110
220,199,15771,2,0,L|100:199,2,110
332,204,16200,5,0,0:0:0:0:
357,204,16271,1,0,0:0:0:0:
379,203,16342,2,0,P|397:147|376:100,1,110
276,74,16628,1,0,0:0:0:0:
169,42,16771,2,0,P|151:96|174:153,1,110
220,199,17057,2,0,P|122:209|89:154,1,165.000006294251
169,42,17485,5,0,0:0:0:0:
220,199,17628,1,0,0:0:0:0:
281,346,17771,2,0,P|352:321|362:287,1,110
369,197,18057,1,0,0:0:0:0:
48,88,18200,1,0,0:0:0:0:
193,340,18342,1,0,0:0:0:0:
307,35,18485,1,0,0:0:0:0:
39,194,18771,6,0,B|78:148|140:150|140:150|172:199|172:199|226:199,1,220
215,125,19200,1,0,0:0:0:0:
107,243,19342,1,0,0:0:0:0:
368,290,19485,1,0,0:0:0:0:
368,290,19628,1,0,0:0:0:0:
315,104,19771,2,0,P|253:100|204:139,1,110
219,199,20057,1,0,0:0:0:0:
293,227,20200,5,0,0:0:0:0:
369,198,20342,1,0,0:0:0:0:
385,120,20485,1,0,0:0:0:0:
376,45,20628,6,0,B|312:58|312:58|315:115,2,110
453,38,21057,1,0,0:0:0:0:
487,106,21200,2,0,B|492:173|441:187|441:187|481:308,1,220
331,324,21771,2,0,B|327:320|327:320|323:324|323:324|318:319|318:319|314:324|314:324|309:318|309:318|305:324|305:324|301:318|301:318|298:324|298:324|295:319|295:319|291:325|291:325|286:318|286:318|284:325|284:325|279:318|279:318|275:326|275:326|272:318|272:318|268:327|268:327|265:319|265:319|261:328|262:328|259:322|259:322|253:327|253:327|250:320|250:320|245:326|245:326|245:322|245:322|238:329|238:329|237:320|237:320|234:326|234:326|230:322|230:322|229:328|229:328|224:322|224:322|223:327|223:327|217:322|217:322|215:327,1,220
228,218,22200,1,0,0:0:0:0:
309,225,22342,2,0,P|340:285|316:342,1,110
174,320,22628,5,0,0:0:0:0:
174,320,22771,2,0,L|61:320,2,110
199,225,23200,6,0,L|311:225,2,110
95,155,23628,1,0,0:0:0:0:
177,125,23771,2,0,P|207:185|196:229,1,110
99,266,24057,2,0,B|114:166|114:166|77:101|143:58,1,220
215,53,24485,1,0,0:0:0:0:
275,109,24628,2,0,P|236:135|175:123,1,110
136,62,24914,5,0,0:0:0:0:
257,209,25057,1,0,0:0:0:0:
373,350,25200,1,0,0:0:0:0:
430,293,25342,2,0,B|376:250|320:287|320:287|255:206,1,220
275,109,25771,2,0,B|362:176|362:176|253:209,1,220
136,62,26342,5,0,0:0:0:0:
359,174,26485,1,0,0:0:0:0:
120,226,26628,1,0,0:0:0:0:
279,60,26771,1,0,0:0:0:0:
262,289,26914,1,0,0:0:0:0:
136,62,27057,5,0,0:0:0:0:
105,64,27128,1,0,0:0:0:0:
81,88,27200,1,0,0:0:0:0:
89,125,27271,1,0,0:0:0:0:
111,145,27342,2,0,B|163:165|203:135|203:135|116:229,1,220
447,296,27914,6,0,P|350:242|260:290,1,220
326,337,28342,1,0,0:0:0:0:
434,183,28485,1,0,0:0:0:0:
279,60,28628,1,0,0:0:0:0:
279,60,28771,1,0,0:0:0:0:
203,67,28914,2,0,P|201:100|264:144,1,110
332,136,29200,2,0,B|323:74|323:74|265:55,1,110
203,69,29485,5,0,0:0:0:0:
154,126,29628,1,0,0:0:0:0:
172,198,29771,1,0,0:0:0:0:
209,259,29914,6,0,B|257:229|246:138|246:138|357:135,1,220
322,214,30342,1,0,0:0:0:0:
154,126,30485,2,0,B|130:41|206:69,1,110
461,249,30914,2,0,B|450:253|450:253|457:267|457:267|451:266|444:265|450:277|450:277|440:275|440:275|448:285|448:285|434:282|434:282|443:293|443:293|430:291|430:291|441:300|441:300|427:298|428:298|428:298|437:307|437:307|423:305|423:305|433:314|433:314|420:310|420:310|427:320|427:320|416:318|416:318|425:326|425:326,1,220
344,265,31342,1,0,0:0:0:0:
394,181,31485,2,0,P|450:205|459:254,1,110
419,320,31771,5,0,0:0:0:0:
419,320,31914,2,0,B|359:312|359:312|343:260,2,110
394,181,32342,2,0,B|364:193|364:193|312:178|279:225,2,110
397,95,32771,1,0,0:0:0:0:
462,33,32914,2,0,P|476:93|461:140,1,110
394,181,33200,2,0,B|352:138|352:138|401:95|401:95|352:67|302:79,1,220
235,126,33628,2,0,P|277:154|291:214,2,110
291,209,34342,6,0,B|221:216|221:216|145:297|83:213,1,220
152,178,34771,1,0,0:0:0:0:
242,302,34914,1,0,0:0:0:0:
317,309,35057,2,0,P|317:249|279:200,2,110
242,302,35485,1,0,0:0:0:0:
166,334,35628,1,0,0:0:0:0:
123,268,35771,2,0,P|87:315|99:368,2,110
344,113,36485,5,0,0:0:0:0:
158,63,36771,2,0,B|142:134|142:134|183:212|120:270,2,220
72,192,37628,1,0,0:0:0:0:
225,116,37914,1,0,0:0:0:0:
344,113,38200,2,0,P|275:189|226:113,1,220
281,51,38771,1,0,0:0:0:0:
400,57,39057,6,0,B|456:103|456:103|456:265,2,220
281,51,39914,1,0,0:0:0:0:
208,140,40200,1,0,0:0:0:0:
268,256,40485,1,0,0:0:0:0:
387,240,40771,1,0,0:0:0:0:
409,196,40914,1,0,0:0:0:0:
394,147,41057,1,0,0:0:0:0:
346,125,41200,1,0,0:0:0:0:
296,137,41342,6,0,B|277:178|277:178|162:189|206:324,2,220
270,258,42200,1,0,0:0:0:0:
219,112,42485,1,0,0:0:0:0:
355,261,42771,2,0,P|298:341|197:297,1,220
256,192,43342,12,0,45628,0:0:0:0:
168,284,48200,6,0,P|123:233|123:182,1,110
332,93,48485,2,0,L|445:93,1,110
465,180,48771,1,0,0:0:0:0:
305,329,48914,1,0,0:0:0:0:
465,180,49057,1,0,0:0:0:0:
305,329,49200,6,0,B|305:243|305:243|277:215,2,110
44,254,49628,1,0,0:0:0:0:
63,174,49771,2,0,B|128:197|118:280|118:280|206:313,1,220
305,329,50200,2,0,L|423:329,1,110
426,246,50485,5,0,0:0:0:0:
346,112,50628,1,0,0:0:0:0:
264,242,50771,2,0,P|320:235|361:191,1,110
284,57,51057,2,0,B|201:57|201:57|166:85,2,110
264,242,51485,2,0,B|233:200|233:200|126:173|182:68,2,220
240,120,52200,5,0,0:0:0:0:
185,270,52271,1,0,0:0:0:0:
185,270,52342,1,0,0:0:0:0:
185,270,52414,2,0,L|226:318,3,55
280,328,52699,2,0,P|328:304|344:248,1,110
179,73,52985,2,0,P|137:114|137:168,1,110
414,158,53271,5,0,0:0:0:0:
245,124,53414,1,0,0:0:0:0:
245,124,53556,1,0,0:0:0:0:
414,158,53699,1,0,0:0:0:0:
245,124,53842,2,0,P|215:67|175:75,2,110
174,157,54271,2,0,B|207:228|285:189|285:189|344:266,1,220
422,247,54699,6,0,P|445:197|410:157,2,110
347,219,55128,1,0,0:0:0:0:
246,241,55271,1,0,0:0:0:0:
316,318,55413,1,0,0:0:0:0:
265,161,55556,1,0,0:0:0:0:
171,225,55699,2,0,P|182:290|220:316,1,110
316,318,55985,5,0,0:0:0:0:
347,219,56128,2,0,P|306:168|257:161,2,110
316,318,56556,1,0,0:0:0:0:
94,308,56699,1,0,0:0:0:0:
49,217,56842,1,0,0:0:0:0:
50,187,56913,1,0,0:0:0:0:
61,160,56985,1,0,0:0:0:0:
88,144,57056,1,0,0:0:0:0:
118,147,57128,1,0,0:0:0:0:
150,141,57199,1,0,0:0:0:0:
168,115,57271,1,0,0:0:0:0:
336,79,57413,6,0,P|385:105|417:164,1,110
185,290,57699,2,0,P|125:274|88:228,1,110
86,50,57985,2,0,P|145:78|173:141,1,110
325,249,58271,2,0,P|361:291|419:300,1,110
406,220,58556,5,0,0:0:0:0:
408,117,58699,1,0,0:0:0:0:
318,167,58842,1,0,0:0:0:0:
480,209,58985,1,0,0:0:0:0:
434,49,59128,1,0,0:0:0:0:
318,167,59271,2,0,P|318:228|339:276,2,110
249,104,59699,5,0,0:0:0:0:
158,135,59842,1,0,0:0:0:0:
231,199,59985,1,0,0:0:0:0:
193,50,60128,1,0,0:0:0:0:
83,155,60271,1,0,0:0:0:0:
231,199,60413,1,0,0:0:0:0:
193,50,60556,2,0,L|74:50,2,110
249,104,60985,5,0,0:0:0:0:
231,199,61128,1,0,0:0:0:0:
157,135,61271,1,0,0:0:0:0:
305,144,61414,1,0,0:0:0:0:
213,266,61556,1,0,0:0:0:0:
157,135,61699,1,0,0:0:0:0:
325,62,61842,6,0,P|390:75|426:113,1,110
165,328,62128,2,0,P|101:303|76:266,1,110
79,115,62414,2,0,P|113:71|171:58,1,110
405,269,62699,2,0,P|368:316|313:332,1,110
239,267,62985,5,0,0:0:0:0:
264,169,63128,1,0,0:0:0:0:
336,239,63271,1,0,0:0:0:0:
182,218,63414,1,0,0:0:0:0:
274,97,63556,1,0,0:0:0:0:
336,239,63699,1,0,0:0:0:0:
148,156,63842,5,0,0:0:0:0:
313,40,63985,1,0,0:0:0:0:
336,239,64128,2,0,P|278:273|237:265,1,110
148,156,64414,1,0,0:0:0:0:
81,327,64556,1,0,0:0:0:0:
24,251,64699,6,0,B|73:207|73:207|45:109|131:73,1,220
239,126,65128,2,0,P|206:161|144:152,2,110
313,40,65556,1,0,0:0:0:0:
336,239,65699,1,0,0:0:0:0:
152,159,65842,5,0,0:0:0:0:
176,136,65914,1,0,0:0:0:0:
212,142,65985,1,0,0:0:0:0:
219,180,66056,1,0,0:0:0:0:
192,210,66128,1,0,0:0:0:0:
165,240,66199,1,0,0:0:0:0:
149,286,66271,1,0,0:0:0:0:
150,331,66342,6,0,L|263:277,1,110
448,55,66627,2,0,L|343:105,1,110
212,142,66913,1,0,0:0:0:0:
439,251,67056,1,0,0:0:0:0:
212,142,67199,1,0,0:0:0:0:
439,251,67342,2,0,B|407:309|407:309|345:309,2,110
345,174,67770,5,0,0:0:0:0:
262,168,67913,2,0,B|278:108|337:95|337:95|228:49,1,220
112,79,68342,2,0,P|102:141|130:186,1,110
252,261,68627,5,0,0:0:0:0:
124,181,68770,1,0,0:0:0:0:
119,332,68913,1,0,0:0:0:0:
256,190,69056,1,0,0:0:0:0:
71,135,69199,1,0,0:0:0:0:
119,332,69342,6,0,L|240:332,1,110
456,216,69627,2,0,L|336:216,2,110
437,291,70056,1,0,0:0:0:0:
339,129,70199,2,0,P|282:107|232:130,1,110
179,175,70484,5,0,0:0:0:0:
148,206,70556,1,0,0:0:0:0:
103,212,70627,1,0,0:0:0:0:
63,222,70699,1,0,0:0:0:0:
30,260,70770,1,0,0:0:0:0:
14,310,70842,1,0,0:0:0:0:
23,357,70913,6,0,L|137:299,1,110
476,38,71199,2,0,L|365:93,1,110
99,142,71484,1,0,0:0:0:0:
421,258,71627,1,0,0:0:0:0:
99,142,71770,1,0,0:0:0:0:
421,258,71913,6,0,P|455:278|446:356,2,110
285,318,72342,1,0,0:0:0:0:
357,339,72484,2,0,B|360:256|287:242|287:242|259:136,1,220
347,172,72913,2,0,L|419:83,1,110
276,63,73199,5,0,0:0:0:0:
176,211,73342,1,0,0:0:0:0:
355,224,73484,1,0,0:0:0:0:
211,38,73627,1,0,0:0:0:0:
123,258,73770,2,0,P|190:284|225:263,1,110
145,136,74056,5,0,0:0:0:0:
72,108,74199,2,0,P|121:64|178:61,2,110
41,191,74627,1,0,0:0:0:0:
321,192,74770,1,0,0:0:0:0:
211,38,74913,5,0,0:0:0:0:
186,78,74984,1,0,0:0:0:0:
213,128,75056,1,0,0:0:0:0:
263,126,75127,1,0,0:0:0:0:
277,73,75199,1,0,0:0:0:0:
318,44,75270,1,0,0:0:0:0:
366,47,75342,1,0,0:0:0:0:
398,79,75413,1,0,0:0:0:0:
440,99,75484,6,0,L|337:147,1,110
81,287,75770,2,0,L|188:234,1,110
430,284,76056,2,0,L|303:228,1,110
76,80,76342,2,0,L|187:140,1,110
263,202,76627,5,0,0:0:0:0:
82,288,76770,1,0,0:0:0:0:
99,86,76913,1,0,0:0:0:0:
241,275,77056,1,0,0:0:0:0:
10,298,77199,1,0,0:0:0:0:
99,86,77342,2,0,P|146:58|208:66,2,110
123,169,77770,5,0,0:0:0:0:
306,256,77913,1,0,0:0:0:0:
290,55,78056,1,0,0:0:0:0:
128,240,78199,1,0,0:0:0:0:
372,279,78342,1,0,0:0:0:0:
290,55,78484,1,0,0:0:0:0:
128,240,78627,2,0,P|116:305|134:350,2,110
216,157,79056,5,0,0:0:0:0:
334,320,79199,1,0,0:0:0:0:
133,340,79342,1,0,0:0:0:0:
288,145,79484,1,0,0:0:0:0:
375,369,79627,1,0,0:0:0:0:
133,340,79770,2,0,L|23:287,1,110
53,73,80056,6,0,L|168:124,1,110
451,312,80342,2,0,L|343:261,1,110
60,311,80627,2,0,L|172:256,1,110
450,69,80913,2,0,L|345:125,1,110
263,171,81199,5,0,0:0:0:0:
410,304,81342,1,0,0:0:0:0:
452,111,81484,1,0,0:0:0:0:
265,244,81627,1,0,0:0:0:0:
458,353,81770,1,0,0:0:0:0:
452,111,81913,2,0,P|373:66|349:71,2,110
428,197,82342,5,0,0:0:0:0:
265,244,82484,1,0,0:0:0:0:
307,51,82627,1,0,0:0:0:0:
403,264,82770,1,0,0:0:0:0:
197,234,82913,1,0,0:0:0:0:
307,51,83056,1,0,0:0:0:0:
403,264,83199,6,0,P|351:326|313:334,2,110
428,197,83627,1,0,0:0:0:0:
123,248,83770,2,0,L|12:248,2,110
104,175,84270,2,0,B|31:171|31:171|67:139,1,110
64,57,84555,6,0,L|167:113,1,110
445,305,84841,2,0,L|336:242,1,110
435,65,85127,2,0,L|324:124,1,110
68,308,85412,2,0,L|185:243,1,110
217,178,85698,5,0,0:0:0:0:
353,281,85841,1,0,0:0:0:0:
195,347,85984,1,0,0:0:0:0:
287,171,86127,1,0,0:0:0:0:
394,338,86269,1,0,0:0:0:0:
195,347,86412,2,0,L|74:348,2,110
258,288,86840,5,0,0:0:0:0:
168,137,86983,1,0,0:0:0:0:
83,291,87126,1,0,0:0:0:0:
277,215,87269,1,0,0:0:0:0:
114,82,87412,6,0,P|94:131|109:183,2,110
231,96,87840,1,0,0:0:0:0:
277,215,87983,2,0,L|225:319,2,110
310,137,88412,1,0,0:0:0:0:
87,188,88555,2,0,P|67:244|92:302,1,110
147,335,88840,2,0,P|166:284|145:229,1,110
62,63,89126,6,0,L|162:129,1,110
456,338,89412,2,0,L|345:268,1,110
58,340,89697,2,0,L|162:276,1,110
452,60,89983,2,0,L|338:115,1,110
260,151,90269,5,0,0:0:0:0:
372,302,90412,1,0,0:0:0:0:
447,130,90555,1,0,0:3:0:0:
247,222,90697,1,0,0:0:0:0:
410,357,90840,1,0,0:0:0:0:
447,130,90983,2,0,P|399:80|352:80,2,110
357,222,91412,6,0,L|234:222,1,110
190,153,91697,1,0,0:0:0:0:
117,320,91840,1,0,0:0:0:0:
38,337,91983,2,0,B|31:265|108:240|108:240|115:141,1,220
121,68,92412,6,0,P|65:89|37:144,2,110
205,47,92840,1,0,0:0:0:0:
357,270,92983,1,0,0:0:0:0:
380,285,93055,1,0,0:0:0:0:
383,316,93126,1,0,0:0:0:0:
348,322,93197,1,0,0:0:0:0:
334,292,93269,1,0,0:0:0:0:
240,223,93983,6,0,B|170:241|170:241|124:328|29:273,2,220
88,211,94697,1,0,0:0:0:0:
340,73,94983,1,0,0:0:0:0:
417,93,95126,2,0,L|437:217,1,110
246,339,95983,6,0,P|290:296|286:244,2,110
214,268,96412,2,0,B|188:192|249:160|249:160|212:73,1,220
360,65,96983,2,0,P|453:108|376:140,1,220
318,153,97412,1,0,0:0:0:0:
391,221,97555,2,0,B|273:235|273:235|273:235,1,110
133,67,98412,6,0,L|23:67,2,110
213,70,98840,2,0,B|196:148|125:145|125:145|66:229,1,220
152,273,99269,2,0,P|212:213|194:296,1,220
136,346,99697,2,0,P|79:337|28:355,1,110
359,266,100555,6,0,B|377:204|377:204|465:182|410:57,1,220
354,129,100983,2,0,B|312:152|280:198|280:198|288:137|255:86,1,220
67,138,101555,2,0,L|142:226,2,110
75,58,101983,1,0,0:0:0:0:
265,64,102126,1,0,0:0:0:0:
