osu file format v14

[General]
AudioFilename: Ghost Rule - Mafumafu.mp3
AudioLeadIn: 0
PreviewTime: 48057
Countdown: 0
SampleSet: Normal
StackLeniency: 0.7
Mode: 0
LetterboxInBreaks: 1
WidescreenStoryboard: 1

[Editor]
DistanceSpacing: 0.5
BeatDivisor: 2
GridSize: 8
TimelineZoom: 1.1

[Metadata]
Title:Ghost Rule
TitleUnicode:Ghost Rule
Artist:Mafumafu
ArtistUnicode:まふまふ
Creator:ChuuritsuTv
Version:Beginner
Source:
Tags:deco*27 cover goosuto ruuru vocaloid
BeatmapID:1412776
BeatmapSetID:667670

[Difficulty]
HPDrainRate:1
CircleSize:2.5
OverallDifficulty:1.8
ApproachRate:1.5
SliderMultiplier:0.700000005960464
SliderTickRate:1

[Events]
//Background and Video events
0,0,"BG.jpg",0,0
//Break Periods
//Storyboard Layer 0 (Background)
//Storyboard Layer 1 (Fail)
//Storyboard Layer 2 (Pass)
//Storyboard Layer 3 (Foreground)
//Storyboard Sound Samples

[TimingPoints]
200,285.714285714286,4,1,0,100,1,0
48200,-100,4,1,0,100,0,1
52414,285.714285714286,4,1,0,100,1,1
66342,285.714285714286,4,1,0,100,1,1
84200,-100,4,1,0,100,0,0
84555,285.714285714286,4,1,0,100,1,0

[HitObjects]
128,144,9342,6,0,B|70:193|71:266|71:266|181:266,2,245.000002086162
229,175,11628,2,0,B|283:218|280:282|280:282|334:165,2,245.000002086162
266,87,13914,2,0,P|381:75|425:188,2,245.000002086162
181,110,16200,2,0,B|91:51|91:51|121:152|50:180,2,245.000002086162
259,183,18485,6,0,L|406:182,2,140.000001192093
207,219,19914,2,0,L|177:295,1,70.0000005960464
107,143,20771,2,0,P|145:90|101:29,2,140.000001192093
69,184,22200,2,0,L|69:258,1,70.0000005960464
169,291,23057,6,0,B|223:341|223:341|304:341,2,140.000001192093
172,239,24485,2,0,L|236:197,1,70.0000005960464
344,161,25342,2,0,B|417:176|417:176|416:238|431:253,2,140.000001192093
300,161,26771,2,0,L|228:161,1,70.0000005960464
188,62,27628,6,0,L|43:62,2,140.000001192093
229,82,29057,2,0,L|285:133,1,70.0000005960464
324,247,29914,2,0,P|380:207|405:143,2,140.000001192093
299,289,31342,2,0,L|266:351,1,70.0000005960464
167,293,32485,6,0,P|101:301|52:244,2,140.000001192093
203,184,34485,2,0,L|203:41,2,140.000001192093
237,220,35914,2,0,L|293:268,1,70.0000005960464
407,314,36771,6,0,B|436:231|385:182|385:182|424:84,2,245.000002086162
313,264,39057,2,0,B|192:264|192:264|151:209|87:209,2,245.000002086162
297,166,41342,2,0,P|213:102|312:46,2,245.000002086162
373,105,43628,2,0,B|421:151|387:222|387:222|422:297|422:297|409:329,2,245.000002086162
256,192,45914,12,0,47628,0:0:0:0:
134,158,48200,6,0,P|101:233|128:289,2,140.000001192093
165,63,49914,1,0,0:0:0:0:
263,37,50485,2,0,P|274:95|230:159,1,140.000001192093
231,250,51628,2,0,L|303:250,2,70.0000005960464
126,246,52699,6,0,B|81:171|81:171|19:171,2,140.000001192093
206,185,54414,1,0,0:0:0:0:
285,244,54985,2,0,B|321:220|320:177|320:177|391:203,1,140.000001192093
396,293,56128,2,0,L|468:293,2,70.0000005960464
310,327,57271,6,0,B|230:327|230:327|197:269|197:269|156:319|103:319,2,245.000002086162
288,231,59556,2,0,P|248:180|174:166,2,140.000001192093
373,192,61271,1,0,0:0:0:0:
452,132,61842,6,0,B|402:86|351:103|351:103|364:31|364:31|283:31,2,245.000002086162
451,223,64128,2,0,L|450:365,2,140.000001192093
356,252,65842,1,0,0:0:0:0:
255,244,66342,6,0,P|262:311|321:349,2,140.000001192093
165,195,68056,1,0,0:0:0:0:
92,126,68627,2,0,P|168:98|228:126,2,140.000001192093
53,209,70342,1,0,0:0:0:0:
132,267,70913,6,0,B|98:311|98:311|13:311,2,140.000001192093
223,236,72627,1,0,0:0:0:0:
268,151,73199,2,0,P|311:202|305:277,2,140.000001192093
224,61,74913,1,0,0:0:0:0:
126,66,75484,6,0,B|112:101|159:141|159:141|90:180|84:283,2,245.000002086162
226,60,77770,2,0,L|371:60,2,140.000001192093
263,150,79484,1,0,0:0:0:0:
295,243,80056,6,0,B|252:239|207:235|207:235|123:298|72:221,2,245.000002086162
369,179,82342,2,0,P|398:240|371:303,2,140.000001192093
288,131,84056,1,0,0:0:0:0:
193,147,84555,6,0,B|178:99|221:51|221:51|75:51,2,245.000002086162
253,220,86841,2,0,P|191:248|130:215,2,140.000001192093
295,134,88555,1,0,0:0:0:0:
359,56,89127,6,0,B|412:119|371:202|371:202|473:202,2,245.000002086162
264,87,91412,2,0,L|120:87,2,140.000001192093
288,192,93127,1,0,0:0:0:0:
328,283,93698,6,0,B|384:282|384:282|418:237|453:289,2,140.000001192093
273,298,95127,1,0,0:0:0:0:
144,203,95984,2,0,B|81:253|81:253|81:326,2,140.000001192093
158,160,97412,1,0,0:0:0:0:
268,159,98270,6,0,B|268:78|268:78|328:103,2,140.000001192093
311,186,99698,2,0,L|352:248,1,70.0000005960464
293,336,100555,2,0,P|231:290|158:340,2,175.000001490116
