osu file format v13

[General]
AudioFilename: pensamento_t_pico_de_esquerda_caviar.mp3
AudioLeadIn: 0
PreviewTime: 47324
Countdown: 0
SampleSet: Normal
StackLeniency: 0.7
Mode: 1
LetterboxInBreaks: 0
WidescreenStoryboard: 1

[Editor]
Bookmarks: 12194,24409,36630,39113,61073,92996,94214,103960,111270,113707,123148
DistanceSpacing: 1.4
BeatDivisor: 4
GridSize: 16
TimelineZoom: 1.2

[Metadata]
Title:pensamento tipico de esquerda caviar
TitleUnicode:pensamento tipico de esquerda caviar
Artist:Maffalda
ArtistUnicode:Maffalda
Creator:Blue Dragon
Version:Oni
Source:
Tags:trap brazil portuguese funk aah eu vou gozar mc nego bam kuron-kun brasil onosakihito
BeatmapID:468992
BeatmapSetID:175036

[Difficulty]
HPDrainRate:8
CircleSize:4
OverallDifficulty:5
ApproachRate:5
SliderMultiplier:1.40000000596046
SliderTickRate:1

[Events]
//Background and Video events
0,0,"Taiko_BG.jpg",0,0
//Break Periods
//Storyboard Layer 0 (Background)
//Storyboard Layer 1 (Fail)
//Storyboard Layer 2 (Pass)
//Storyboard Layer 3 (Foreground)
//Storyboard Sound Samples
//Background Colour Transformations
3,100,163,162,255

[TimingPoints]
12194,381.922342457034,4,1,0,30,1,0
24409,381.922342457034,4,1,0,50,1,0
48852,-100,4,1,0,70,0,1
59545,-100,4,1,0,50,0,0
60691,-200,4,1,0,50,0,0
73285,379.746835443038,4,1,0,60,1,0
74803,369.230769230769,4,1,0,60,1,0
76274,359.281437125748,4,1,0,60,1,0
77721,350.877192982456,4,1,0,60,1,8
79104,342.857142857143,4,1,0,60,1,0
80475,335.195530726257,4,1,0,60,1,0
81815,327.868852459016,4,1,0,60,1,0
83126,320.855614973262,4,1,0,60,1,0
84409,314.13612565445,4,1,0,60,1,0
85665,310.880829015544,4,1,0,60,1,0
86905,304.568527918782,4,1,0,60,1,0
113707,-100,4,1,0,50,0,1
123148,-100,4,1,0,50,0,0

[HitObjects]
256,192,12194,5,0,0:0:0:0:
256,192,12766,1,0,0:0:0:0:
256,192,13339,1,0,0:0:0:0:
256,192,13721,1,0,0:0:0:0:
256,192,15249,1,0,0:0:0:0:
256,192,15822,1,0,0:0:0:0:
256,192,16395,1,0,0:0:0:0:
256,192,16777,1,0,0:0:0:0:
256,192,17349,1,0,0:0:0:0:
256,192,17731,5,12,0:0:0:0:
256,192,17922,5,4,0:0:0:0:
256,192,18304,1,0,0:0:0:0:
256,192,18877,1,0,0:0:0:0:
256,192,19450,1,0,0:0:0:0:
256,192,19832,1,0,0:0:0:0:
256,192,20405,1,0,0:0:0:0:
256,192,21360,1,0,0:0:0:0:
256,192,21933,1,0,0:0:0:0:
256,192,22505,1,0,0:0:0:0:
256,192,22887,1,4,0:0:0:0:
256,192,24409,1,0,0:0:0:0:
256,192,24981,1,0,0:0:0:0:
256,192,25172,5,8,0:0:0:0:
256,192,25554,5,0,0:0:0:0:
256,192,25936,1,0,0:0:0:0:
256,192,26509,1,0,0:0:0:0:
256,192,26700,5,8,0:0:0:0:
256,192,27082,5,0,0:0:0:0:
256,192,27464,1,0,0:0:0:0:
256,192,28037,1,0,0:0:0:0:
256,192,28228,5,8,0:0:0:0:
256,192,28610,5,0,0:0:0:0:
256,192,28992,1,0,0:0:0:0:
256,192,29564,1,0,0:0:0:0:
256,192,29755,5,8,0:0:0:0:
256,192,30137,5,0,0:0:0:0:
256,192,30519,5,8,0:0:0:0:
256,192,30901,5,0,0:0:0:0:
256,192,31092,1,0,0:0:0:0:
256,192,31283,5,8,0:0:0:0:
256,192,31665,5,0,0:0:0:0:
256,192,32047,5,8,0:0:0:0:
256,192,32429,5,0,0:0:0:0:
256,192,32620,1,0,0:0:0:0:
256,192,32811,5,8,0:0:0:0:
256,192,33193,5,0,0:0:0:0:
256,192,33575,6,0,L|112:192,4,140.000000596046,0|0|0|0|0,0:0|0:0|0:0|0:0|0:0,0:0:0:0:
256,192,36630,5,4,0:0:0:0:
256,192,37203,1,0,0:0:0:0:
256,192,37394,5,8,0:0:0:0:
256,192,37776,5,0,0:0:0:0:
256,192,38349,1,0,0:0:0:0:
256,192,38540,1,0,0:0:0:0:
256,192,38922,5,8,0:0:0:0:
256,192,39303,1,12,0:0:0:0:
256,192,39685,5,4,0:0:0:0:
256,192,40258,1,0,0:0:0:0:
256,192,40449,5,8,0:0:0:0:
256,192,40831,5,0,0:0:0:0:
256,192,41404,1,0,0:0:0:0:
256,192,41595,1,0,0:0:0:0:
256,192,41786,1,0,0:0:0:0:
256,192,41977,5,8,0:0:0:0:
256,192,42359,1,12,0:0:0:0:
256,192,42741,5,4,0:0:0:0:
256,192,43314,1,0,0:0:0:0:
256,192,43505,5,8,0:0:0:0:
256,192,43887,5,0,0:0:0:0:
256,192,44459,1,0,0:0:0:0:
256,192,44650,1,0,0:0:0:0:
256,192,45032,5,8,0:0:0:0:
256,192,45414,5,12,0:0:0:0:
256,192,45796,5,4,0:0:0:0:
256,192,46369,1,0,0:0:0:0:
256,192,46560,5,8,0:0:0:0:
256,192,46942,5,4,0:0:0:0:
256,192,48470,5,12,0:0:0:0:
256,192,48852,1,4,0:0:0:0:
256,192,49424,1,0,0:0:0:0:
256,192,49615,5,8,0:0:0:0:
256,192,49997,5,0,0:0:0:0:
256,192,50093,1,0,0:0:0:0:
256,192,50188,1,0,0:0:0:0:
256,192,50570,1,0,0:0:0:0:
256,192,50761,1,0,0:0:0:0:
256,192,51143,5,8,0:0:0:0:
256,192,51334,5,0,0:0:0:0:
256,192,51525,1,0,0:0:0:0:
256,192,51620,1,0,0:0:0:0:
256,192,51716,1,0,0:0:0:0:
256,192,51907,1,4,0:0:0:0:
256,192,52480,1,0,0:0:0:0:
256,192,52671,5,8,0:0:0:0:
256,192,53053,5,0,0:0:0:0:
256,192,53148,1,0,0:0:0:0:
256,192,53244,1,0,0:0:0:0:
256,192,53626,1,0,0:0:0:0:
256,192,53817,1,0,0:0:0:0:
256,192,54007,1,0,0:0:0:0:
256,192,54198,5,8,0:0:0:0:
256,192,54389,5,0,0:0:0:0:
256,192,54580,5,0,0:0:0:0:
256,192,54676,1,0,0:0:0:0:
256,192,54771,1,0,0:0:0:0:
256,192,54962,1,4,0:0:0:0:
256,192,55535,1,0,0:0:0:0:
256,192,55726,5,8,0:0:0:0:
256,192,56108,1,0,0:0:0:0:
256,192,56204,1,0,0:0:0:0:
256,192,56299,1,0,0:0:0:0:
256,192,56681,1,0,0:0:0:0:
256,192,56872,1,0,0:0:0:0:
256,192,57254,5,8,0:0:0:0:
256,192,57636,5,0,0:0:0:0:
256,192,57731,1,0,0:0:0:0:
256,192,57827,1,0,0:0:0:0:
256,192,58018,1,4,0:0:0:0:
256,192,58591,1,0,0:0:0:0:
256,192,58782,5,8,0:0:0:0:
256,192,59163,5,0,0:0:0:0:
256,192,59259,1,0,0:0:0:0:
256,192,59354,1,0,0:0:0:0:
256,192,61073,5,0,0:0:0:0:
256,192,61646,1,0,0:0:0:0:
256,192,61837,5,8,0:0:0:0:
256,192,62219,5,0,0:0:0:0:
256,192,62792,1,0,0:0:0:0:
256,192,62983,1,0,0:0:0:0:
256,192,63365,5,8,0:0:0:0:
256,192,63556,5,0,0:0:0:0:
256,192,63937,1,0,0:0:0:0:
256,192,64128,1,0,0:0:0:0:
256,192,64701,1,0,0:0:0:0:
256,192,64892,5,8,0:0:0:0:
256,192,65274,5,0,0:0:0:0:
256,192,65847,1,0,0:0:0:0:
256,192,66038,1,0,0:0:0:0:
256,192,66420,5,8,0:0:0:0:
256,192,66611,5,0,0:0:0:0:
256,192,66993,1,0,0:0:0:0:
256,192,67184,1,0,0:0:0:0:
256,192,67757,1,0,0:0:0:0:
256,192,67948,5,8,0:0:0:0:
256,192,68330,5,0,0:0:0:0:
256,192,68902,1,0,0:0:0:0:
256,192,69093,1,0,0:0:0:0:
256,192,69475,5,8,0:0:0:0:
256,192,69666,5,0,0:0:0:0:
256,192,70048,1,0,0:0:0:0:
256,192,70239,1,0,0:0:0:0:
256,192,70812,1,0,0:0:0:0:
256,192,71003,5,8,0:0:0:0:
256,192,71385,5,0,0:0:0:0:
256,192,72531,5,8,0:0:0:0:
256,192,73285,5,4,0:0:0:0:
256,192,73854,1,4,0:0:0:0:
256,192,74424,1,4,0:0:0:0:
256,192,74987,1,4,0:0:0:0:
256,192,75172,1,4,0:0:0:0:
256,192,75541,1,4,0:0:0:0:
256,192,75726,1,4,0:0:0:0:
256,192,75910,1,4,0:0:0:0:
256,192,76274,1,4,0:0:0:0:
256,192,76812,1,4,0:0:0:0:
256,192,77351,1,4,0:0:0:0:
256,192,77896,1,4,0:0:0:0:
256,192,78071,1,4,0:0:0:0:
256,192,78422,1,4,0:0:0:0:
256,192,78773,1,4,0:0:0:0:
256,192,79104,1,4,0:0:0:0:
256,192,79618,1,4,0:0:0:0:
256,192,80132,1,4,0:0:0:0:
256,192,80642,1,4,0:0:0:0:
256,192,80810,1,4,0:0:0:0:
256,192,81145,1,4,0:0:0:0:
256,192,81480,1,4,0:0:0:0:
256,192,81815,1,4,0:0:0:0:
256,192,82306,1,4,0:0:0:0:
256,192,82798,1,4,0:0:0:0:
256,192,83286,1,0,0:0:0:0:
256,192,83446,1,4,0:0:0:0:
256,192,83767,1,0,0:0:0:0:
256,192,83928,1,0,0:0:0:0:
256,192,84088,1,4,0:0:0:0:
256,192,84409,1,4,0:0:0:0:
256,192,84566,1,0,0:0:0:0:
256,192,84723,1,0,0:0:0:0:
256,192,84880,1,4,0:0:0:0:
256,192,85037,1,0,0:0:0:0:
256,192,85194,1,0,0:0:0:0:
256,192,85351,1,4,0:0:0:0:
256,192,85508,1,0,0:0:0:0:
256,192,85665,1,0,0:0:0:0:
256,192,85820,1,4,0:0:0:0:
256,192,85975,1,4,0:0:0:0:
256,192,86131,1,0,0:0:0:0:
256,192,86286,1,4,0:0:0:0:
256,192,86442,1,4,0:0:0:0:
256,192,86597,1,4,0:0:0:0:
256,192,86905,1,4,0:0:0:0:
256,192,87057,1,0,0:0:0:0:
256,192,87209,1,0,0:0:0:0:
256,192,87361,1,4,0:0:0:0:
256,192,87514,1,0,0:0:0:0:
256,192,87666,1,0,0:0:0:0:
256,192,87818,1,4,0:0:0:0:
256,192,87970,1,0,0:0:0:0:
256,192,88123,1,0,0:0:0:0:
256,192,88275,1,4,0:0:0:0:
256,192,88427,1,4,0:0:0:0:
256,192,88580,1,0,0:0:0:0:
256,192,88732,1,4,0:0:0:0:
256,192,88884,1,0,0:0:0:0:
256,192,89036,1,4,0:0:0:0:
256,192,89341,1,4,0:0:0:0:
256,192,89493,1,0,0:0:0:0:
256,192,89646,1,0,0:0:0:0:
256,192,89798,1,4,0:0:0:0:
256,192,89950,1,0,0:0:0:0:
256,192,90102,1,0,0:0:0:0:
256,192,90255,1,4,0:0:0:0:
256,192,90407,1,0,0:0:0:0:
256,192,90559,1,0,0:0:0:0:
256,192,90712,1,4,0:0:0:0:
256,192,90864,1,4,0:0:0:0:
256,192,91016,1,0,0:0:0:0:
256,192,91168,1,4,0:0:0:0:
256,192,91321,1,0,0:0:0:0:
256,192,91473,1,4,0:0:0:0:
256,192,91625,1,0,0:0:0:0:
256,192,91778,5,12,0:0:0:0:
256,192,91930,1,0,0:0:0:0:
256,192,92082,1,0,0:0:0:0:
256,192,92234,5,12,0:0:0:0:
256,192,92387,5,0,0:0:0:0:
256,192,92539,1,0,0:0:0:0:
256,192,92691,5,12,0:0:0:0:
256,192,92844,1,12,0:0:0:0:
256,192,92996,5,4,0:0:0:0:
256,192,94214,5,0,0:0:0:0:
256,192,94290,1,0,0:0:0:0:
256,192,94366,1,0,0:0:0:0:
256,192,94671,1,0,0:0:0:0:
256,192,94747,1,0,0:0:0:0:
256,192,94823,1,0,0:0:0:0:
256,192,95128,5,12,0:0:0:0:
256,192,95585,5,0,0:0:0:0:
256,192,95737,1,0,0:0:0:0:
256,192,96042,1,0,0:0:0:0:
256,192,96118,1,0,0:0:0:0:
256,192,96194,1,0,0:0:0:0:
256,192,96346,1,0,0:0:0:0:
256,192,96422,1,0,0:0:0:0:
256,192,96498,1,0,0:0:0:0:
256,192,96651,1,0,0:0:0:0:
256,192,96727,1,0,0:0:0:0:
256,192,96803,1,0,0:0:0:0:
256,192,97108,1,0,0:0:0:0:
256,192,97184,1,0,0:0:0:0:
256,192,97260,1,0,0:0:0:0:
256,192,97564,5,12,0:0:0:0:
256,192,98021,5,0,0:0:0:0:
256,192,98174,1,0,0:0:0:0:
256,192,98478,1,0,0:0:0:0:
256,192,98554,1,0,0:0:0:0:
256,192,98630,1,0,0:0:0:0:
256,192,98783,5,8,0:0:0:0:
256,192,98859,1,8,0:0:0:0:
256,192,98935,1,8,0:0:0:0:
256,192,99087,5,0,0:0:0:0:
256,192,99163,1,0,0:0:0:0:
256,192,99240,1,0,0:0:0:0:
256,192,99544,1,0,0:0:0:0:
256,192,99620,1,0,0:0:0:0:
256,192,99696,1,0,0:0:0:0:
256,192,100001,5,12,0:0:0:0:
256,192,100458,5,0,0:0:0:0:
256,192,100610,1,0,0:0:0:0:
256,192,100915,1,0,0:0:0:0:
256,192,100991,1,0,0:0:0:0:
256,192,101067,1,0,0:0:0:0:
256,192,101219,1,0,0:0:0:0:
256,192,101295,1,0,0:0:0:0:
256,192,101372,1,0,0:0:0:0:
256,192,101524,1,0,0:0:0:0:
256,192,101600,1,0,0:0:0:0:
256,192,101676,1,0,0:0:0:0:
256,192,101981,1,0,0:0:0:0:
256,192,102057,1,0,0:0:0:0:
256,192,102133,1,0,0:0:0:0:
256,192,102437,5,12,0:0:0:0:
256,192,102894,5,0,0:0:0:0:
256,192,103047,1,0,0:0:0:0:
256,192,103351,1,0,0:0:0:0:
256,192,103427,1,0,0:0:0:0:
256,192,103503,1,0,0:0:0:0:
256,192,103656,5,8,0:0:0:0:
256,192,103732,1,8,0:0:0:0:
256,192,103808,1,8,0:0:0:0:
256,192,103960,5,4,0:0:0:0:
256,192,104265,5,8,0:0:0:0:
256,192,104417,1,0,0:0:0:0:
256,192,104493,1,0,0:0:0:0:
256,192,104569,1,0,0:0:0:0:
256,192,104874,5,12,0:0:0:0:
256,192,105331,5,0,0:0:0:0:
256,192,105407,1,0,0:0:0:0:
256,192,105483,1,0,0:0:0:0:
256,192,105788,5,12,0:0:0:0:
256,192,105940,5,0,0:0:0:0:
256,192,106016,1,0,0:0:0:0:
256,192,106092,1,0,0:0:0:0:
256,192,106245,5,12,0:0:0:0:
256,192,106397,5,4,0:0:0:0:
256,192,106701,5,8,0:0:0:0:
256,192,106854,5,0,0:0:0:0:
256,192,106930,1,0,0:0:0:0:
256,192,107006,1,0,0:0:0:0:
256,192,107311,5,12,0:0:0:0:
256,192,107767,5,0,0:0:0:0:
256,192,107844,1,0,0:0:0:0:
256,192,107920,1,0,0:0:0:0:
256,192,108224,5,12,0:0:0:0:
256,192,108377,5,0,0:0:0:0:
256,192,108529,5,8,0:0:0:0:
256,192,108605,1,8,0:0:0:0:
256,192,108681,1,8,0:0:0:0:
256,192,108833,5,4,0:0:0:0:
256,192,109138,5,8,0:0:0:0:
256,192,109290,5,0,0:0:0:0:
256,192,109366,1,0,0:0:0:0:
256,192,109443,1,0,0:0:0:0:
256,192,109747,5,12,0:0:0:0:
256,192,110204,5,0,0:0:0:0:
256,192,110280,1,0,0:0:0:0:
256,192,110356,1,0,0:0:0:0:
256,192,110661,5,12,0:0:0:0:
256,192,110813,5,0,0:0:0:0:
256,192,110889,1,0,0:0:0:0:
256,192,110965,1,0,0:0:0:0:
256,192,111118,5,12,0:0:0:0:
256,192,111270,5,4,0:0:0:0:
256,192,111575,5,8,0:0:0:0:
256,192,112184,1,8,0:0:0:0:
256,192,112793,1,8,0:0:0:0:
256,192,113097,1,8,0:0:0:0:
256,192,113402,1,8,0:0:0:0:
256,192,113707,5,4,0:0:0:0:
256,192,114011,1,4,0:0:0:0:
256,192,114163,1,4,0:0:0:0:
256,192,114468,1,0,0:0:0:0:
256,192,114620,1,0,0:0:0:0:
256,192,114925,1,4,0:0:0:0:
256,192,115229,1,4,0:0:0:0:
256,192,115534,5,12,0:0:0:0:
256,192,115839,1,12,0:0:0:0:
256,192,116143,5,4,0:0:0:0:
256,192,116448,1,4,0:0:0:0:
256,192,116600,1,4,0:0:0:0:
256,192,116905,1,0,0:0:0:0:
256,192,117057,1,0,0:0:0:0:
256,192,117361,1,4,0:0:0:0:
256,192,117514,1,4,0:0:0:0:
256,192,117666,1,4,0:0:0:0:
256,192,117970,5,12,0:0:0:0:
256,192,118580,5,4,0:0:0:0:
256,192,118884,1,4,0:0:0:0:
256,192,119036,1,4,0:0:0:0:
256,192,119189,5,8,0:0:0:0:
256,192,119341,5,0,0:0:0:0:
256,192,119493,1,0,0:0:0:0:
256,192,119798,1,4,0:0:0:0:
256,192,120102,1,4,0:0:0:0:
256,192,120407,5,12,0:0:0:0:
256,192,120712,1,12,0:0:0:0:
256,192,121016,5,4,0:0:0:0:
256,192,121321,1,4,0:0:0:0:
256,192,121473,1,4,0:0:0:0:
256,192,121625,5,8,0:0:0:0:
256,192,121778,5,0,0:0:0:0:
256,192,121930,1,0,0:0:0:0:
256,192,122234,1,4,0:0:0:0:
256,192,122387,1,4,0:0:0:0:
256,192,122539,1,4,0:0:0:0:
256,192,122844,5,12,0:0:0:0:
256,192,123148,1,8,0:0:0:0:
