osu file format v13

[General]
AudioFilename: pensamento_t_pico_de_esquerda_caviar.mp3
AudioLeadIn: 0
PreviewTime: 47324
Countdown: 0
SampleSet: Soft
StackLeniency: 0.7
Mode: 0
LetterboxInBreaks: 1
WidescreenStoryboard: 1

[Editor]
Bookmarks: 12194,36630,61073,94214,113707,123148
DistanceSpacing: 1
BeatDivisor: 4
GridSize: 4
TimelineZoom: 1

[Metadata]
Title:pensamento tipico de esquerda caviar
TitleUnicode:pensamento tipico de esquerda caviar
Artist:Maffalda
ArtistUnicode:Maffalda
Creator:Blue Dragon
Version:Normal
Source:
Tags:trap brazil portuguese funk aah eu vou gozar mc nego bam kuron-kun brasil onosakihito
BeatmapID:457727
BeatmapSetID:175036

[Difficulty]
HPDrainRate:4
CircleSize:3.5
OverallDifficulty:4
ApproachRate:5
SliderMultiplier:0.800000005960464
SliderTickRate:1

[Events]
//Background and Video events
0,0,"wallpaper-874217.jpg",0,0
//Break Periods
//Storyboard Layer 0 (Background)
//Storyboard Layer 1 (Fail)
//Storyboard Layer 2 (Pass)
//Storyboard Layer 3 (Foreground)
//Storyboard Sound Samples
//Background Colour Transformations
3,100,163,162,255

[TimingPoints]
12194,381.922342457034,4,3,0,20,1,0
24409,381.922342457034,4,2,0,60,1,0
36630,-100,4,2,0,60,0,1
47324,-100,4,2,0,60,0,0
48470,-100,4,2,0,60,0,0
48852,-100,4,2,0,60,0,1
49997,-100,4,2,0,60,0,0
59736,-66.6666666666667,4,2,0,60,0,0
61073,-100,4,2,0,60,0,0
73285,379.746835443038,4,2,0,60,1,0
74803,369.230769230769,4,2,0,60,1,0
76274,359.281437125748,4,2,0,60,1,0
77721,350.877192982456,4,2,0,60,1,0
79104,342.857142857143,4,2,0,60,1,0
80475,335.195530726257,4,2,0,60,1,0
81815,327.868852459016,4,2,0,60,1,0
83126,320.855614973262,4,2,0,60,1,0
84409,314.13612565445,4,2,0,60,1,0
85665,310.880829015544,4,2,0,60,1,0
86905,304.568527918782,4,2,0,60,1,0
92996,-200,4,2,0,60,0,0
93072,-200,4,2,0,10,0,0
94214,-100,4,2,0,60,0,1
112488,-100,4,2,0,60,0,0
113707,-100,4,2,0,60,0,1
123148,-100,4,2,0,60,0,0

[Colours]
Combo1 : 206,205,142
Combo2 : 213,189,203
Combo3 : 163,186,172
Combo4 : 131,145,169

[HitObjects]
92,88,12194,6,0,P|152:96|216:64,2,120.00000089407,0|0|0,0:0|0:0|0:0,0:0:0:0:
32,36,13721,1,0,0:0:0:0:
420,88,15249,6,0,P|360:96|296:64,2,120.00000089407,0|0|0,0:0|0:0|0:0,0:0:0:0:
480,36,16777,2,0,L|464:160,1,120.00000089407,0|0,0:0|0:0,0:0:0:0:
452,232,17731,1,0,0:0:0:0:
452,232,17922,1,0,0:0:0:0:
436,312,18304,6,0,P|384:344|324:332,1,120.00000089407,0|0,0:0|0:0,0:0:0:0:
256,240,19450,2,0,L|256:152,1,80.0000005960464,0|0,0:0|0:0,0:0:0:0:
256,40,20405,1,0,0:0:0:0:
76,72,21360,6,0,P|128:40|188:52,1,120.00000089407,0|0,0:0|0:0,0:0:0:0:
256,144,22505,1,0,0:0:0:0:
256,144,22887,1,0,0:0:0:0:
44,308,24409,6,0,P|96:292|124:296,1,80.0000005960464,2|0,1:2|0:0,0:0:0:0:
188,340,24981,1,0,3:0:0:0:
188,340,25172,2,0,L|212:260,1,80.0000005960464,2|0,1:2|3:3,0:0:0:0:
272,160,25936,6,0,P|220:144|192:148,1,80.0000005960464,2|0,1:2|0:0,0:0:0:0:
128,192,26508,1,0,3:0:0:0:
128,192,26699,2,0,L|104:112,1,80.0000005960464,2|0,1:2|3:0,0:0:0:0:
16,36,27464,6,0,P|56:44|104:24,1,80.0000005960464,2|0,1:2|0:0,0:0:0:0:
172,12,28037,1,0,3:0:0:0:
172,12,28228,2,0,L|256:44,1,80.0000005960464,2|0,1:2|3:3,0:0:0:0:
280,156,28992,6,0,P|320:148|368:168,1,80.0000005960464,2|0,1:2|0:0,0:0:0:0:
436,180,29565,1,0,3:0:0:0:
436,180,29756,2,0,L|520:148,1,80.0000005960464,2|0,1:2|3:0,0:0:0:0:
492,32,30519,5,2,1:2:0:0:
380,76,30901,1,2,1:2:0:0:
268,32,31283,1,2,1:2:0:0:
156,76,31665,1,2,1:2:0:0:
44,32,32047,2,0,L|20:120,1,80.0000005960464,2|2,1:2|1:2,0:0:0:0:
108,194,32811,2,0,L|84:282,1,80.0000005960464,2|2,1:2|1:2,0:0:0:0:
176,352,33575,6,0,L|208:360,16,20.0000001490116,0|0|0|0|0|0|0|0|0|0|0|0|0|0|0|0|0,1:2|3:0|3:0|3:0|1:2|3:0|3:0|3:0|1:2|3:0|3:0|3:0|1:2|3:0|3:0|3:0|1:1,0:0:0:0:
256,192,35293,12,0,36630,1:1:0:0:
60,88,37203,6,0,L|112:72,1,40.0000002980232,0|10,1:0|0:0,0:0:0:0:
208,28,37776,2,0,P|228:80|216:156,1,120.00000089407,0|0,1:0|1:0,0:0:0:0:
176,208,38540,1,0,1:0:0:0:
60,172,38922,2,0,L|36:260,1,80.0000005960464,10|2,0:2|3:1,0:0:0:0:
84,360,39685,6,0,P|156:332|204:344,1,120.00000089407,0|0,1:0|1:0,0:0:0:0:
264,380,40449,1,10,0:0:0:0:
376,332,40831,2,0,L|408:208,1,120.00000089407,0|0,1:0|1:0,0:0:0:0:
428,140,41595,1,0,1:0:0:0:
464,28,41977,1,10,0:0:0:0:
348,52,42359,1,4,1:2:0:0:
316,168,42741,6,0,P|272:176|204:148,1,120.00000089407,0|0,1:0|1:0,0:0:0:0:
152,88,43505,2,0,L|100:152,1,80.0000005960464,10|0,0:0|1:0,0:0:0:0:
16,28,44459,1,0,1:0:0:0:
16,28,44650,1,0,1:0:0:0:
176,16,45032,2,0,P|208:36|224:76,1,80.0000005960464,10|2,1:2|1:1,0:0:0:0:
220,236,45796,6,0,L|344:212,1,120.00000089407,0|0,1:0|1:0,0:0:0:0:
416,192,46560,1,10,0:0:0:0:
404,352,46942,1,0,1:0:0:0:
244,352,47324,6,0,P|224:348|200:348,1,40.0000002980232,2|0,0:1|0:0,0:0:0:0:
128,368,47706,2,0,P|108:367|88:363,1,40.0000002980232,2|0,0:1|0:0,0:0:0:0:
24,316,48088,2,0,P|16:260|32:224,1,80.0000005960464,10|4,0:1|1:2,0:0:0:0:
132,188,48852,6,0,L|116:64,1,120.00000089407,2|0,1:2|1:0,0:0:0:0:
52,24,49615,1,10,0:0:0:0:
200,88,49997,2,0,P|268:92|344:24,1,160.000001192093,4|0,1:2|1:0,0:0:0:0:
452,4,51143,2,0,L|468:84,1,80.0000005960464,10|4,0:0|1:2,0:0:0:0:
496,200,51907,6,0,P|440:200|392:240,1,120.00000089407,0|0,1:0|1:0,0:0:0:0:
368,316,52671,2,0,L|436:364,1,80.0000005960464,10|6,0:0|1:2,0:0:0:0:
308,232,53626,1,0,1:0:0:0:
308,232,53817,2,0,P|244:244|224:260,1,80.0000005960464,0|8,1:0|1:2,0:0:0:0:
192,364,54580,1,12,1:2:0:0:
108,280,54962,6,0,L|72:156,1,120.00000089407,0|0,1:0|1:0,0:0:0:0:
52,88,55726,1,10,0:0:0:0:
164,44,56108,2,0,P|212:60|244:128,1,120.00000089407,4|0,1:2|1:0,0:0:0:0:
216,196,56872,1,0,1:0:0:0:
308,272,57254,2,0,L|392:228,1,80.0000005960464,10|4,1:2|1:2,0:0:0:0:
480,188,58018,5,0,1:0:0:0:
256,192,58209,12,4,61073,3:0:0:0:
424,64,61646,5,0,3:0:0:0:
424,64,61837,2,0,P|432:108|428:152,1,80.0000005960464,10|0,0:2|0:0,0:0:0:0:
388,320,62792,1,0,0:0:0:0:
388,320,62983,1,0,0:0:0:0:
288,256,63365,2,0,L|204:272,1,80.0000005960464,10|0,0:0|0:0,0:0:0:0:
116,348,64128,6,0,P|116:296|72:240,1,120.00000089407,4|0,0:3|0:0,0:0:0:0:
8,200,64892,2,0,L|72:152,1,80.0000005960464,10|0,0:0|0:0,0:0:0:0:
220,48,65847,1,0,0:0:0:0:
220,48,66038,1,0,0:0:0:0:
188,164,66420,2,0,P|184:204|196:244,1,80.0000005960464,10|4,0:0|0:0,0:0:0:0:
248,348,67184,6,0,L|368:316,1,120.00000089407,4|0,0:3|0:0,0:0:0:0:
440,296,67948,2,0,P|452:328|448:372,1,80.0000005960464,10|0,0:0|0:0,0:0:0:0:
328,240,68902,1,0,0:0:0:0:
328,240,69093,1,0,0:0:0:0:
432,180,69475,2,0,L|408:92,1,80.0000005960464,10|0,0:0|0:0,0:0:0:0:
388,28,70048,1,0,0:0:0:0:
388,28,70239,6,0,P|336:52|272:44,1,120.00000089407,4|0,0:3|0:0,0:0:0:0:
200,16,71003,2,0,L|188:112,1,80.0000005960464,10|0,0:0|3:3,0:0:0:0:
256,192,71576,12,2,73285,1:2:0:0:
160,136,73854,5,2,1:2:0:0:
264,80,74424,1,2,1:2:0:0:
265,198,74987,1,2,1:2:0:0:
265,198,75172,2,0,P|271:246|287:272,1,80.0000005960464,2|2,1:2|1:2,0:0:0:0:
312,305,75726,1,2,1:2:0:0:
350,320,75910,1,2,1:2:0:0:
456,316,76274,6,0,P|464:268|428:204,1,120.00000089407,2|2,1:2|1:2,0:0:0:0:
316,176,77351,1,2,1:2:0:0:
408,92,77896,1,2,1:2:0:0:
408,92,78071,1,2,1:2:0:0:
352,36,78422,2,0,L|272:56,1,80.0000005960464,2|2,1:2|1:2,0:0:0:0:
220,108,79104,6,0,P|168:120|100:88,1,120.00000089407,2|2,1:2|1:2,0:0:0:0:
20,12,80132,1,2,1:2:0:0:
4,132,80642,1,2,1:2:0:0:
4,132,80810,1,2,1:2:0:0:
76,168,81145,2,0,P|80:204|64:252,1,80.0000005960464,2|2,1:2|1:2,0:0:0:0:
44,324,81815,6,0,L|172:300,1,120.00000089407,2|2,1:2|1:2,0:0:0:0:
280,280,82798,1,2,1:2:0:0:
392,328,83286,1,4,3:0:0:0:
392,328,83446,2,0,P|432:324|476:292,1,80.0000005960464,4|2,1:3|3:0,0:0:0:0:
496,228,84088,1,0,0:0:0:0:
424,184,84409,6,0,P|416:152|428:108,1,80.0000005960464,2|0,1:2|0:0,0:0:0:0:
452,76,84880,2,0,L|364:32,1,80.0000005960464,2|0,1:2|0:0,0:0:0:0:
344,24,85351,2,0,P|300:24|268:40,1,80.0000005960464,2|0,1:2|0:0,0:0:0:0:
240,68,85820,2,0,P|180:68|152:52,1,80.0000005960464,2|0,1:2|0:0,0:0:0:0:
128,40,86286,2,0,L|64:108,1,80.0000005960464,2|2,1:2|1:2,0:0:0:0:
32,168,86905,6,0,P|24:216|32:252,1,80.0000005960464,2|0,1:2|0:0,0:0:0:0:
44,284,87361,2,0,L|120:260,1,80.0000005960464,2|0,1:2|0:0,0:0:0:0:
160,248,87818,2,0,P|168:296|160:332,1,80.0000005960464,2|0,1:2|0:0,0:0:0:0:
148,364,88275,2,0,L|232:360,1,80.0000005960464,2|0,1:2|0:0,0:0:0:0:
268,356,88732,2,0,P|308:328|348:328,1,80.0000005960464,2|2,1:2|1:2,0:0:0:0:
416,340,89341,5,2,1:2:0:0:
368,240,89646,1,0,0:0:0:0:
368,240,89798,1,2,1:2:0:0:
464,184,90102,1,0,0:0:0:0:
464,184,90254,1,2,1:2:0:0:
368,128,90559,1,0,0:0:0:0:
368,128,90712,1,2,1:2:0:0:
368,128,90864,2,0,P|356:84|368:40,2,80.0000005960464,2|2|2,1:2|1:2|1:2,0:0:0:0:
272,188,91778,6,0,P|192:184|160:144,1,120.00000089407,2|2,1:2|1:2,0:0:0:0:
140,40,92691,1,2,1:2:0:0:
84,96,92996,6,0,L|44:216,1,120.00000089407,2|0,0:0|0:0,0:0:0:0:
52,328,94214,6,0,P|92:316|168:344,1,120.00000089407,2|2,1:2|1:2,0:0:0:0:
276,380,95128,2,0,L|320:252,1,120.00000089407,2|2,1:2|1:2,0:0:0:0:
328,228,95737,1,2,1:2:0:0:
396,188,96042,2,0,P|416:188|440:196,2,40.0000002980232,2|0|2,1:2|1:2|1:2,0:0:0:0:
340,128,96651,6,0,P|336:88|392:32,1,120.00000089407,2|2,1:2|1:2,0:0:0:0:
268,16,97564,2,0,L|152:48,1,120.00000089407,2|2,1:2|1:2,0:0:0:0:
112,60,98174,1,2,1:2:0:0:
36,84,98478,2,0,P|32:128|44:164,1,80.0000005960464,2|2,1:2|1:2,0:0:0:0:
108,208,99087,6,0,P|112:256|72:320,1,120.00000089407,2|2,1:2|1:2,0:0:0:0:
24,207,100001,2,0,P|47:149|96:125,1,120.00000089407,2|2,1:2|1:2,0:0:0:0:
136,132,100610,1,2,1:2:0:0:
204,172,100915,2,0,L|288:148,1,80.0000005960464,2|2,1:2|1:2,0:0:0:0:
360,128,101524,6,0,P|368:88|360:48,1,80.0000005960464,2|0,1:2|0:1,0:0:0:0:
328,24,101981,1,2,1:2:0:0:
328,24,102133,1,0,0:0:0:0:
256,56,102437,2,0,L|128:48,1,120.00000089407,2|2,1:2|1:2,0:0:0:0:
96,48,103047,1,2,1:2:0:0:
28,88,103351,2,0,P|12:116|8:128,2,40.0000002980232,2|0|2,1:2|1:0|1:2,0:0:0:0:
100,128,103960,6,0,P|112:176|88:252,1,120.00000089407,2|2,1:2|1:2,0:0:0:0:
44,352,104874,2,0,L|164:292,1,120.00000089407,2|2,1:2|1:2,0:0:0:0:
188,280,105483,1,2,1:2:0:0:
268,272,105788,1,2,1:2:0:0:
340,308,106092,1,2,1:2:0:0:
388,372,106397,6,0,L|484:296,1,120.00000089407,2|2,1:2|1:2,0:0:0:0:
500,176,107311,2,0,P|504:112|460:64,1,120.00000089407,2|2,1:2|1:2,0:0:0:0:
432,56,107920,1,2,1:2:0:0:
364,96,108224,2,0,L|280:80,1,80.0000005960464,2|2,1:2|1:2,0:0:0:0:
216,40,108833,6,0,P|168:36|112:76,2,120.00000089407,2|2|2,1:2|1:2|1:2,0:0:0:0:
252,156,110204,1,2,1:2:0:0:
252,156,110356,2,0,L|208:236,1,80.0000005960464,2|2,1:2|1:2,0:0:0:0:
192,260,110813,1,0,1:0:0:0:
172,296,110965,1,2,1:2:0:0:
132,364,111270,5,2,1:2:0:0:
56,344,111575,2,0,P|44:304|56:268,1,80.0000005960464,8|8,0:1|0:1,0:0:0:0:
100,200,112184,1,8,0:1:0:0:
92,120,112488,6,0,L|88:80,1,40.0000002980232,8|0,0:1|0:0,0:0:0:0:
164,88,112793,2,0,L|160:48,1,40.0000002980232,8|0,0:1|0:0,0:0:0:0:
236,56,113097,2,0,L|232:16,2,40.0000002980232,8|0|8,0:1|0:0|0:1,0:0:0:0:
328,124,113707,6,0,P|376:124|408:100,1,80.0000005960464,2|2,1:2|1:2,0:0:0:0:
428,76,114163,1,0,0:0:0:0:
428,76,114316,2,0,L|488:132,1,80.0000005960464,8|2,0:1|1:2,0:0:0:0:
508,208,114925,1,2,1:2:0:0:
496,288,115229,1,2,1:2:0:0:
448,352,115534,2,0,P|400:356|364:344,1,80.0000005960464,2|2,1:2|1:2,0:0:0:0:
312,292,116143,6,0,L|228:328,1,80.0000005960464,2|2,1:2|1:2,0:0:0:0:
200,340,116600,1,2,1:2:0:0:
200,340,116752,2,0,P|188:300|200:256,1,80.0000005960464,8|2,0:1|1:2,0:0:0:0:
236,192,117361,2,0,L|292:176,2,40.0000002980232,2|2|2,1:2|1:2|1:2,0:0:0:0:
168,152,117970,1,2,1:2:0:0:
92,180,118275,1,2,1:2:0:0:
52,252,118580,6,0,P|48:288|60:332,1,80.0000005960464,2|2,1:2|1:2,0:0:0:0:
88,360,119036,1,0,1:2:0:0:
88,360,119189,2,0,L|168:348,1,80.0000005960464,8|2,0:1|1:2,0:0:0:0:
244,364,119798,1,2,1:2:0:0:
316,332,120102,1,2,1:2:0:0:
392,360,120407,2,0,P|444:360|468:344,1,80.0000005960464,8|2,1:1|1:2,0:0:0:0:
508,276,121016,6,0,P|508:212|500:184,1,80.0000005960464,2|2,1:2|1:2,0:0:0:0:
476,168,121473,1,0,1:2:0:0:
444,144,121625,2,0,L|460:56,1,80.0000005960464,8|2,0:1|1:2,0:0:0:0:
392,20,122234,1,2,1:2:0:0:
352,28,122387,1,2,1:2:0:0:
312,36,122539,1,2,1:2:0:0:
244,76,122844,2,0,L|160:64,1,80.0000005960464,2|8,1:2|0:1,0:0:0:0:
256,192,123250,12,2,125483,0:0:0:0:
