osu file format v13

[General]
AudioFilename: pensamento_t_pico_de_esquerda_caviar.mp3
AudioLeadIn: 0
PreviewTime: 47324
Countdown: 0
SampleSet: Soft
StackLeniency: 0.7
Mode: 0
LetterboxInBreaks: 1
WidescreenStoryboard: 1

[Editor]
Bookmarks: 12194,36630,61073,94214,113707,123148
DistanceSpacing: 1.3
BeatDivisor: 4
GridSize: 4
TimelineZoom: 1.599999

[Metadata]
Title:pensamento tipico de esquerda caviar
TitleUnicode:pensamento tipico de esquerda caviar
Artist:Maffalda
ArtistUnicode:Maffalda
Creator:Blue Dragon
Version:Kuron's Insane
Source:
Tags:trap brazil portuguese funk aah eu vou gozar mc nego bam kuron-kun brasil onosakihito
BeatmapID:457257
BeatmapSetID:175036

[Difficulty]
HPDrainRate:6
CircleSize:4
OverallDifficulty:7.5
ApproachRate:9
SliderMultiplier:1
SliderTickRate:1

[Events]
//Background and Video events
0,0,"wallpaper-874217.jpg",0,0
//Break Periods
//Storyboard Layer 0 (Background)
//Storyboard Layer 1 (Fail)
//Storyboard Layer 2 (Pass)
//Storyboard Layer 3 (Foreground)
//Storyboard Sound Samples
//Background Colour Transformations
3,100,163,162,255

[TimingPoints]
12194,381.922342457034,4,3,0,20,1,0
24409,381.922342457034,4,2,0,60,1,0
33575,-76.9230769230769,4,2,0,60,0,0
36630,-100,4,2,0,60,0,1
47324,-100,4,2,0,60,0,0
48470,-100,4,2,0,60,0,0
48852,-83.3333333333333,4,2,0,60,0,1
49997,-83.3333333333333,4,2,0,60,0,0
59736,-66.6666666666667,4,2,0,60,0,0
61073,-100,4,2,0,60,0,1
61169,-100,4,2,0,60,0,0
73285,379.746835443038,4,2,0,60,1,0
74803,369.230769230769,4,2,0,60,1,0
76274,359.281437125748,4,2,0,60,1,0
77721,350.877192982456,4,2,0,60,1,0
79104,342.857142857143,4,2,0,60,1,0
80475,335.195530726257,4,2,0,60,1,0
81815,327.868852459016,4,2,0,60,1,0
83126,320.855614973262,4,2,0,60,1,0
84409,314.13612565445,4,2,0,60,1,0
85665,310.880829015544,4,2,0,60,1,0
86905,304.568527918782,4,2,0,60,1,0
92996,-200,4,2,0,60,0,0
93072,-200,4,2,0,10,0,0
94214,-100,4,2,0,60,0,1
112488,-66.6666666666667,4,2,0,60,0,0
113707,-100,4,2,0,60,0,1
123148,-100,4,2,0,60,0,0

[Colours]
Combo1 : 206,205,142
Combo2 : 213,189,203
Combo3 : 163,186,172
Combo4 : 131,145,169

[HitObjects]
256,44,12194,5,0,0:0:0:0:
256,340,12766,1,0,0:0:0:0:
316,144,13339,1,0,0:0:0:0:
196,240,13721,1,0,0:0:0:0:
188,96,15249,5,0,0:0:0:0:
352,124,15822,1,0,0:0:0:0:
324,288,16395,1,0,0:0:0:0:
160,260,16777,1,0,0:0:0:0:
352,124,17349,1,0,0:0:0:0:
160,260,17731,2,0,P|152:224|156:200,1,50,0|0,0:0|0:0,0:0:0:0:
232,304,18304,6,0,P|180:340|100:316,1,150,0|0,0:0|0:0,0:0:0:0:
60,132,19450,1,0,0:0:0:0:
200,4,19832,1,0,0:0:0:0:
256,192,20405,1,0,0:0:0:0:
440,72,21360,5,0,0:0:0:0:
440,72,21933,2,0,P|452:156|404:200,1,150,0|0,0:0|0:0,0:0:0:0:
212,172,22887,1,0,0:0:0:0:
212,172,24409,6,0,P|184:112|220:40,1,150,2|0,1:2|3:0,0:0:0:0:
344,36,25172,2,0,L|400:40,1,50,2|0,1:2|0:0,0:0:0:0:
480,160,25554,2,0,P|484:188|472:220,1,50,0|0,3:3|0:0,0:0:0:0:
328,320,25936,6,0,B|312:288|324:244|324:244|304:168,1,150,2|0,1:2|3:0,0:0:0:0:
274,51,26700,1,2,1:2:0:0:
188,208,26891,1,0,0:0:0:0:
384,128,27082,2,0,P|392:96|388:60,1,50,0|0,3:0|0:0,0:0:0:0:
128,152,27464,6,0,P|108:192|152:280,1,150,2|0,1:2|3:0,0:0:0:0:
288,272,28228,2,0,L|344:264,1,50,2|0,1:2|0:0,0:0:0:0:
384,128,28610,1,0,3:3:0:0:
476,297,28801,1,0,0:0:0:0:
308,56,28992,6,0,B|268:60|240:80|240:80|208:64|160:60,1,150,2|0,1:2|3:0,0:0:0:0:
68,44,29755,2,0,P|68:80|80:104,1,50,2|0,1:2|0:0,0:0:0:0:
176,228,30137,2,0,P|196:216|220:188,1,50,0|0,3:0|0:0,0:0:0:0:
96,200,30519,6,0,P|92:240|128:300,1,100,2|0,1:2|1:2,0:0:0:0:
256,356,31092,1,0,0:0:0:0:
416,184,31283,2,0,P|420:144|384:84,1,100,2|2,1:2|1:2,0:0:0:0:
256,32,31856,1,0,0:0:0:0:
144,92,32047,6,0,L|36:108,1,100,2|2,1:2|1:2,0:0:0:0:
256,48,32620,1,0,0:0:0:0:
368,120,32811,2,0,L|468:144,1,100,2|2,1:2|1:2,0:0:0:0:
256,64,33384,1,0,0:0:0:0:
200,184,33575,6,0,P|180:196|160:200,3,32.4999985122681,0|0|0|0,1:0|0:0|0:0|0:0,0:0:0:0:
312,184,33957,2,0,P|332:196|352:200,3,32.4999985122681,0|0|0|0,1:0|0:0|0:0|0:0,0:0:0:0:
204,276,34338,2,0,L|168:300,3,32.4999985122681,0|0|0|0,1:0|0:0|0:0|0:0,0:0:0:0:
308,276,34720,2,0,L|344:300,3,32.4999985122681,0|0|0|0,1:0|0:0|0:0|0:0,0:0:0:0:
256,364,35102,1,0,1:0:0:0:
256,192,35198,12,0,36248,0:0:0:0:
100,272,36630,6,0,P|72:228|104:136,1,150,0|0,1:1|1:0,0:0:0:0:
208,64,37394,2,0,L|276:72,1,50,10|0,0:0|0:0,0:0:0:0:
436,96,37776,1,0,1:0:0:0:
320,309,38349,1,0,1:0:0:0:
348,152,38540,1,0,1:0:0:0:
258,258,38922,1,10,0:0:0:0:
409,203,39113,1,0,0:0:0:0:
272,179,39304,1,2,3:1:0:0:
395,282,39685,6,0,P|452:272|484:184,1,150,0|0,1:0|0:0,0:0:0:0:
432,92,40449,2,0,P|416:56|420:24,1,50,10|0,0:0|0:0,0:0:0:0:
256,36,40831,1,0,1:0:0:0:
256,260,41404,5,0,1:0:0:0:
256,36,41595,1,0,1:0:0:0:
156,300,41977,1,10,0:0:0:0:
392,188,42359,1,4,1:2:0:0:
328,376,42550,1,0,0:0:0:0:
156,300,42741,6,0,P|124:232|152:168,1,150,0|0,1:0|0:0,0:0:0:0:
296,108,43505,2,0,P|308:144|304:176,1,50,10|0,0:0|0:0,0:0:0:0:
256,360,43887,1,0,1:0:0:0:
64,236,44459,6,0,L|8:224,1,50,0|0,1:0|1:0,0:0:0:0:
164,84,45032,2,0,L|220:96,1,50,10|0,0:0|0:0,0:0:0:0:
248,236,45414,2,0,L|192:224,1,50,2|0,3:1|0:0,0:0:0:0:
320,184,45796,6,0,P|336:228|284:316,1,150,0|0,1:0|1:0,0:0:0:0:
236,152,46560,2,0,P|232:120|244:92,1,50,10|0,0:0|0:0,0:0:0:0:
416,48,46942,1,0,1:0:0:0:
424,252,47324,5,2,0:1:0:0:
236,152,47515,1,0,0:0:0:0:
416,48,47706,1,2,0:1:0:0:
424,252,47897,1,0,0:0:0:0:
236,152,48088,1,10,0:1:0:0:
416,48,48279,1,0,0:0:0:0:
424,252,48470,2,0,P|414:292|404:309,1,50,4|0,1:2|0:0,0:0:0:0:
316,356,48852,5,2,1:2:0:0:
272,344,48947,1,0,0:0:0:0:
228,332,49042,1,2,0:0:0:0:
184,316,49138,1,0,0:0:0:0:
140,300,49233,1,0,0:0:0:0:
116,172,49424,1,0,1:0:0:0:
264,184,49615,6,0,P|316:172|336:156,1,59.9999981689454,10|0,0:0|0:0,0:0:0:0:
232,88,49997,2,0,L|164:68,1,59.9999981689454,4|0,1:2|0:0,0:0:0:0:
116,172,50379,1,0,0:0:0:0:
232,88,50570,2,0,P|244:52|236:16,1,59.9999981689454,0|0,1:0|1:0,0:0:0:0:
40,112,51143,5,10,0:0:0:0:
160,248,51334,1,0,0:0:0:0:
232,88,51525,1,4,1:2:0:0:
40,112,51716,1,0,0:0:0:0:
160,248,51907,6,0,P|206:276|318:222,1,179.999994506836,0|0,1:0|0:0,0:0:0:0:
360,144,52671,2,0,P|364:104|392:68,1,59.9999981689454,10|0,0:0|0:0,0:0:0:0:
452,132,53053,2,0,L|456:256,1,119.999996337891,6|0,1:2|0:0,0:0:0:0:
456,360,53626,6,0,P|412:368|384:364,1,59.9999981689454,0|0,1:0|1:0,0:0:0:0:
200,244,54198,1,8,1:2:0:0:
312,140,54580,1,12,1:2:0:0:
256,324,54771,1,0,0:0:0:0:
256,60,54962,6,0,P|316:44|404:112,1,179.999994506836,0|0,1:0|1:0,0:0:0:0:
412,220,55726,2,0,L|344:240,1,59.9999981689454,10|0,0:0|0:0,0:0:0:0:
188,172,56108,2,0,P|176:136|184:104,2,59.9999981689454,4|0|0,1:2|0:0|0:0,0:0:0:0:
264,280,56681,6,0,P|276:316|268:348,2,59.9999981689454,0|0|0,1:0|1:0|0:0,0:0:0:0:
168,264,57254,2,0,L|100:288,1,59.9999981689454,10|0,1:2|0:0,0:0:0:0:
284,184,57636,2,0,L|352:160,1,59.9999981689454,4|0,1:2|0:0,0:0:0:0:
188,172,58018,6,0,P|144:104|192:20,1,179.999994506836,0|0,1:0|1:0,0:0:0:0:
296,24,58782,2,0,L|364:32,1,59.9999981689454,10|0,0:0|0:0,0:0:0:0:
468,124,59163,1,6,1:2:0:0:
328,312,59545,5,0,0:0:0:0:
256,188,59736,2,0,L|244:156,4,18.7500007152558,2|0|0|2|0,0:0|0:0|0:0|0:0|0:0,0:0:0:0:
256,356,60118,1,0,0:0:0:0:
332,148,60309,2,0,P|336:108|320:72,1,75.0000028610231,2|0,0:0|0:0,0:0:0:0:
172,56,60691,2,0,L|92:76,1,75.0000028610231,2|0,0:0|0:0,0:0:0:0:
20,220,61073,6,0,P|60:272|148:268,1,150,4|0,3:0|3:0,0:0:0:0:
204,212,61837,2,0,L|264:200,1,50,10|0,0:2|0:0,0:0:0:0:
416,244,62219,1,0,0:0:0:0:
416,244,62792,1,0,0:0:0:0:
352,316,62983,2,0,L|292:328,1,50,2|0,0:0|0:0,0:0:0:0:
216,264,63365,2,0,P|204:240|204:208,2,50,10|0|2,0:0|0:0|0:0,0:0:0:0:
352,316,63937,1,0,0:0:0:0:
372,180,64128,6,0,L|392:24,1,150,4|0,0:3|0:0,0:0:0:0:
452,172,64892,2,0,P|448:208|432:232,1,50,10|0,0:0|0:0,0:0:0:0:
352,316,65274,1,0,0:0:0:0:
352,316,65847,1,0,0:0:0:0:
232,288,66038,2,0,L|172:276,1,50,2|0,0:0|0:0,0:0:0:0:
76,208,66420,2,0,P|84:176|96:156,1,50,10|0,0:0|0:0,0:0:0:0:
288,104,66802,1,4,0:0:0:0:
140,352,66993,1,0,0:0:0:0:
80,70,67184,6,0,P|150:91|184:156,1,150,4|0,0:3|0:0,0:0:0:0:
57,286,67948,2,0,P|34:276|16:260,1,50,10|0,0:0|0:0,0:0:0:0:
232,272,68330,1,0,0:0:0:0:
232,272,68902,1,0,0:0:0:0:
291,189,69093,2,0,L|295:137,1,50,2|0,0:0|0:0,0:0:0:0:
383,174,69475,2,0,L|427:141,1,50,10|0,0:0|0:0,0:0:0:0:
457,233,69857,2,0,L|503:255,1,50,2|0,0:0|0:0,0:0:0:0:
270,349,70239,6,0,P|214:357|147:299,1,150,4|0,0:3|0:0,0:0:0:0:
71,364,71003,2,0,L|3:370,1,50,10|0,0:0|0:0,0:0:0:0:
231,275,71385,5,0,3:3:0:0:
231,275,71958,1,0,0:0:0:0:
398,362,72149,1,0,0:0:0:0:
389,169,72340,1,0,0:0:0:0:
273,354,72531,5,0,0:0:0:0:
440,249,72722,1,0,0:0:0:0:
342,98,72913,1,0,0:0:0:0:
175,203,73104,1,0,0:0:0:0:
312,227,73285,5,2,1:2:0:0:
312,227,73854,1,2,1:2:0:0:
272,60,74424,1,2,1:2:0:0:
240,324,74987,1,2,1:2:0:0:
272,60,75172,1,2,1:2:0:0:
124,176,75541,1,2,1:2:0:0:
388,208,75726,1,2,1:2:0:0:
124,176,75910,1,2,1:2:0:0:
388,208,76274,6,0,P|396:160|368:108,1,100,2|0,1:2|0:0,0:0:0:0:
124,176,76812,2,0,P|116:224|144:276,1,100,2|0,1:2|0:0,0:0:0:0:
388,208,77351,2,0,P|396:160|368:108,1,100,2|0,1:2|0:0,0:0:0:0:
232,48,77896,1,2,1:2:0:0:
124,176,78071,1,2,1:2:0:0:
388,208,78422,1,2,1:2:0:0:
124,176,78598,1,0,0:0:0:0:
280,336,78773,1,2,1:2:0:0:
232,48,79104,6,0,L|340:40,1,100,2|0,1:2|0:0,0:0:0:0:
280,336,79618,2,0,L|172:344,1,100,2|0,1:2|0:0,0:0:0:0:
36,276,80132,1,2,1:2:0:0:
280,188,80642,1,2,1:2:0:0:
36,276,80810,1,2,1:2:0:0:
280,188,81145,1,2,1:2:0:0:
36,276,81312,1,0,0:0:0:0:
160,156,81480,2,0,P|164:124|160:88,1,50,2|0,1:2|0:0,0:0:0:0:
36,276,81815,6,0,L|144:296,1,100,2|0,1:2|0:0,0:0:0:0:
356,280,82306,2,0,L|248:260,1,100,2|0,1:2|0:0,0:0:0:0:
160,156,82798,1,0,0:0:0:0:
160,156,83126,1,2,3:0:0:0:
288,16,83286,1,4,3:0:0:0:
336,136,83446,2,0,L|400:148,1,50,4|0,1:3|0:0,0:0:0:0:
460,264,83767,2,0,P|464:292|456:324,1,50,2|0,3:0|3:0,0:0:0:0:
300,368,84088,1,0,0:0:0:0:
160,156,84409,6,0,L|96:164,1,50,2|0,1:2|0:0,0:0:0:0:
256,248,84723,1,0,0:0:0:0:
352,156,84880,2,0,L|416:164,1,50,2|0,1:2|0:0,0:0:0:0:
256,256,85194,1,0,0:0:0:0:
148,152,85351,2,0,L|84:160,1,50,2|0,1:2|0:0,0:0:0:0:
256,264,85665,1,0,0:0:0:0:
364,152,85820,2,0,L|428:160,1,50,2|2,1:2|1:2,0:0:0:0:
256,272,86131,1,0,0:0:0:0:
132,124,86286,2,0,P|116:96|112:56,1,50,2|2,1:2|1:2,0:0:0:0:
380,260,86597,2,0,P|396:288|400:328,1,50,2|0,1:2|0:0,0:0:0:0:
246,295,86905,5,2,1:2:0:0:
265,88,87057,1,0,0:0:0:0:
161,235,87209,1,0,0:0:0:0:
350,148,87361,1,2,1:2:0:0:
170,132,87514,1,0,0:0:0:0:
341,251,87666,1,0,0:0:0:0:
161,235,87818,1,2,1:2:0:0:
265,88,87970,1,0,0:0:0:0:
341,251,88123,2,0,P|360:288|364:312,1,50,0|2,0:0|1:2,0:0:0:0:
170,132,88427,2,0,P|152:96|148:72,1,50,2|0,1:2|0:0,0:0:0:0:
352,68,88732,2,0,L|404:44,1,50,2|0,1:2|0:0,0:0:0:0:
160,316,89036,2,0,L|108:340,1,50,2|0,1:2|0:0,0:0:0:0:
132,96,89341,6,0,L|108:44,1,50,2|0,1:2|0:0,0:0:0:0:
256,192,89646,1,0,0:0:0:0:
352,68,89798,2,0,L|404:44,1,50,2|0,1:2|0:0,0:0:0:0:
256,192,90102,1,0,0:0:0:0:
380,288,90255,2,0,L|404:340,1,50,2|0,1:2|0:0,0:0:0:0:
256,192,90559,1,0,0:0:0:0:
160,316,90712,2,0,L|108:340,1,50,2|2,1:2|1:2,0:0:0:0:
256,192,91016,1,0,0:0:0:0:
256,32,91168,1,2,1:2:0:0:
256,352,91473,1,2,1:2:0:0:
136,88,91778,6,0,L|64:100,1,50,2|0,1:2|0:0,0:0:0:0:
256,192,92082,1,0,0:0:0:0:
376,88,92234,2,0,L|448:100,1,50,2|0,1:2|0:0,0:0:0:0:
256,316,92539,1,0,0:0:0:0:
256,64,92691,1,2,1:2:0:0:
136,240,92844,1,0,0:0:0:0:
376,240,92996,5,2,0:0:0:0:
376,240,94214,6,0,L|432:224,1,50,8|0,1:0|0:0,0:0:0:0:
368,344,94519,2,0,L|312:360,1,50,8|0,0:1|0:0,0:0:0:0:
196,292,94823,2,0,L|252:276,1,50,8|0,0:1|0:0,0:0:0:0:
152,368,95128,2,0,P|120:336|136:232,1,150,8|0,1:1|0:0,0:0:0:0:
212,160,95737,6,0,P|216:116|208:88,1,50,8|0,1:1|0:0,0:0:0:0:
104,32,96042,1,8,1:1:0:0:
32,176,96194,1,0,1:2:0:0:
212,160,96346,2,0,L|264:172,1,50,8|0,1:1|0:2,0:0:0:0:
404,264,96651,5,8,1:1:0:0:
272,248,96803,1,0,0:0:0:0:
344,188,96955,1,8,0:1:0:0:
332,324,97108,1,0,1:0:0:0:
432,184,97260,2,0,P|456:196|480:220,1,50,8|0,0:1|0:0,0:0:0:0:
240,328,97564,2,0,P|212:308|220:188,1,150,8|0,1:1|0:0,0:0:0:0:
300,124,98174,6,0,L|344:92,1,50,8|0,1:1|0:0,0:0:0:0:
432,36,98478,1,8,1:1:0:0:
392,324,98783,1,8,1:1:0:0:
152,188,99087,6,0,P|140:160|144:128,1,50,8|0,1:1|0:0,0:0:0:0:
224,240,99392,2,0,P|201:260|170:268,1,50,8|0,0:1|0:0,0:0:0:0:
232,148,99696,2,0,L|280:136,1,50,8|0,0:1|0:0,0:0:0:0:
104,256,100001,2,0,P|68:200|96:124,1,150,8|0,1:1|0:0,0:0:0:0:
196,56,100610,6,0,P|224:20|232:0,1,50,8|0,1:1|0:0,0:0:0:0:
300,240,100915,2,0,P|307:263|319:285,1,50,8|0,1:1|0:1,0:0:0:0:
468,328,101219,1,8,1:1:0:0:
448,156,101372,1,0,0:1:0:0:
300,240,101524,6,0,L|304:300,1,50,8|0,1:1|0:0,0:0:0:0:
468,328,101828,2,0,L|528:324,1,50,8|0,0:1|0:0,0:0:0:0:
448,156,102133,2,0,L|444:96,1,50,8|0,0:1|0:0,0:0:0:0:
240,172,102437,2,0,P|212:224|240:308,1,150,8|0,1:1|0:0,0:0:0:0:
320,344,103047,6,0,L|376:356,1,50,8|0,1:1|0:0,0:0:0:0:
240,172,103351,2,0,L|184:160,1,50,8|0,1:1|1:0,0:0:0:0:
48,292,103656,2,0,L|104:304,1,50,8|0,1:1|0:0,0:0:0:0:
240,172,103960,6,0,P|248:136|244:112,1,50,8|0,1:1|0:0,0:0:0:0:
164,24,104265,1,8,0:1:0:0:
156,232,104417,2,0,P|180:252|212:260,1,50,0|8,0:0|0:1,0:0:0:0:
356,240,104722,1,0,0:0:0:0:
316,136,104874,2,0,P|288:104|180:108,1,150,8|0,1:1|0:0,0:0:0:0:
112,152,105483,6,0,L|48:160,1,50,8|0,1:1|0:0,0:0:0:0:
204,304,105788,2,0,L|268:312,1,50,8|0,1:0|1:0,0:0:0:0:
316,136,106092,2,0,L|252:128,1,50,8|0,1:1|0:0,0:0:0:0:
204,304,106397,6,0,P|204:340|212:368,1,50,8|0,1:1|0:0,0:0:0:0:
316,136,106701,2,0,P|316:100|308:72,1,50,8|0,0:1|0:0,0:0:0:0:
228,12,107006,1,8,0:1:0:0:
140,184,107158,1,0,0:0:0:0:
340,268,107311,2,0,P|376:288|476:259,1,150,8|0,1:1|1:0,0:0:0:0:
500,172,107920,6,0,L|512:116,1,50,8|0,1:1|0:0,0:0:0:0:
340,268,108224,2,0,L|328:324,1,50,8|0,1:1|0:0,0:0:0:0:
216,360,108529,1,8,1:0:0:0:
128,140,108681,1,0,0:0:0:0:
80,224,108833,6,0,P|116:236|136:236,1,50,8|0,1:1|0:0,0:0:0:0:
272,132,109138,2,0,P|234:133|215:139,1,50,8|0,0:1|0:0,0:0:0:0:
132,320,109443,2,0,P|160:316|186:302,1,50,8|0,0:1|0:0,0:0:0:0:
272,132,109747,2,0,P|324:72|404:72,1,150,8|0,1:1|0:0,0:0:0:0:
472,196,110356,6,0,L|404:196,1,50,8|0,1:1|0:0,0:0:0:0:
228,56,110661,1,8,1:1:0:0:
184,260,110813,1,0,1:0:0:0:
392,196,110965,2,0,P|392:160|376:128,1,50,8|0,1:1|0:0,0:0:0:0:
228,56,111270,5,8,1:1:0:0:
184,260,111575,2,0,P|152:272|120:272,1,50,8|0,0:1|0:1,0:0:0:0:
228,56,111879,2,0,P|216:24|216:-8,1,50,8|0,0:1|0:1,0:0:0:0:
392,196,112184,2,0,P|424:184|456:184,1,50,8|0,0:1|0:0,0:0:0:0:
184,260,112488,6,0,L|84:280,1,75.0000028610231,8|0,0:1|0:0,0:0:0:0:
392,196,112793,2,0,L|492:176,1,75.0000028610231,8|0,0:1|0:0,0:0:0:0:
112,192,113097,2,0,L|12:212,1,75.0000028610231,8|0,0:1|0:0,0:0:0:0:
420,104,113402,2,0,L|520:84,1,75.0000028610231,8|0,0:1|0:0,0:0:0:0:
364,296,113707,5,2,1:2:0:0:
364,296,114011,1,2,1:2:0:0:
155,336,114163,1,0,0:0:0:0:
114,128,114316,1,8,0:1:0:0:
114,128,114620,1,2,1:2:0:0:
114,128,114925,6,0,P|142:120|170:120,1,50,2|0,1:2|0:0,0:0:0:0:
388,264,115229,2,0,P|360:272|332:272,1,50,2|0,1:2|0:0,0:0:0:0:
120,96,115534,2,0,P|148:88|176:88,1,50,2|0,1:2|0:0,0:0:0:0:
392,292,115839,2,0,P|364:300|336:300,1,50,2|0,1:2|0:0,0:0:0:0:
244,200,116143,5,2,1:2:0:0:
384,84,116448,1,2,1:2:0:0:
280,352,116600,1,2,1:2:0:0:
112,224,116752,1,8,0:1:0:0:
112,224,117057,1,2,1:2:0:0:
112,224,117361,6,0,L|72:180,1,50,2|2,1:2|1:2,0:0:0:0:
232,40,117666,2,0,L|276:0,1,50,2|0,1:2|0:0,0:0:0:0:
408,168,117970,2,0,L|448:212,1,50,2|0,1:2|0:0,0:0:0:0:
280,344,118275,2,0,L|236:384,1,50,2|0,1:2|0:0,0:0:0:0:
256,192,118580,5,2,1:2:0:0:
408,168,118884,1,2,1:2:0:0:
104,216,119036,1,0,1:2:0:0:
408,168,119189,1,8,0:1:0:0:
104,216,119493,1,2,1:2:0:0:
236,48,119798,6,0,P|236:8|240:-8,1,50,2|0,1:2|0:0,0:0:0:0:
276,336,120102,2,0,P|276:376|272:392,1,50,2|0,1:2|0:0,0:0:0:0:
104,216,120407,2,0,L|52:188,1,50,8|0,1:1|0:0,0:0:0:0:
408,168,120712,2,0,L|460:196,1,50,8|0,0:1|0:0,0:0:0:0:
276,336,121016,5,2,1:2:0:0:
104,216,121321,1,2,1:2:0:0:
236,48,121473,1,0,1:2:0:0:
408,168,121625,1,8,0:1:0:0:
276,336,121930,1,2,1:2:0:0:
308,144,122234,5,2,1:2:0:0:
204,240,122387,1,0,1:2:0:0:
236,48,122539,1,0,1:1:0:0:
276,336,122844,1,8,1:0:0:0:
276,336,123148,1,8,0:0:0:0:
256,192,123224,12,2,125483,0:0:0:0:
