osu file format v13

[General]
AudioFilename: pensamento_t_pico_de_esquerda_caviar.mp3
AudioLeadIn: 0
PreviewTime: 47324
Countdown: 0
SampleSet: Normal
StackLeniency: 0.7
Mode: 1
LetterboxInBreaks: 0
WidescreenStoryboard: 1

[Editor]
Bookmarks: 12194,24409,36630,61073,92996,94214,103960,111270,113707,123148
DistanceSpacing: 1.5
BeatDivisor: 4
GridSize: 16
TimelineZoom: 1.299999

[Metadata]
Title:pensamento tipico de esquerda caviar
TitleUnicode:pensamento tipico de esquerda caviar
Artist:Maffalda
ArtistUnicode:Maffalda
Creator:Blue Dragon
Version:Kantan
Source:
Tags:trap brazil portuguese funk aah eu vou gozar mc nego bam kuron-kun brasil onosakihito
BeatmapID:468990
BeatmapSetID:175036

[Difficulty]
HPDrainRate:5
CircleSize:4
OverallDifficulty:4
ApproachRate:5
SliderMultiplier:1.40000000596046
SliderTickRate:1

[Events]
//Background and Video events
0,0,"Taiko_BG.jpg",0,0
//Break Periods
//Storyboard Layer 0 (Background)
//Storyboard Layer 1 (Fail)
//Storyboard Layer 2 (Pass)
//Storyboard Layer 3 (Foreground)
//Storyboard Sound Samples
//Background Colour Transformations
3,100,163,162,255

[TimingPoints]
12194,381.922342457034,4,1,0,30,1,0
24409,381.922342457034,4,1,0,50,1,0
48852,-100,4,1,0,70,0,1
59545,-100,4,1,0,50,0,0
73285,379.746835443038,4,1,0,60,1,0
74803,369.230769230769,4,1,0,60,1,0
76274,359.281437125748,4,1,0,60,1,0
77721,350.877192982456,4,1,0,60,1,8
79104,342.857142857143,4,1,0,60,1,0
80475,335.195530726257,4,1,0,60,1,0
81815,327.868852459016,4,1,0,60,1,0
83126,320.855614973262,4,1,0,60,1,0
84409,314.13612565445,4,1,0,60,1,0
85665,310.880829015544,4,1,0,60,1,0
86905,304.568527918782,4,1,0,60,1,0
113707,-100,4,1,0,50,0,1
123148,-100,4,1,0,50,0,0

[HitObjects]
256,192,12194,5,0,0:0:0:0:
256,192,12766,1,0,0:0:0:0:
256,192,13339,1,0,0:0:0:0:
256,192,15249,1,0,0:0:0:0:
256,192,15822,1,0,0:0:0:0:
256,192,16395,1,0,0:0:0:0:
256,192,18304,1,0,0:0:0:0:
256,192,18877,1,0,0:0:0:0:
256,192,19450,1,0,0:0:0:0:
256,192,21360,1,0,0:0:0:0:
256,192,21933,1,0,0:0:0:0:
256,192,22505,1,0,0:0:0:0:
256,192,22887,1,0,0:0:0:0:
256,192,24409,1,0,0:0:0:0:
256,192,25936,1,0,0:0:0:0:
256,192,27464,1,0,0:0:0:0:
256,192,28992,1,0,0:0:0:0:
256,192,30519,1,0,0:0:0:0:
256,192,31283,1,0,0:0:0:0:
256,192,32047,1,0,0:0:0:0:
256,192,32811,1,0,0:0:0:0:
256,192,33575,6,0,L|112:192,4,140.000000596046,0|0|0|0|0,0:0|0:0|0:0|0:0|0:0,0:0:0:0:
256,192,36630,5,4,0:0:0:0:
256,192,37394,5,8,0:0:0:0:
256,192,38540,5,0,0:0:0:0:
256,192,38922,5,8,0:0:0:0:
256,192,39685,5,4,0:0:0:0:
256,192,40449,5,8,0:0:0:0:
256,192,41595,5,0,0:0:0:0:
256,192,41977,5,8,0:0:0:0:
256,192,42359,1,12,0:0:0:0:
256,192,42741,5,4,0:0:0:0:
256,192,43505,5,8,0:0:0:0:
256,192,44650,5,0,0:0:0:0:
256,192,45032,5,8,0:0:0:0:
256,192,45796,5,4,0:0:0:0:
256,192,46560,5,8,0:0:0:0:
256,192,48470,5,12,0:0:0:0:
256,192,48852,5,4,0:0:0:0:
256,192,49424,1,4,0:0:0:0:
256,192,49997,1,4,0:0:0:0:
256,192,51143,5,8,0:0:0:0:
256,192,51907,5,4,0:0:0:0:
256,192,52480,1,4,0:0:0:0:
256,192,53053,1,4,0:0:0:0:
256,192,54198,5,8,0:0:0:0:
256,192,54580,1,8,0:0:0:0:
256,192,54962,5,4,0:0:0:0:
256,192,55535,1,4,0:0:0:0:
256,192,56108,1,4,0:0:0:0:
256,192,57636,5,12,0:0:0:0:
256,192,58018,5,4,0:0:0:0:
256,192,58591,1,4,0:0:0:0:
256,192,59163,1,4,0:0:0:0:
256,192,61073,1,0,0:0:0:0:
256,192,62219,1,0,0:0:0:0:
256,192,62792,1,0,0:0:0:0:
256,192,62983,1,0,0:0:0:0:
256,192,64128,1,0,0:0:0:0:
256,192,65274,1,0,0:0:0:0:
256,192,65847,1,0,0:0:0:0:
256,192,66038,1,0,0:0:0:0:
256,192,66420,1,0,0:0:0:0:
256,192,67184,1,0,0:0:0:0:
256,192,68330,1,0,0:0:0:0:
256,192,68902,1,0,0:0:0:0:
256,192,69093,1,0,0:0:0:0:
256,192,70239,1,0,0:0:0:0:
256,192,71003,1,0,0:0:0:0:
256,192,71385,1,0,0:0:0:0:
256,192,72531,5,8,0:0:0:0:
256,192,73285,5,4,0:0:0:0:
256,192,74424,1,4,0:0:0:0:
256,192,75541,1,4,0:0:0:0:
256,192,76274,1,4,0:0:0:0:
256,192,77351,1,4,0:0:0:0:
256,192,79104,1,4,0:0:0:0:
256,192,80132,1,4,0:0:0:0:
256,192,81145,1,4,0:0:0:0:
256,192,81815,1,4,0:0:0:0:
256,192,82798,1,4,0:0:0:0:
256,192,84409,1,4,0:0:0:0:
256,192,84880,1,4,0:0:0:0:
256,192,85820,1,4,0:0:0:0:
256,192,86286,1,4,0:0:0:0:
256,192,86905,1,4,0:0:0:0:
256,192,87361,1,4,0:0:0:0:
256,192,88275,1,4,0:0:0:0:
256,192,88732,1,4,0:0:0:0:
256,192,89341,1,4,0:0:0:0:
256,192,89798,1,4,0:0:0:0:
256,192,90712,1,4,0:0:0:0:
256,192,91168,1,4,0:0:0:0:
256,192,91778,1,4,0:0:0:0:
256,192,92234,1,4,0:0:0:0:
256,192,92691,1,4,0:0:0:0:
256,192,92996,1,4,0:0:0:0:
256,192,94214,5,0,0:0:0:0:
256,192,95128,5,8,0:0:0:0:
256,192,96042,5,0,0:0:0:0:
256,192,96346,1,0,0:0:0:0:
256,192,96651,1,0,0:0:0:0:
256,192,97564,5,8,0:0:0:0:
256,192,98478,1,8,0:0:0:0:
256,192,99087,5,0,0:0:0:0:
256,192,100001,5,8,0:0:0:0:
256,192,100915,5,0,0:0:0:0:
256,192,101219,1,0,0:0:0:0:
256,192,101524,1,0,0:0:0:0:
256,192,102437,5,8,0:0:0:0:
256,192,103351,1,8,0:0:0:0:
256,192,103960,5,0,0:0:0:0:
256,192,104874,5,8,0:0:0:0:
256,192,105788,5,0,0:0:0:0:
256,192,106092,1,0,0:0:0:0:
256,192,106397,1,0,0:0:0:0:
256,192,107311,5,8,0:0:0:0:
256,192,108224,1,8,0:0:0:0:
256,192,108833,5,0,0:0:0:0:
256,192,109747,5,8,0:0:0:0:
256,192,110661,5,0,0:0:0:0:
256,192,110965,1,0,0:0:0:0:
256,192,111270,1,0,0:0:0:0:
256,192,112184,5,8,0:0:0:0:
256,192,112793,1,8,0:0:0:0:
256,192,113707,5,4,0:0:0:0:
256,192,114163,1,0,0:0:0:0:
256,192,114316,5,8,0:0:0:0:
256,192,114925,5,0,0:0:0:0:
256,192,115229,1,0,0:0:0:0:
256,192,115534,5,8,0:0:0:0:
256,192,116143,5,4,0:0:0:0:
256,192,116752,5,8,0:0:0:0:
256,192,117361,5,0,0:0:0:0:
256,192,117514,1,0,0:0:0:0:
256,192,117666,1,0,0:0:0:0:
256,192,117970,5,8,0:0:0:0:
256,192,118580,5,4,0:0:0:0:
256,192,119036,1,0,0:0:0:0:
256,192,119189,5,8,0:0:0:0:
256,192,119798,5,0,0:0:0:0:
256,192,120102,1,0,0:0:0:0:
256,192,120407,5,8,0:0:0:0:
256,192,121016,5,4,0:0:0:0:
256,192,121625,5,8,0:0:0:0:
256,192,122234,5,0,0:0:0:0:
256,192,122387,1,0,0:0:0:0:
256,192,122539,1,0,0:0:0:0:
256,192,122844,5,8,0:0:0:0:
