osu file format v13

[General]
AudioFilename: pensamento_t_pico_de_esquerda_caviar.mp3
AudioLeadIn: 0
PreviewTime: 47324
Countdown: 0
SampleSet: Soft
StackLeniency: 0.7
Mode: 0
LetterboxInBreaks: 1
WidescreenStoryboard: 0

[Editor]
Bookmarks: 12194,36630,61073,94214,113707,123148
DistanceSpacing: 1
BeatDivisor: 4
GridSize: 4
TimelineZoom: 1

[Metadata]
Title:pensamento tipico de esquerda caviar
TitleUnicode:pensamento tipico de esquerda caviar
Artist:Maffalda
ArtistUnicode:Maffalda
Creator:Blue Dragon
Version:Gangsta
Source:
Tags:trap brazil portuguese funk aah eu vou gozar mc nego bam kuron-kun brasil onosakihito
BeatmapID:422328
BeatmapSetID:175036

[Difficulty]
HPDrainRate:6
CircleSize:4
OverallDifficulty:8
ApproachRate:9
SliderMultiplier:1
SliderTickRate:1

[Events]
//Background and Video events
0,0,"wallpaper-874217.jpg",0,0
//Break Periods
//Storyboard Layer 0 (Background)
//Storyboard Layer 1 (Fail)
//Storyboard Layer 2 (Pass)
//Storyboard Layer 3 (Foreground)
//Storyboard Sound Samples
//Background Colour Transformations
3,100,163,162,255

[TimingPoints]
12194,381.922342457034,4,3,0,20,1,0
24409,381.922342457034,4,2,0,60,1,0
36630,-100,4,2,0,60,0,1
47324,-100,4,2,0,60,0,0
48470,-100,4,2,0,60,0,0
48852,-100,4,2,0,60,0,1
49997,-100,4,2,0,60,0,0
59736,-66.6666666666667,4,2,0,60,0,0
61073,-100,4,2,0,60,0,1
61169,-100,4,2,0,60,0,0
73285,379.746835443038,4,2,0,60,1,0
74803,369.230769230769,4,2,0,60,1,0
76274,359.281437125748,4,2,0,60,1,0
77721,350.877192982456,4,2,0,60,1,0
79104,342.857142857143,4,2,0,60,1,0
80475,335.195530726257,4,2,0,60,1,0
81815,327.868852459016,4,2,0,60,1,0
83126,320.855614973262,4,2,0,60,1,0
84409,314.13612565445,4,2,0,60,1,0
85665,310.880829015544,4,2,0,60,1,0
86905,304.568527918782,4,2,0,60,1,0
92996,-200,4,2,0,60,0,0
93072,-200,4,2,0,10,0,0
94214,-100,4,2,0,60,0,1
112488,-66.6666666666667,4,2,0,60,0,0
113707,-100,4,2,0,60,0,1
123148,-100,4,2,0,60,0,0

[Colours]
Combo1 : 206,205,142
Combo2 : 213,189,203
Combo3 : 163,186,172
Combo4 : 131,145,169

[HitObjects]
132,232,12194,5,0,0:0:0:0:
248,136,12766,1,0,0:0:0:0:
284,280,13339,1,0,0:0:0:0:
340,196,13721,2,0,P|380:152|408:288,1,300
252,192,15249,6,0,P|268:140|340:76,2,150
296,284,16777,2,0,L|144:264,1,150
104,40,17731,1,0,0:0:0:0:
48,168,17922,1,0,0:0:0:0:
208,88,18304,6,0,L|368:68,1,150
476,160,19450,1,0,0:0:0:0:
400,224,19832,2,0,P|392:284|444:352,1,150
332,128,21360,5,0,0:0:0:0:
212,220,21933,1,0,0:0:0:0:
256,76,22505,1,0,0:0:0:0:
272,284,22887,1,0,0:0:0:0:
56,100,24409,6,0,B|95:108|127:76|127:76|166:56|199:76,1,150,2|0,1:2|3:0,0:0:0:0:
304,152,25172,2,0,P|312:216|312:224,1,50,2|0,1:2|0:0,0:0:0:0:
160,352,25554,2,0,P|152:288|152:280,1,50,0|0,3:3|0:0,0:0:0:0:
304,152,25936,6,0,B|340:168|376:148|376:148|456:168,1,150,2|0,1:2|3:0,0:0:0:0:
480,304,26700,2,0,P|480:344|472:368,1,50,2|0,1:2|0:0,0:0:0:0:
240,280,27082,2,0,P|240:240|248:216,1,50,0|0,3:0|0:0,0:0:0:0:
376,56,27464,6,0,B|336:36|300:40|300:40|276:60|224:56,1,150,2|0,1:2|3:0,0:0:0:0:
76,32,28228,2,0,L|48:88,1,50,2|0,1:2|0:0,0:0:0:0:
160,244,28610,2,0,L|188:188,1,50,0|0,3:3|0:0,0:0:0:0:
320,148,28992,6,0,P|380:180|464:176,1,150,2|0,1:2|3:0,0:0:0:0:
476,56,29755,1,2,1:2:0:0:
504,248,29946,1,0,0:0:0:0:
388,32,30137,1,0,3:0:0:0:
388,352,30328,1,0,0:0:0:0:
360,336,30424,1,0,0:0:0:0:
336,324,30519,6,0,B|280:312|232:340,1,100,2|0,1:2|1:2,0:0:0:0:
84,376,31092,1,0,0:0:0:0:
164,240,31283,2,0,P|164:200|156:172,1,50,2|0,1:2|0:0,0:0:0:0:
28,36,31665,2,0,P|28:76|36:104,1,50,2|0,1:2|0:0,0:0:0:0:
264,352,32047,2,0,P|264:312|256:284,1,50,2|0,1:2|0:0,0:0:0:0:
124,32,32429,2,0,P|124:72|132:100,1,50,2|0,1:2|0:0,0:0:0:0:
472,352,32811,2,0,P|472:312|464:284,1,50,2|0,1:2|0:0,0:0:0:0:
220,28,33193,2,0,P|220:68|228:96,1,50,2|0,1:2|0:0,0:0:0:0:
392,220,33575,5,0,1:2:0:0:
408,200,33670,1,0,3:0:0:0:
416,176,33766,1,0,3:0:0:0:
416,152,33861,1,0,3:0:0:0:
412,128,33957,1,0,1:2:0:0:
399,105,34052,1,0,3:0:0:0:
380,88,34148,1,0,3:0:0:0:
359,78,34243,1,0,3:0:0:0:
336,76,34338,5,0,1:2:0:0:
312,80,34434,1,0,3:0:0:0:
292,96,34529,1,0,3:0:0:0:
276,116,34625,1,0,3:0:0:0:
268,140,34720,1,0,1:2:0:0:
244,132,34816,1,0,3:0:0:0:
220,132,34911,1,0,3:0:0:0:
196,136,35007,1,0,3:0:0:0:
172,148,35102,1,0,1:1:0:0:
256,192,35198,12,0,36248,0:0:0:0:
328,152,36630,6,4,P|320:200|376:288,1,150,0|0,1:1|1:0,0:0:0:0:
480,180,37394,2,0,L|420:192,1,50,10|0,0:0|0:0,0:0:0:0:
248,340,37776,2,0,L|152:296,1,100,0|0,1:0|0:0,0:0:0:0:
44,148,38349,1,0,1:0:0:0:
52,364,38540,1,0,1:0:0:0:
8,76,38922,2,0,P|33:69|68:72,1,50,10|0,0:0|0:0,0:0:0:0:
256,192,39303,1,2,3:1:0:0:
16,260,39494,1,0,0:0:0:0:
392,296,39685,6,0,P|396:256|368:196,1,100,0|0,1:0|0:0,0:0:0:0:
176,120,40258,1,0,0:0:0:0:
248,340,40449,2,0,L|308:336,1,50,10|0,0:0|0:0,0:0:0:0:
488,212,40831,1,0,1:0:0:0:
488,212,41404,5,0,1:0:0:0:
176,120,41595,1,0,1:0:0:0:
396,88,41977,2,0,P|400:48|396:24,1,50,10|0,0:0|0:0,0:0:0:0:
176,120,42359,1,4,1:2:0:0:
304,240,42550,1,0,0:0:0:0:
396,88,42741,6,0,L|500:108,1,100,0|0,1:0|0:0,0:0:0:0:
360,308,43314,1,0,0:0:0:0:
132,256,43505,1,10,0:0:0:0:
396,88,43887,1,0,1:0:0:0:
396,88,44459,5,0,1:0:0:0:
96,40,44650,2,0,P|60:40|40:48,1,50,0|0,1:0|0:0,0:0:0:0:
224,312,45032,2,0,P|260:312|280:304,1,50,10|0,0:0|0:0,0:0:0:0:
396,88,45414,1,2,3:1:0:0:
440,336,45605,1,0,0:0:0:0:
168,124,45796,6,0,B|140:124|112:132|112:132|88:152|88:152|60:160|24:156,1,150,0|0,1:0|1:0,0:0:0:0:
12,32,46560,1,10,0:0:0:0:
188,352,46942,1,0,1:0:0:0:
352,68,47324,5,2,0:1:0:0:
460,312,47515,1,0,0:0:0:0:
456,36,47706,1,2,0:1:0:0:
360,344,47897,1,0,0:0:0:0:
156,40,48088,1,10,0:1:0:0:
464,188,48279,1,0,0:0:0:0:
80,348,48470,2,0,P|64:312|64:292,1,50,4|0,1:2|0:0,0:0:0:0:
156,40,48852,5,2,1:2:0:0:
212,28,48947,1,0,0:0:0:0:
268,37,49042,1,2,0:0:0:0:
319,62,49138,1,0,0:0:0:0:
350,111,49233,1,0,0:0:0:0:
360,344,49424,1,0,1:0:0:0:
232,144,49615,1,10,0:0:0:0:
480,316,49806,1,0,0:0:0:0:
200,256,49997,5,4,1:2:0:0:
200,256,50379,1,0,0:0:0:0:
156,40,50570,1,0,1:0:0:0:
360,128,50761,1,0,1:0:0:0:
100,264,51143,2,0,P|60:260|40:248,1,50,10|0,0:0|0:0,0:0:0:0:
276,24,51525,1,4,1:2:0:0:
236,360,51716,1,0,0:0:0:0:
350,111,51907,6,0,P|412:96|460:108,1,100,0|0,1:0|0:0,0:0:0:0:
412,264,52480,1,0,0:0:0:0:
276,24,52671,2,0,L|216:40,1,50,10|0,0:0|0:0,0:0:0:0:
104,344,53053,2,0,P|120:288|100:244,1,100,6|0,1:2|0:0,0:0:0:0:
20,44,53626,1,0,1:0:0:0:
36,296,53817,1,0,1:0:0:0:
416,216,54198,5,8,1:2:0:0:
232,352,54389,1,0,0:0:0:0:
96,168,54580,1,4,1:2:0:0:
280,32,54771,1,0,0:0:0:0:
152,272,54962,6,0,L|96:360,1,100,0|0,1:0|0:0,0:0:0:0:
96,168,55535,1,0,1:0:0:0:
232,352,55726,1,10,0:0:0:0:
280,32,55917,1,0,0:0:0:0:
20,128,56108,2,0,P|12:176|32:224,1,100,4|0,1:2|0:0,0:0:0:0:
336,316,56681,5,0,1:0:0:0:
56,348,56872,1,0,1:0:0:0:
336,316,57254,2,0,L|400:332,1,50,10|0,1:2|0:0,0:0:0:0:
120,76,57636,2,0,L|56:60,1,50,4|0,1:2|0:0,0:0:0:0:
56,348,58018,6,0,P|64:272|12:216,1,150,0|0,1:0|1:0,0:0:0:0:
196,360,58782,1,10,0:0:0:0:
408,60,58972,1,0,0:0:0:0:
336,352,59163,2,0,P|328:300|344:248,1,100,6|0,1:2|0:0,0:0:0:0:
240,88,59736,6,0,L|223:77,4,18.7500007152558,2|0|0|0|2,0:0|0:0|0:0|0:0|0:0,0:0:0:0:
256,240,60118,1,0,0:0:0:0:
88,104,60309,1,2,0:0:0:0:
364,168,60500,1,0,0:0:0:0:
36,264,60691,1,2,0:0:0:0:
364,36,60882,1,0,0:0:0:0:
152,348,61073,6,0,L|304:360,1,150,4|0,3:0|3:0,0:0:0:0:
480,240,61837,2,0,P|488:192|468:144,1,100,10|0,0:2|0:0,0:0:0:0:
192,24,62792,1,0,0:0:0:0:
312,300,62983,1,2,0:0:0:0:
333,98,63174,1,0,0:0:0:0:
158,343,63365,2,0,P|152:312|152:280,1,50,10|0,0:0|0:0,0:0:0:0:
333,98,63747,2,0,L|404:112,1,50,2|0,0:0|0:0,0:0:0:0:
192,24,64128,6,0,B|156:48|120:48|120:48|88:52|56:84,1,150,4|0,0:3|0:0,0:0:0:0:
16,268,64892,2,0,L|60:372,1,100,10|0,0:0|0:0,0:0:0:0:
360,124,65847,1,0,0:0:0:0:
480,280,66038,1,2,0:0:0:0:
340,344,66229,1,0,0:0:0:0:
492,60,66420,2,0,P|492:24|484:4,1,50,10|0,0:0|0:0,0:0:0:0:
280,232,66802,1,4,0:0:0:0:
504,172,66993,1,0,0:0:0:0:
240,40,67184,6,0,L|136:60,1,100,4|0,0:3|0:0,0:0:0:0:
76,304,67757,1,0,0:0:0:0:
32,84,67948,2,0,P|32:48|24:20,1,50,10|0,0:0|0:0,0:0:0:0:
184,272,68330,1,0,0:0:0:0:
184,272,68902,1,0,0:0:0:0:
384,96,69093,1,2,0:0:0:0:
332,356,69284,1,0,0:0:0:0:
216,104,69475,2,0,P|206:73|207:52,1,50,10|0,0:0|0:0,0:0:0:0:
464,264,69857,2,0,P|473:294|472:315,1,50,2|0,0:0|0:0,0:0:0:0:
184,272,70239,6,0,B|144:264|116:276|92:304|92:304|32:284,1,150,4|0,0:3|0:0,0:0:0:0:
8,132,71003,2,0,P|4:104|8:76,1,50,10|0,0:0|0:0,0:0:0:0:
224,16,71385,1,0,3:3:0:0:
256,192,71576,12,2,73285,1:2:0:0:
416,80,73854,5,2,1:2:0:0:
200,304,74424,1,2,1:2:0:0:
96,40,74987,5,2,1:2:0:0:
336,184,75172,1,2,1:2:0:0:
60,216,75356,1,0,0:0:0:0:
264,28,75541,1,2,1:2:0:0:
200,304,75726,1,2,1:2:0:0:
192,144,75910,2,0,P|188:180|176:200,1,50,2|0,1:2|0:0,0:0:0:0:
264,28,76274,6,0,L|380:40,1,100,2|0,1:2|0:0,0:0:0:0:
464,288,76812,2,0,L|348:276,1,100,2|0,1:2|0:0,0:0:0:0:
48,96,77351,2,0,L|164:108,1,100,2|0,1:2|0:0,0:0:0:0:
248,356,77896,1,2,1:2:0:0:
328,84,78071,1,2,1:2:0:0:
48,96,78422,2,0,P|48:144|56:164,1,50,2|0,1:2|0:0,0:0:0:0:
424,104,78773,2,0,P|424:56|416:36,1,50,2|0,1:2|0:0,0:0:0:0:
248,356,79104,6,0,L|144:344,1,100,2|0,1:2|0:0,0:0:0:0:
424,104,79618,2,0,P|428:156|396:206,1,100,2|0,1:2|0:0,0:0:0:0:
48,96,80132,2,0,L|152:108,1,100,2|0,1:2|0:0,0:0:0:0:
340,136,80642,1,2,1:2:0:0:
248,356,80810,1,2,1:2:0:0:
148,108,81145,2,0,P|148:76|156:48,1,50,2|0,1:2|0:0,0:0:0:0:
364,276,81480,2,0,P|364:308|356:336,1,50,2|0,1:2|0:0,0:0:0:0:
72,224,81815,6,0,L|56:112,1,100,2|0,1:2|0:0,0:0:0:0:
248,356,82306,2,0,L|232:244,1,100,2|0,1:2|0:0,0:0:0:0:
260,36,82798,1,2,1:2:0:0:
364,276,82962,1,0,0:0:0:0:
456,64,83126,5,2,3:0:0:0:
444,164,83286,1,4,3:0:0:0:
364,104,83446,2,0,P|332:104|308:112,1,50,4|0,1:3|0:0,0:0:0:0:
72,232,83767,1,2,3:0:0:0:
168,264,83928,1,0,3:0:0:0:
144,168,84088,1,0,0:0:0:0:
92,324,84248,1,0,3:0:0:0:
244,196,84409,6,0,P|244:160|240:136,1,50,2|0,1:2|0:0,0:0:0:0:
144,48,84723,1,0,0:0:0:0:
72,232,84880,2,0,P|72:268|76:292,1,50,2|0,1:2|0:0,0:0:0:0:
288,344,85194,1,0,0:0:0:0:
464,132,85351,2,0,P|464:96|460:72,1,50,2|0,1:2|0:0,0:0:0:0:
144,48,85665,5,0,0:0:0:0:
261,374,85820,1,2,1:2:0:0:
358,40,85975,1,2,1:2:0:0:
84,254,86131,1,0,0:0:0:0:
431,242,86286,2,0,L|500:260,1,50,2|2,1:2|1:2,0:0:0:0:
80,141,86597,2,0,L|12:124,1,50,2|0,1:2|0:0,0:0:0:0:
358,41,86905,6,0,P|364:65|362:89,1,50,2|0,1:2|0:0,0:0:0:0:
256,304,87209,1,0,0:0:0:0:
154,41,87361,2,0,P|147:65|149:89,1,50,2|0,1:2|0:0,0:0:0:0:
256,328,87665,1,0,0:0:0:0:
452,16,87818,2,0,P|458:40|456:64,1,50,2|0,1:2|0:0,0:0:0:0:
256,352,88123,1,0,0:0:0:0:
60,16,88275,2,0,P|53:40|55:64,1,50,2|2,1:2|1:2,0:0:0:0:
256,376,88580,1,0,0:0:0:0:
496,192,88732,2,0,L|436:176,1,50,2|0,1:2|0:0,0:0:0:0:
16,192,89036,2,0,L|76:208,1,50,2|0,1:2|0:0,0:0:0:0:
476,324,89341,5,2,1:2:0:0:
144,72,89493,1,0,0:0:0:0:
256,352,89646,1,0,0:0:0:0:
444,12,89798,2,0,P|444:48|436:76,1,50,2|0,1:2|0:0,0:0:0:0:
112,336,90102,1,0,0:0:0:0:
68,12,90255,2,0,P|68:48|76:76,1,50,2|0,1:2|0:0,0:0:0:0:
400,336,90559,1,0,0:0:0:0:
284,20,90712,1,2,1:2:0:0:
228,364,90864,1,2,1:2:0:0:
414,120,91016,1,0,0:0:0:0:
97,263,91168,2,0,L|39:249,1,50,2|0,1:2|0:0,0:0:0:0:
414,263,91473,2,0,L|472:249,1,50,2|0,1:2|0:0,0:0:0:0:
68,12,91778,5,2,1:2:0:0:
384,192,91930,1,0,0:0:0:0:
176,364,92082,1,0,0:0:0:0:
444,12,92234,1,2,1:2:0:0:
128,192,92386,1,0,0:0:0:0:
336,364,92538,1,0,0:0:0:0:
256,16,92691,2,0,L|256:80,1,50,2|0,1:2|0:0,0:0:0:0:
256,344,92996,6,0,B|229:270|277:270|256:196,1,150,2|0,0:0|0:0,0:0:0:0:
64,100,94214,5,8,1:0:0:0:
160,208,94366,1,0,0:0:0:0:
212,72,94519,2,0,P|216:36|212:16,1,50,8|0,0:1|0:0,0:0:0:0:
52,264,94823,2,0,P|48:300|52:320,1,50,8|0,0:1|0:0,0:0:0:0:
184,368,95128,1,8,1:1:0:0:
300,280,95280,1,0,0:0:0:0:
432,332,95432,6,0,L|496:344,1,50,8|0,0:1|0:0,0:0:0:0:
416,196,95737,1,8,1:1:0:0:
212,72,95889,1,0,0:0:0:0:
300,280,96042,2,0,P|300:240|288:216,1,50,8|0,1:1|1:2,0:0:0:0:
130,52,96346,2,0,P|130:92|142:116,1,50,8|0,1:1|0:2,0:0:0:0:
416,196,96651,5,8,1:1:0:0:
488,84,96803,1,0,0:0:0:0:
308,100,96955,1,8,0:1:0:0:
300,280,97108,1,0,0:0:0:0:
472,360,97260,2,0,P|472:324|464:296,1,50,8|0,0:1|0:0,0:0:0:0:
244,144,97564,1,8,1:1:0:0:
164,320,97717,1,0,0:0:0:0:
128,48,97869,6,0,L|192:40,1,50,8|0,0:1|0:0,0:0:0:0:
488,84,98174,1,8,1:1:0:0:
392,312,98326,1,0,0:0:0:0:
244,144,98478,2,0,P|236:184|240:208,1,50,8|0,1:1|0:1,0:0:0:0:
44,336,98783,2,0,P|52:296|48:272,1,50,8|0,1:1|0:1,0:0:0:0:
128,48,99087,5,8,1:1:0:0:
448,176,99240,1,0,0:0:0:0:
136,244,99392,2,0,P|132:212|136:188,1,50,8|0,0:1|0:0,0:0:0:0:
376,32,99696,2,0,P|380:64|376:88,1,50,8|0,0:1|0:0,0:0:0:0:
244,324,100001,1,8,1:1:0:0:
448,176,100153,1,0,0:0:0:0:
136,244,100306,2,0,L|72:232,1,50,8|0,0:1|0:0,0:0:0:0:
416,320,100610,2,0,L|480:308,1,50,8|0,1:1|0:0,0:0:0:0:
376,32,100915,2,0,P|372:64|376:88,1,50,8|0,1:1|0:1,0:0:0:0:
136,32,101219,2,0,P|140:64|136:88,1,50,8|0,1:1|0:1,0:0:0:0:
244,324,101524,5,8,1:1:0:0:
304,128,101676,1,0,0:0:0:0:
136,244,101828,1,8,0:1:0:0:
324,104,101981,1,0,0:0:0:0:
244,324,102133,1,8,0:1:0:0:
160,104,102285,1,0,0:0:0:0:
360,228,102437,1,8,1:1:0:0:
140,80,102590,1,0,0:0:0:0:
244,324,102742,6,0,P|240:360|244:376,1,50,8|0,0:1|0:0,0:0:0:0:
408,124,103047,2,0,P|412:88|408:72,1,50,8|0,1:1|0:0,0:0:0:0:
56,48,103351,2,0,P|52:84|56:100,1,50,8|0,1:1|1:0,0:0:0:0:
128,288,103656,1,8,1:1:0:0:
360,228,103808,1,0,0:0:0:0:
140,80,103960,6,0,L|168:32,1,50,8|0,1:1|0:0,0:0:0:0:
410,147,104265,2,0,L|438:195,1,50,8|0,0:1|0:0,0:0:0:0:
217,348,104569,2,0,L|161:348,1,50,8|0,0:1|0:0,0:0:0:0:
294,35,104874,2,0,L|350:35,1,50,8|0,1:1|0:0,0:0:0:0:
372,303,105179,2,0,L|344:352,1,50,8|0,0:1|0:0,0:0:0:0:
101,236,105483,2,0,L|73:188,1,50,8|0,1:1|0:0,0:0:0:0:
410,147,105788,2,0,L|438:195,2,50,8|0|8,1:0|0:0|1:1,0:0:0:0:
192,16,106245,1,0,0:0:0:0:
101,236,106397,6,0,P|97:280|105:304,1,50,8|0,1:1|0:0,0:0:0:0:
300,360,106701,1,8,0:1:0:0:
228,128,106854,1,0,0:0:0:0:
12,228,107006,1,8,0:1:0:0:
232,296,107158,1,0,0:0:0:0:
411,147,107311,2,0,P|413:110|405:86,1,50,8|0,1:1|0:0,0:0:0:0:
192,16,107615,1,8,0:1:0:0:
101,236,107767,1,0,1:0:0:0:
408,328,107920,2,0,L|472:312,1,50,8|0,1:1|0:0,0:0:0:0:
104,56,108224,2,0,L|40:72,1,50,8|0,1:1|0:0,0:0:0:0:
411,147,108529,1,8,1:0:0:0:
172,364,108681,1,0,0:0:0:0:
284,72,108833,6,0,P|284:32|276:8,1,50,8|0,1:1|0:0,0:0:0:0:
408,328,109138,2,0,P|408:368|416:392,1,50,8|0,0:1|0:0,0:0:0:0:
448,68,109443,1,8,0:1:0:0:
204,196,109595,1,0,0:0:0:0:
472,256,109747,2,0,L|508:216,1,50,8|0,1:1|0:0,0:0:0:0:
128,160,110052,2,0,L|92:200,1,50,8|0,0:1|0:0,0:0:0:0:
392,220,110356,2,0,L|428:180,1,50,8|0,1:1|0:0,0:0:0:0:
48,124,110661,2,0,L|12:164,2,50,8|0|8,1:1|1:0|1:1,0:0:0:0:
296,16,111118,1,0,0:0:0:0:
304,316,111270,6,0,P|308:356|296:380,1,50,8|0,1:1|0:0,0:0:0:0:
168,352,111575,1,8,0:1:0:0:
392,280,111727,1,0,0:1:0:0:
104,224,111879,1,8,0:1:0:0:
412,132,112031,1,0,0:1:0:0:
72,28,112184,2,0,P|68:60|76:84,1,50,8|0,0:1|0:0,0:0:0:0:
392,280,112488,6,0,B|420:272|420:272|436:280|436:280|464:272,1,75.0000028610231,8|0,0:1|0:0,0:0:0:0:
104,224,112793,2,0,B|76:216|76:216|60:224|60:224|32:216,1,75.0000028610231,8|0,0:1|0:0,0:0:0:0:
412,132,113097,2,0,B|440:124|440:124|456:132|456:132|484:124,1,75.0000028610231,8|0,0:1|0:0,0:0:0:0:
72,28,113402,2,0,B|44:20|44:20|28:28|28:28|0:20,1,75.0000028610231,8|0,0:1|0:0,0:0:0:0:
240,352,113707,6,0,P|248:304|220:256,1,100,2|2,1:2|1:2,0:0:0:0:
44,148,114163,1,0,0:0:0:0:
52,340,114316,1,8,0:1:0:0:
356,304,114620,2,0,L|424:292,1,50,2|0,1:2|0:0,0:0:0:0:
444,44,114925,2,0,L|376:56,1,50,2|0,1:2|0:0,0:0:0:0:
328,384,115229,2,0,L|396:372,1,50,2|0,1:2|0:0,0:0:0:0:
416,124,115534,2,0,L|348:136,1,50,2|0,1:2|0:0,0:0:0:0:
468,360,115839,1,2,1:2:0:0:
32,280,116143,6,0,P|28:312|32:340,1,50,2|0,1:2|0:0,0:0:0:0:
260,264,116448,1,2,1:2:0:0:
100,192,116600,1,2,1:2:0:0:
340,124,116752,2,0,L|356:64,1,50,8|0,0:1|0:0,0:0:0:0:
148,308,117057,5,2,1:2:0:0:
125,282,117361,1,2,1:2:0:0:
386,333,117513,1,2,1:2:0:0:
116,248,117666,2,0,P|108:220|112:184,1,50,2|0,1:2|0:0,0:0:0:0:
412,84,117970,2,0,P|420:112|416:148,1,50,8|0,1:1|0:0,0:0:0:0:
32,272,118275,2,0,P|23:243|27:207,1,50,2|0,1:2|0:0,0:0:0:0:
352,32,118580,6,0,L|460:16,1,100,2|2,1:2|1:2,0:0:0:0:
504,256,119036,1,0,1:2:0:0:
52,108,119189,1,8,1:1:0:0:
276,168,119493,2,0,L|330:160,1,50,2|0,1:2|0:0,0:0:0:0:
52,108,119798,2,0,L|-2:100,1,50,2|0,1:2|0:0,0:0:0:0:
388,332,120102,2,0,L|442:324,1,50,2|0,1:2|0:0,0:0:0:0:
352,32,120407,1,8,1:1:0:0:
264,296,120559,1,0,0:0:0:0:
244,24,120712,2,0,P|248:60|260:84,1,50,2|0,1:2|0:0,0:0:0:0:
504,256,121016,5,2,1:2:0:0:
504,256,121321,1,2,1:2:0:0:
324,200,121473,1,0,1:2:0:0:
156,288,121625,2,0,P|152:248|156:228,1,50,8|0,0:1|0:0,0:0:0:0:
244,24,121930,2,0,P|248:64|244:84,1,50,2|0,1:2|0:0,0:0:0:0:
168,360,122234,1,2,1:2:0:0:
80,92,122387,1,2,1:2:0:0:
388,344,122539,2,0,L|452:332,1,50,2|0,1:2|0:0,0:0:0:0:
52,212,122844,2,0,L|-12:200,2,50,2|0|8,1:2|0:0|0:1,0:0:0:0:
256,192,123300,12,2,125483,0:0:0:0:
