osu file format v13

[General]
AudioFilename: pensamento_t_pico_de_esquerda_caviar.mp3
AudioLeadIn: 0
PreviewTime: 47324
Countdown: 0
SampleSet: Soft
StackLeniency: 0.7
Mode: 0
LetterboxInBreaks: 1
WidescreenStoryboard: 1

[Editor]
Bookmarks: 12194,36630,61073,94214,113707,123148
DistanceSpacing: 1
BeatDivisor: 4
GridSize: 4
TimelineZoom: 1

[Metadata]
Title:pensamento tipico de esquerda caviar
TitleUnicode:pensamento tipico de esquerda caviar
Artist:Maffalda
ArtistUnicode:Maffalda
Creator:Blue Dragon
Version:Easy
Source:
Tags:trap brazil portuguese funk aah eu vou gozar mc nego bam kuron-kun brasil onosakihito
BeatmapID:457746
BeatmapSetID:175036

[Difficulty]
HPDrainRate:2
CircleSize:3
OverallDifficulty:2
ApproachRate:3
SliderMultiplier:0.600000005960464
SliderTickRate:1

[Events]
//Background and Video events
0,0,"wallpaper-874217.jpg",0,0
//Break Periods
//Storyboard Layer 0 (Background)
//Storyboard Layer 1 (Fail)
//Storyboard Layer 2 (Pass)
//Storyboard Layer 3 (Foreground)
//Storyboard Sound Samples
//Background Colour Transformations
3,100,163,162,255

[TimingPoints]
12194,381.922342457034,4,3,0,20,1,0
24409,381.922342457034,4,2,0,60,1,0
36630,-100,4,2,0,60,0,1
47324,-100,4,2,0,60,0,0
48470,-100,4,2,0,60,0,0
48852,-100,4,2,0,60,0,1
49997,-100,4,2,0,60,0,0
59736,-66.6666666666667,4,2,0,60,0,0
61073,-100,4,2,0,60,0,0
73285,379.746835443038,4,2,0,60,1,0
74803,369.230769230769,4,2,0,60,1,0
76274,359.281437125748,4,2,0,60,1,0
77721,350.877192982456,4,2,0,60,1,0
79104,342.857142857143,4,2,0,60,1,0
80475,335.195530726257,4,2,0,60,1,0
81815,327.868852459016,4,2,0,60,1,0
83126,320.855614973262,4,2,0,60,1,0
84409,314.13612565445,4,2,0,60,1,0
85665,310.880829015544,4,2,0,60,1,0
86905,304.568527918782,4,2,0,60,1,0
92996,-133.333333333333,4,2,0,60,0,0
93072,-133.333333333333,4,2,0,10,0,0
94214,-100,4,2,0,60,0,1
112488,-100,4,2,0,60,0,0
113707,-100,4,2,0,60,0,1
123148,-100,4,2,0,60,0,0

[Colours]
Combo1 : 206,205,142
Combo2 : 213,189,203
Combo3 : 163,186,172
Combo4 : 131,145,169

[HitObjects]
56,88,12194,6,0,L|152:76,2,90.0000008940696,0|0|0,0:0|0:0|0:0,0:0:0:0:
13,130,13721,1,0,0:0:0:0:
240,204,15249,6,0,L|144:192,2,90.0000008940696,0|0|0,0:0|0:0|0:0,0:0:0:0:
282,246,16777,2,0,L|378:234,2,90.0000008940696,0|0|0,0:0|0:0|0:0,0:0:0:0:
252,300,18304,6,0,P|192:328|96:272,1,180.000001788139,0|0,0:0|0:0,0:0:0:0:
112,220,19832,2,0,P|109:158|89:126,1,90.0000008940696,0|0,0:0|0:0,0:0:0:0:
260,84,21360,6,0,P|320:56|416:112,1,180.000001788139,0|0,0:0|0:0,0:0:0:0:
400,164,22887,1,0,0:0:0:0:
244,348,24409,6,0,L|112:332,1,120.000001192093,2|2,1:2|1:2,0:0:0:0:
40,248,25936,2,0,L|172:232,1,120.000001192093,2|2,1:2|1:2,0:0:0:0:
244,149,27464,2,0,L|112:133,1,120.000001192093,2|2,1:2|1:2,0:0:0:0:
40,49,28992,2,0,L|172:33,1,120.000001192093,2|2,1:2|1:2,0:0:0:0:
280,28,30519,6,0,P|308:32|352:32,1,60.0000005960464,2|0,1:2|1:2,0:0:0:0:
400,28,31283,2,0,P|429:28|459:32,1,60.0000005960464,2|0,1:2|1:2,0:0:0:0:
504,72,32047,1,2,1:2:0:0:
504,132,32429,1,0,1:2:0:0:
484,188,32811,2,0,P|480:228|492:256,1,60.0000005960464,2|0,1:2|1:2,0:0:0:0:
508,300,33575,6,0,L|448:328,1,60.0000005960464,2|2,1:2|1:2,0:0:0:0:
400,304,34338,2,0,L|340:332,1,60.0000005960464,2|2,1:2|1:2,0:0:0:0:
288,312,35102,1,2,1:2:0:0:
316,120,36630,5,0,1:0:0:0:
400,88,37203,2,0,P|408:132|388:176,2,90.0000008940696,0|0|0,1:2|1:0|1:0,0:0:0:0:
325,27,38922,2,0,L|261:39,1,60.0000005960464,10|2,0:0|3:1,0:0:0:0:
208,48,39685,6,0,P|164:56|120:36,2,90.0000008940696,0|0|0,1:0|1:2|1:0,0:0:0:0:
296,128,41595,2,0,P|292:168|284:200,1,60.0000005960464,0|10,1:0|0:0,0:0:0:0:
252,236,42359,1,4,1:2:0:0:
220,284,42741,6,0,P|296:296|320:328,1,120.000001192093,0|10,1:0|0:0,0:0:0:0:
348,380,43887,2,0,L|456:308,1,120.000001192093,0|0,1:0|1:0,0:0:0:0:
484,264,45032,2,0,P|492:224|488:200,1,60.0000005960464,10|2,0:0|3:1,0:0:0:0:
476,148,45796,5,0,1:0:0:0:
416,80,46369,2,0,L|320:104,1,90.0000008940696,0|0,1:0|1:0,0:0:0:0:
92,132,48470,5,4,0:2:0:0:
152,120,48852,2,0,P|186:167|190:232,1,120.000001192093,0|8,1:0|0:2,0:0:0:0:
164,280,49997,1,4,1:2:0:0:
40,252,50761,1,0,1:0:0:0:
15,197,51143,2,0,P|11:149|20:128,1,60.0000005960464,10|4,0:0|1:2,0:0:0:0:
40,84,51907,6,0,L|160:96,1,120.000001192093,0|10,1:0|0:0,0:0:0:0:
220,104,53053,2,0,P|268:108|328:72,1,120.000001192093,6|0,1:2|1:0,0:0:0:0:
356,20,54198,1,8,1:2:0:0:
416,24,54580,1,12,1:2:0:0:
468,52,54962,6,0,P|484:104|476:148,1,90.0000008940696,0|0,1:0|1:0,0:0:0:0:
400,184,56108,2,0,L|432:300,1,120.000001192093,4|0,1:2|1:0,0:0:0:0:
408,356,57254,1,10,1:2:0:0:
352,372,57636,1,4,1:2:0:0:
296,356,58018,5,0,1:0:0:0:
256,192,58209,12,0,59545,0:0:0:0:
256,48,60691,5,2,2:0:0:0:
316,36,61073,1,4,3:0:0:0:
436,64,61837,2,0,P|444:100|344:192,1,180.000001788139,10|2,0:2|0:0,0:0:0:0:
308,156,63365,2,0,P|260:156|244:160,1,60.0000005960464,10|2,0:0|0:0,0:0:0:0:
200,192,64128,6,0,B|168:140|168:140|180:76,1,120.000001192093,4|10,0:3|0:0,0:0:0:0:
192,24,65274,1,0,0:0:0:0:
44,68,66038,1,2,0:0:0:0:
16,120,66420,2,0,P|8:168|12:188,1,60.0000005960464,10|4,0:0|0:0,0:0:0:0:
28,236,67184,6,0,L|148:280,1,120.000001192093,4|10,0:3|0:0,0:0:0:0:
196,300,68330,1,0,0:0:0:0:
312,324,69093,1,2,0:0:0:0:
340,272,69475,2,0,P|348:224|344:204,1,60.0000005960464,10|2,0:0|0:0,0:0:0:0:
340,152,70239,6,0,P|344:92|384:48,1,120.000001192093,0|10,3:0|0:2,0:0:0:0:
440,28,71385,1,0,3:0:0:0:
192,116,73285,5,2,1:2:0:0:
104,84,73854,2,0,P|100:124|124:176,1,90.0000008940696,2|2,1:2|1:2,0:0:0:0:
188,269,75172,2,0,L|176:333,2,60.0000005960464,2|2|2,1:2|1:2|1:2,0:0:0:0:
224,220,76274,6,0,P|276:196|312:204,1,90.0000008940696,2|2,1:2|1:2,0:0:0:0:
384,248,77351,1,2,1:2:0:0:
484,180,78071,2,0,L|512:120,2,60.0000005960464,2|2|2,1:2|1:2|1:2,0:0:0:0:
432,208,79104,6,0,P|364:196|348:176,1,90.0000008940696,2|2,1:2|1:2,0:0:0:0:
316,100,80132,1,2,1:2:0:0:
196,148,80810,2,0,L|136:136,1,60.0000005960464,2|2,1:2|1:2,0:0:0:0:
80,124,81480,1,2,1:2:0:0:
20,112,81815,6,0,P|8:160|16:208,1,90.0000008940696,2|2,1:2|1:2,0:0:0:0:
48,284,82798,1,2,1:2:0:0:
92,328,83126,6,0,L|156:312,1,60.0000005960464,2|4,3:0|1:3,0:0:0:0:
204,340,83767,2,0,L|267:324,1,60.0000005960464,2|0,3:0|0:0,0:0:0:0:
320,352,84409,6,0,P|380:316|392:212,1,180.000001788139,2|2,1:2|1:2,0:0:0:0:
344,176,85665,2,0,B|320:121|320:121|332:52,1,120.000001192093,2|2,1:2|1:2,0:0:0:0:
356,8,86597,1,2,1:2:0:0:
416,12,86905,6,0,P|460:28|480:152,1,180.000001788139,2|2,1:2|1:2,0:0:0:0:
440,188,88123,2,0,P|428:232|452:304,1,120.000001192093,2|2,1:2|1:2,0:0:0:0:
488,348,89036,1,2,1:2:0:0:
436,376,89341,6,0,L|248:344,1,180.000001788139,2|2,1:2|1:2,0:0:0:0:
200,328,90559,2,0,P|168:264|224:168,1,180.000001788139,2|2,1:2|1:2,0:0:0:0:
272,160,91778,6,0,P|284:124|280:96,1,60.0000005960464,2|0,1:2|0:0,0:0:0:0:
252,52,92387,2,0,L|184:48,1,60.0000005960464,2|0,1:2|0:0,0:0:0:0:
144,48,92996,6,0,P|108:80|84:164,1,135.000006490946,2|0,0:0|0:0,0:0:0:0:
76,220,94214,6,0,P|100:260|176:280,1,120.000001192093,8|8,1:0|0:1,0:0:0:0:
224,264,95128,1,8,1:1:0:0:
260,216,95432,2,0,P|317:229|351:277,2,120.000001192093,8|8|8,0:1|1:1|1:1,0:0:0:0:
212,180,96955,5,8,0:1:0:0:
168,140,97260,2,0,L|220:24,1,120.000001192093,8|8,0:1|0:1,0:0:0:0:
272,8,98174,1,8,1:1:0:0:
324,40,98478,2,0,P|360:56|392:56,1,60.0000005960464,8|8,1:1|1:1,0:0:0:0:
436,36,99087,6,0,P|412:76|408:152,1,120.000001192093,8|8,1:1|1:1,0:0:0:0:
448,192,100001,2,0,L|356:288,1,120.000001192093,8|8,1:1|1:1,0:0:0:0:
328,324,100915,2,0,P|296:324|268:312,1,60.0000005960464,8|8,1:0|0:1,0:0:0:0:
236,264,101524,6,0,P|176:264|128:296,1,120.000001192093,8|8,1:1|0:1,0:0:0:0:
88,340,102437,2,0,L|64:212,1,120.000001192093,8|8,1:1|1:1,0:0:0:0:
56,164,103351,1,8,1:1:0:0:
44,104,103656,1,8,1:1:0:0:
32,44,103960,6,0,P|76:32|144:60,1,120.000001192093,8|8,1:1|0:1,0:0:0:0:
185,101,104874,2,0,P|229:113|297:85,1,120.000001192093,8|8,1:1|1:1,0:0:0:0:
320,32,105788,2,0,L|384:44,1,60.0000005960464,8|8,1:0|1:1,0:0:0:0:
436,64,106397,6,0,P|424:108|440:188,1,120.000001192093,8|8,1:1|0:1,0:0:0:0:
478,222,107311,2,0,P|491:280|478:339,1,120.000001192093,8|8,1:1|1:1,0:0:0:0:
436,380,108224,2,0,L|364:364,1,60.0000005960464,8|8,1:1|1:0,0:0:0:0:
324,340,108833,6,0,P|256:316|200:328,1,120.000001192093,8|8,1:1|0:1,0:0:0:0:
172,372,109747,2,0,L|136:252,1,120.000001192093,8|8,1:1|1:1,0:0:0:0:
132,196,110661,1,8,1:1:0:0:
160,144,110965,1,8,1:1:0:0:
220,128,111270,6,0,L|264:168,1,60.0000005960464,8|8,0:1|0:1,0:0:0:0:
264,228,111879,2,0,L|308:268,1,60.0000005960464,8|8,0:1|0:1,0:0:0:0:
368,268,112488,2,0,P|384:236|388:208,1,60.0000005960464,8|8,0:1|0:1,0:0:0:0:
384,152,113097,2,0,P|364:122|342:104,1,60.0000005960464,8|8,0:1|0:1,0:0:0:0:
292,84,113707,5,2,1:2:0:0:
416,52,114316,2,0,P|440:88|428:168,1,120.000001192093,8|2,0:1|1:2,0:0:0:0:
404,216,115229,1,2,1:2:0:0:
344,204,115534,2,0,L|284:232,1,60.0000005960464,2|2,1:2|1:2,0:0:0:0:
260,284,116143,6,0,P|248:240|188:196,1,120.000001192093,2|8,1:2|0:1,0:0:0:0:
132,216,117057,1,2,1:2:0:0:
72,204,117361,2,0,L|24:240,2,60.0000005960464,2|2|8,1:2|1:2|1:1,0:0:0:0:
56,144,118275,1,2,1:2:0:0:
92,96,118580,6,0,P|136:60|200:60,1,120.000001192093,2|8,1:2|0:1,0:0:0:0:
248,92,119493,1,2,1:2:0:0:
264,152,119798,2,0,L|324:180,1,60.0000005960464,2|2,1:2|1:2,0:0:0:0:
360,219,120407,2,0,L|420:191,1,60.0000005960464,8|2,1:1|1:2,0:0:0:0:
464,160,121016,6,0,P|492:188|488:268,1,120.000001192093,2|8,1:2|0:1,0:0:0:0:
476,320,121930,1,2,1:2:0:0:
440,368,122234,2,0,L|368:356,1,60.0000005960464,2|2,1:2|1:2,0:0:0:0:
324,336,122844,1,8,1:1:0:0:
272,364,123148,1,8,0:1:0:0:
256,192,123250,12,2,125483,0:0:0:0:
