osu file format v14

[General]
AudioFilename: caralho.mp3
AudioLeadIn: 0
PreviewTime: 13458
Countdown: 0
SampleSet: Soft
StackLeniency: 0.7
Mode: 0
LetterboxInBreaks: 0
EpilepsyWarning: 1
WidescreenStoryboard: 1

[Editor]
DistanceSpacing: 1
BeatDivisor: 12
GridSize: 4
TimelineZoom: 1.7

[Metadata]
Title:Feliz Pascoa pra todos voces apesar de ninguem ter me mandado chocolates
TitleUnicode:Feliz Páscoa pra todos vocês apesar de ninguém ter me mandado chocolates
Artist:Maffalda
ArtistUnicode:Maffalda
Creator:Nhawak
Version:Nathan's Extra
Source:
Tags:coelhinho dubstep mashup portuguese brazil soundclown galinha pintadinha XinCrin Mao -Bakari- appleeaterx Mira-san Frey Gero Fort -kevincela- sukiNathan Spaghetti Chewin EvilElvis Asphyxia Blue Dragon Irreversible alacat
BeatmapID:762573
BeatmapSetID:336644

[Difficulty]
HPDrainRate:6
CircleSize:4
OverallDifficulty:8.3
ApproachRate:9.3
SliderMultiplier:3.59999990463257
SliderTickRate:1

[Events]
//Background and Video events
0,0,"BG.jpg",0,0
//Break Periods
//Storyboard Layer 0 (Background)
//Storyboard Layer 1 (Fail)
//Storyboard Layer 2 (Pass)
//Storyboard Layer 3 (Foreground)
//Storyboard Sound Samples

[TimingPoints]
15,857.142857142857,4,2,1,80,1,0
15,-200,3,2,1,80,0,0
3464,857.142857142857,4,2,1,80,1,0
3464,-200,4,2,1,80,0,0
6913,857.142857142857,4,2,1,80,1,0
6913,-200,3,2,1,80,0,0
10893,857.142857142857,4,2,1,80,1,0
12035,857.142857142857,4,2,1,80,1,0
13501,857.142857142857,4,2,1,80,1,0
14644,857.142857142857,4,2,1,80,1,0
14644,-66.6666666666667,3,2,1,100,0,1
21072,-200,3,2,1,100,0,0
21501,-66.6666666666667,3,2,1,100,0,1
24501,-66.6666666666667,3,2,1,100,0,0
24929,-66.6666666666667,3,2,1,100,0,1
26644,-133.333333333333,3,2,1,100,0,0
28358,-66.6666666666667,3,2,1,100,0,1
32643,-133.333333333333,3,2,1,100,0,1
33501,857.142857142857,4,2,1,80,1,0
33502,-100,3,2,1,100,0,0
46429,-100,3,2,1,5,0,0

[Colours]
Combo1 : 255,40,40
Combo2 : 0,128,192
Combo3 : 248,211,7

[HitObjects]
118,339,15,6,0,L|244:347,1,120,2|0,0:0|0:0,0:0:0:0:
357,356,872,2,0,P|409:298|407:260,1,120,2|0,0:0|0:0,0:0:0:0:
415,140,1729,2,0,P|473:192|511:190,1,120,2|0,0:0|0:0,0:0:0:0:
467,50,2586,2,0,L|347:57,1,120,2|0,0:0|0:0,0:0:0:0:
270,150,3464,5,2,0:0:0:0:
229,36,3749,1,0,0:0:0:0:
147,121,4035,1,0,0:0:0:0:
24,92,4321,5,2,0:0:0:0:
65,206,4606,1,0,0:0:0:0:
147,121,4892,1,0,0:0:0:0:
199,251,5178,6,0,L|220:313,2,60,2|0|0,0:0|0:0|0:0,0:0:0:0:
147,121,6035,2,0,L|274:116,1,120,2|0,0:0|0:0,0:0:0:0:
362,26,6913,6,0,P|393:65|400:136,1,120,2|0,0:0|0:0,0:0:0:0:
310,212,7770,2,0,L|429:216,1,120,2|0,0:0|0:0,0:0:0:0:
263,293,8627,2,0,P|232:254|225:183,1,120,2|0,0:0|0:0,0:0:0:0:
236,66,9484,2,0,P|197:97|126:104,1,120,2|0,0:0|0:0,0:0:0:0:
21,50,10341,5,2,0:0:0:0:
28,169,10627,1,0,0:0:0:0:
128,104,10893,1,0,0:0:0:0:
28,169,11178,5,2,0:0:0:0:
135,223,11464,1,0,0:0:0:0:
38,294,11750,1,0,0:0:0:0:
38,294,12035,5,2,0:0:0:0:
474,294,12320,1,0,0:0:0:0:
256,45,12606,1,0,0:0:0:0:
256,339,12892,1,2,0:0:0:0:
256,339,13501,5,0,0:0:0:0:
256,339,13786,2,0,L|256:205,1,120,2|0,0:0|0:0,0:0:0:0:
404,195,14358,1,2,0:0:0:0:
404,195,14644,6,0,P|418:112|327:44,1,180.000006866455,4|0,0:0|0:0,0:0:0:0:
128,264,15072,1,0,0:0:0:0:
325,141,15215,1,2,0:0:0:0:
349,356,15358,1,4,0:0:0:0:
58,200,15501,6,0,P|37:247|47:307,1,90.0000034332277,8|0,0:0|0:0,0:0:0:0:
245,52,15786,1,2,0:0:0:0:
85,105,15929,1,0,0:0:0:0:
415,98,16072,1,2,0:0:0:0:
256,294,16215,1,0,0:0:0:0:
162,53,16358,6,0,P|88:11|-6:73,1,180.000006866455,4|0,0:0|0:0,0:0:0:0:
44,288,16786,1,0,0:0:0:0:
245,52,16929,1,2,0:0:0:0:
0,130,17072,1,0,0:0:0:0:
320,98,17215,6,0,P|327:28|312:-3,1,90.0000034332277,8|0,0:0|0:0,0:0:0:0:
184,176,17501,1,2,0:0:0:0:
421,295,17644,1,0,0:0:0:0:
215,300,17786,1,2,0:0:0:0:
457,176,17929,1,0,0:0:0:0:
184,176,18072,6,0,B|140:158|104:181|104:181|87:176|87:176|51:195|10:179,1,180.000006866455,4|0,0:0|0:0,0:0:0:0:
43,53,18501,1,0,0:0:0:0:
156,246,18644,1,2,0:0:0:0:
282,59,18786,1,0,0:0:0:0:
363,238,18929,6,0,P|408:244|468:232,1,90.0000034332277,8|0,0:0|0:0,0:0:0:0:
258,139,19215,1,2,0:0:0:0:
420,335,19358,1,0,0:0:0:0:
403,148,19501,1,2,0:0:0:0:
265,362,19644,1,4,0:0:0:0:
343,70,19786,6,0,P|410:55|506:145,1,180.000006866455,4|0,0:0|0:0,0:0:0:0:
472,228,20215,1,0,0:0:0:0:
250,111,20358,2,0,P|243:67|258:25,1,90.0000034332277,2|0,0:0|0:0,0:0:0:0:
93,214,20644,6,0,L|-7:207,1,90.0000034332277,8|0,0:0|0:0,0:0:0:0:
422,305,20929,2,0,L|522:298,1,90.0000034332277
185,342,21215,1,2,0:0:0:0:
185,342,21501,6,0,B|138:253|207:253|167:160,1,180.000006866455,4|0,0:0|0:0,0:0:0:0:
264,297,21929,1,0,0:0:0:0:
93,214,22072,2,0,P|81:264|81:314,1,90.0000034332277,0|4,0:0|0:0,0:0:0:0:
187,32,22358,5,10,0:0:0:0:
0,189,22501,1,0,0:0:0:0:
32,27,22644,1,2,0:0:0:0:
182,254,22786,1,0,0:0:0:0:
341,39,22929,2,0,P|391:27|441:27,1,90.0000034332277,2|0,0:0|0:0,0:0:0:0:
292,134,23215,5,6,0:0:0:0:
486,112,23358,1,0,0:0:0:0:
486,112,23429,1,0,0:0:0:0:
486,112,23501,1,2,0:0:0:0:
305,253,23644,1,0,0:0:0:0:
505,224,23787,1,2,0:0:0:0:
381,56,23929,1,0,0:0:0:0:
213,205,24072,6,0,L|107:217,1,90.0000034332277,10|0,0:0|0:0,0:0:0:0:
377,182,24358,1,2,0:0:0:0:
174,125,24501,2,4,B|110:132|110:132|61:154|61:154|0:161,1,180.000006866455,4|0,0:0|0:0,0:0:0:0:
198,19,24929,6,0,P|238:40|263:77,1,90.0000034332277,4|0,0:0|0:0,0:0:0:0:
377,182,25215,2,0,L|483:194,1,90.0000034332277
200,292,25501,2,0,P|160:271|135:234,1,90.0000034332277,2|0,0:0|0:0,0:0:0:0:
317,114,25787,5,10,0:0:0:0:
294,353,25929,1,0,0:0:0:0:
174,125,26072,1,2,0:0:0:0:
379,295,26215,1,0,0:0:0:0:
78,165,26358,1,2,0:0:0:0:
377,182,26501,1,0,0:0:0:0:
117,325,26644,6,0,P|77:333|58:333,1,45.0000017166138,0|0,0:0|0:0,0:0:0:0:
168,206,26929,2,0,P|173:227|176:250,1,45.0000017166138
34,173,27215,2,0,P|74:165|93:165,1,45.0000017166138
273,217,27501,6,0,B|305:207|338:222|338:222|371:204|371:204|403:222|444:211,1,180.000006866455
444,210,28358,6,0,B|468:120|468:120|440:28,1,180.000006866455,4|0,0:0|0:0,0:0:0:0:
320,124,28787,1,0,0:0:0:0:
407,311,28929,2,0,P|452:310|497:305,1,90.0000034332277,2|0,0:0|0:0,0:0:0:0:
188,192,29215,6,0,P|140:256|164:380,1,180.000006866455,8|0,0:0|0:0,0:0:0:0:
28,224,29644,1,0,0:0:0:0:
260,300,29787,1,2,0:0:0:0:
204,64,29929,1,0,0:0:0:0:
364,224,30072,6,0,P|424:276|516:348,1,180.000006866455,4|0,0:0|0:0,0:0:0:0:
496,164,30501,1,0,0:0:0:0:
272,196,30644,2,0,P|212:212|168:232,1,90.0000034332277,2|0,0:0|0:0,0:0:0:0:
340,48,30929,6,0,P|400:32|444:12,1,90.0000034332277,8|0,0:0|0:0,0:0:0:0:
204,64,31214,2,0,P|196:88|192:120,1,45.0000017166138,2|0,0:0|0:0,0:0:0:0:
356,192,31357,2,0,P|352:169|344:148,1,45.0000017166138,0|0,0:0|0:0,0:0:0:0:
142,211,31500,2,0,P|166:219|198:223,1,45.0000017166138,2|0,0:0|0:0,0:0:0:0:
383,59,31643,2,0,P|359:51|327:47,1,45.0000017166138,0|0,0:0|0:0,0:0:0:0:
300,276,31786,6,0,B|392:312|388:252|508:276,1,180.000006866455,4|0,0:0|0:0,0:0:0:0:
244,360,32214,1,0,0:0:0:0:
356,192,32357,1,2,0:0:0:0:
484,364,32500,1,0,0:0:0:0:
200,272,32643,6,0,P|176:288|152:332,1,67.5000025749207,10|0,0:0|0:0,0:0:0:0:
356,192,32929,6,0,P|338:163|311:143,1,67.5000025749207,2|0,0:0|0:0,0:0:0:0:
347,367,33215,6,0,P|377:380|410:381,1,67.5000025749207,2|0,0:0|0:0,0:0:0:0:
300,276,33501,5,4,0:0:0:0:
300,276,34072,1,2,0:0:0:0:
204,224,34215,1,4,0:0:0:0:
356,192,34358,6,0,P|362:126|332:66,1,120,10|0,0:0|0:0,0:0:0:0:
228,37,34929,1,0,0:0:0:0:
129,106,35215,2,0,P|121:164|143:220,1,120,6|0,0:0|0:0,0:0:0:0:
68,314,35787,1,0,0:0:0:0:
187,322,36072,2,0,L|318:328,1,120,10|0,0:0|0:0,0:0:0:0:
427,334,36643,1,0,0:0:0:0:
425,88,36928,5,6,0:0:0:0:
332,164,37214,1,0,0:0:0:0:
300,48,37500,1,0,0:0:0:0:
212,128,37786,5,10,0:0:0:0:
180,12,38072,1,0,0:0:0:0:
88,88,38358,1,0,0:0:0:0:
212,128,38501,1,4,0:0:0:0:
120,208,38644,6,0,P|96:264|104:340,1,120,6|0,0:0|0:0,0:0:0:0:
212,364,39215,1,0,0:0:0:0:
324,320,39501,2,0,P|396:312|448:336,1,120,10|0,0:0|0:0,0:0:0:0:
484,220,40072,1,0,0:0:0:0:
484,220,40358,6,0,L|480:88,1,120,6|0,0:0|0:0,0:0:0:0:
372,44,40929,1,0,0:0:0:0:
380,156,41072,1,4,0:0:0:0:
276,100,41215,6,0,P|212:88|144:120,1,120,10|0,0:0|0:0,0:0:0:0:
104,212,41787,1,0,0:0:0:0:
172,312,42072,2,0,P|236:324|304:292,1,120,6|0,0:0|0:0,0:0:0:0:
373,222,42644,1,0,0:0:0:0:
460,303,42929,6,0,L|463:157,1,120,10|0,0:0|0:0,0:0:0:0:
427,67,43501,1,0,0:0:0:0:
340,150,43787,5,6,0:0:0:0:
267,55,44072,1,0,0:0:0:0:
192,148,44358,1,0,0:0:0:0:
340,150,44644,5,10,0:0:0:0:
265,243,44929,1,0,0:0:0:0:
192,148,45215,1,0,0:0:0:0:
87,303,45358,1,4,0:0:0:0:
87,303,45501,5,6,0:0:0:0:
425,303,45787,1,0,0:0:0:0:
256,59,46072,1,0,0:0:0:0:
256,325,46358,1,10,0:0:0:0:
256,192,46429,12,0,48929,0:0:0:0:
