osu file format v14

[General]
AudioFilename: caralho.mp3
AudioLeadIn: 0
PreviewTime: 13458
Countdown: 0
SampleSet: Soft
StackLeniency: 0.7
Mode: 0
LetterboxInBreaks: 0
EpilepsyWarning: 1
WidescreenStoryboard: 1

[Editor]
DistanceSpacing: 1.6
BeatDivisor: 6
GridSize: 4
TimelineZoom: 1.3

[Metadata]
Title:Feliz Pascoa pra todos voces apesar de ninguem ter me mandado chocolates
TitleUnicode:Feliz Páscoa pra todos vocês apesar de ninguém ter me mandado chocolates
Artist:Maffalda
ArtistUnicode:Maffalda
Creator:Nhawak
Version:Frey's Insane
Source:
Tags:coelhinho dubstep mashup portuguese brazil soundclown galinha pintadinha XinCrin Mao -Bakari- appleeaterx Mira-san Frey Gero Fort -kevincela- sukiNathan Spaghetti Chewin EvilElvis Asphyxia Blue Dragon Irreversible alacat
BeatmapID:1031434
BeatmapSetID:336644

[Difficulty]
HPDrainRate:6
CircleSize:4
OverallDifficulty:7
ApproachRate:9
SliderMultiplier:2.79999990463257
SliderTickRate:1

[Events]
//Background and Video events
0,0,"BG.jpg",0,0
//Break Periods
//Storyboard Layer 0 (Background)
//Storyboard Layer 1 (Fail)
//Storyboard Layer 2 (Pass)
//Storyboard Layer 3 (Foreground)
//Storyboard Sound Samples

[TimingPoints]
15,857.142857142857,3,2,1,80,1,0
3464,857.142857142857,3,2,1,80,1,0
6913,857.142857142857,3,2,1,80,1,0
10893,857.142857142857,3,2,1,80,1,0
12035,857.142857142857,3,2,1,80,1,0
13501,857.142857142857,3,2,1,100,1,0
14644,857.142857142857,3,2,1,80,1,0
14644,-83.3333333333333,3,2,1,100,0,0
24929,-83.3333333333333,3,2,1,100,0,1
33501,857.142857142857,3,2,1,80,1,0
33501,-83.3333333333333,3,2,1,100,0,0
46429,-100,3,2,1,5,0,0

[Colours]
Combo1 : 255,40,40
Combo2 : 0,128,192
Combo3 : 248,211,7

[HitObjects]
68,136,15,6,0,P|156:128|268:112,1,186.666660308838,2|0,0:0|0:0,0:0:0:0:
352,56,872,2,0,P|340:148|332:241,1,186.666660308838,2|0,0:0|0:0,0:0:0:0:
256,324,1729,2,0,P|168:332|56:348,1,186.666660308838,2|0,0:0|0:0,0:0:0:0:
40,236,2586,2,0,P|105:174|189:202,1,186.666660308838,2|0,0:0|0:0,0:0:0:0:
450,157,3464,5,2,0:0:0:0:
320,180,3749,1,0,0:0:0:0:
190,203,4035,1,0,0:0:0:0:
32,80,4321,5,2,0:0:0:0:
162,103,4606,1,0,0:0:0:0:
292,126,4892,1,0,0:0:0:0:
267,256,5178,6,0,P|189:298|109:257,1,186.666660308838,2|0,0:0|0:0,0:0:0:0:
245,126,6035,2,0,P|289:90|413:142,1,186.666660308838,2|0,0:0|0:0,0:0:0:0:
484,252,6913,6,0,L|500:64,1,186.666660308838,2|0,0:0|0:0,0:0:0:0:
403,124,7770,2,0,L|387:309,1,186.666660308838,2|0,0:0|0:0,0:0:0:0:
300,236,8627,2,0,L|114:251,1,186.666660308838,2|0,0:0|0:0,0:0:0:0:
96,364,9484,2,0,L|281:348,1,186.666660308838,2|0,0:0|0:0,0:0:0:0:
388,304,10341,5,2,0:0:0:0:
432,124,10627,1,0,0:0:0:0:
328,100,10893,1,0,0:0:0:0:
404,16,11178,5,2,0:0:0:0:
84,80,11464,1,0,0:0:0:0:
108,192,11750,1,0,0:0:0:0:
0,156,12035,5,2,0:0:0:0:
200,104,12320,1,0,0:0:0:0:
312,280,12606,1,0,0:0:0:0:
512,228,12892,1,2,0:0:0:0:
512,228,13501,5,0,0:0:0:0:
280,144,13786,1,2,0:0:0:0:
256,32,14072,1,0,0:0:0:0:
368,8,14358,1,0,0:0:0:0:
392,120,14644,6,0,P|383:216|376:316,1,167.999989151001,4|2,0:3|0:0,0:0:0:0:
468,296,15215,1,2,0:0:0:0:
477,204,15358,1,4,0:3:0:0:
304,172,15501,2,0,P|248:163|195:144,1,111.999992767334,8|2,0:0|0:0,0:0:0:0:
0,108,15929,1,2,0:0:0:0:
88,88,16072,1,0,0:0:0:0:
108,176,16215,1,2,0:0:0:0:
20,196,16358,6,0,P|12:284|56:364,1,167.999989151001,4|2,0:3|0:0,0:0:0:0:
204,328,16929,1,2,0:0:0:0:
216,216,17072,1,2,0:0:0:0:
228,104,17215,2,0,L|384:88,1,111.999992767334,8|2,0:0|0:0,0:0:0:0:
504,188,17644,1,2,0:0:0:0:
416,172,17786,1,2,0:0:0:0:
432,84,17929,1,2,0:0:0:0:
444,260,18072,6,0,L|256:279,1,167.999989151001,4|2,0:3|0:0,0:0:0:0:
188,288,18644,1,2,0:0:0:0:
177,200,18786,1,2,0:0:0:0:
345,74,18929,2,0,P|345:146|329:202,1,111.999992767334,8|2,0:0|0:0,0:0:0:0:
288,332,19358,1,2,0:0:0:0:
240,236,19501,1,0,0:0:0:0:
335,184,19644,1,4,0:3:0:0:
380,384,19786,5,4,0:3:0:0:
383,280,19929,2,0,P|317:285|248:304,1,111.999992767334,2|2,0:0|0:0,0:0:0:0:
172,152,20358,1,2,0:0:0:0:
100,208,20501,1,2,0:0:0:0:
16,176,20644,2,0,P|-4:112|8:48,1,111.999992767334,8|2,0:0|0:0,0:0:0:0:
76,16,21072,1,0,0:0:0:0:
160,52,21215,1,2,0:0:0:0:
436,16,21501,6,0,L|424:160,1,111.999992767334,4|0,0:3|0:0,0:0:0:0:
420,248,21929,1,0,0:0:0:0:
316,308,22072,1,2,0:0:0:0:
256,204,22215,1,4,0:3:0:0:
360,144,22358,6,0,L|440:132,1,55.9999963836671,10|0,0:0|0:0,0:0:0:0:
152,144,22644,2,0,L|72:132,1,55.9999963836671,2|0,0:0|0:0,0:0:0:0:
8,120,22929,1,2,0:0:0:0:
92,56,23072,1,0,0:0:0:0:
68,208,23215,5,4,0:3:0:0:
152,144,23358,1,2,0:0:0:0:
152,144,23429,1,0,0:0:0:0:
152,144,23501,1,2,0:0:0:0:
360,144,23644,1,0,0:0:0:0:
504,264,23786,1,2,0:0:0:0:
420,328,23929,1,0,0:0:0:0:
360,240,24072,5,10,0:0:0:0:
444,176,24215,1,0,0:0:0:0:
384,88,24358,1,2,0:0:0:0:
300,152,24501,2,0,B|252:164|248:120|184:132,1,111.999992767334,4|0,0:3|0:0,0:0:0:0:
123,64,24929,6,0,P|100:142|142:212,1,167.999989151001,4|0,0:3|0:0,0:0:0:0:
228,236,25501,1,2,0:0:0:0:
164,336,25644,1,0,0:0:0:0:
68,268,25786,1,10,0:0:0:0:
36,108,25929,1,0,0:0:0:0:
196,76,26072,1,2,0:0:0:0:
252,308,26215,1,0,0:0:0:0:
412,340,26358,1,2,0:0:0:0:
444,180,26501,1,4,0:3:0:0:
284,148,26644,5,0,3:0:0:0:
272,60,26786,1,2,3:2:0:0:
356,92,26929,1,2,3:2:0:0:
240,324,27072,1,0,3:0:0:0:
228,236,27215,1,2,3:2:0:0:
156,292,27357,1,2,3:2:0:0:
312,267,27501,6,0,P|258:153|143:205,1,279.999981918336,0|0,3:0|0:0,0:0:0:0:
20,368,28358,6,0,P|22:282|32:180,1,167.999989151001,4|2,0:3|0:0,0:0:0:0:
142,205,28929,1,2,0:0:0:0:
88,132,29072,1,4,0:3:0:0:
202,137,29215,2,0,P|256:136|340:116,1,111.999992767334,8|2,0:0|0:0,0:0:0:0:
480,80,29644,1,2,0:0:0:0:
420,16,29786,1,0,0:0:0:0:
312,125,29929,1,2,0:0:0:0:
399,251,30072,6,0,P|309:257|228:276,1,167.999989151001,4|2,0:3|0:0,0:0:0:0:
56,260,30643,1,2,0:0:0:0:
248,108,30786,1,2,0:0:0:0:
160,100,30929,2,0,L|148:256,1,111.999992767334,8|2,0:0|0:0,0:0:0:0:
300,360,31358,1,2,0:0:0:0:
256,284,31501,1,2,0:0:0:0:
212,360,31643,1,2,0:0:0:0:
360,211,31786,6,0,L|352:100,1,111.999992767334,4|0,0:3|0:0,0:0:0:0:
212,24,32215,1,2,0:0:0:0:
256,100,32358,1,2,0:0:0:0:
300,24,32500,1,2,0:0:0:0:
351,99,32643,6,0,L|448:112,1,55.9999963836671,8|0,0:0|0:0,0:0:0:0:
161,99,32929,2,0,L|64:112,1,55.9999963836671,2|0,0:0|0:0,0:0:0:0:
256,248,33215,2,0,L|256:192,1,55.9999963836671,2|0,0:0|0:0,0:0:0:0:
343,280,33501,6,0,P|256:339|168:280,1,223.999985534669,4|0,0:0|0:0,0:0:0:0:
168,103,34215,1,0,0:0:0:0:
168,103,34358,2,0,P|255:44|343:103,1,223.999985534669,8|0,0:0|0:0,0:0:0:0:
426,275,35215,2,0,P|432:163|444:52,1,223.999985534669,4|0,0:0|0:0,0:0:0:0:
256,136,36072,2,0,P|267:247|273:359,1,223.999985534669,8|0,0:0|0:0,0:0:0:0:
88,308,36929,5,4,0:0:0:0:
112,204,37215,1,0,0:0:0:0:
216,228,37501,1,0,0:0:0:0:
424,76,37786,5,8,0:0:0:0:
400,180,38072,1,0,0:0:0:0:
296,156,38358,1,0,0:0:0:0:
320,56,38501,1,4,0:0:0:0:
320,56,38643,2,0,P|388:48|440:40,1,111.999992767334,4|0,0:0|0:0,0:0:0:0:
328,260,39215,1,0,0:0:0:0:
328,260,39501,2,0,P|232:248|96:220,1,223.999985534669,8|0,0:0|0:0,0:0:0:0:
32,32,40358,6,0,P|40:124|120:60,1,223.999985534669,4|0,0:0|0:0,0:0:0:0:
196,24,41072,1,4,0:0:0:0:
196,24,41215,2,0,P|276:40|332:40,1,111.999992767334,8|0,0:0|0:0,0:0:0:0:
416,240,41786,1,0,0:0:0:0:
484,168,42072,2,0,P|379:156|319:244,1,223.999985534669,4|0,0:0|0:0,0:0:0:0:
27,168,42929,2,0,P|132:156|192:244,1,223.999985534669,8|0,0:0|0:0,0:0:0:0:
60,348,43786,5,4,0:0:0:0:
96,240,44072,1,0,0:0:0:0:
168,324,44358,1,0,0:0:0:0:
328,108,44643,5,8,0:0:0:0:
220,84,44929,1,0,0:0:0:0:
256,192,45215,1,0,0:0:0:0:
452,300,45358,1,4,0:0:0:0:
452,300,45501,5,4,0:0:0:0:
380,216,45787,1,0,0:0:0:0:
344,324,46073,1,0,0:0:0:0:
132,168,46358,1,10,0:0:0:0:
