osu file format v14

[General]
AudioFilename: caralho.mp3
AudioLeadIn: 0
PreviewTime: 13458
Countdown: 0
SampleSet: Soft
StackLeniency: 0.7
Mode: 0
LetterboxInBreaks: 0
EpilepsyWarning: 1
WidescreenStoryboard: 1

[Editor]
DistanceSpacing: 1
BeatDivisor: 4
GridSize: 4
TimelineZoom: 2.5

[Metadata]
Title:Feliz Pascoa pra todos voces apesar de ninguem ter me mandado chocolates
TitleUnicode:Feliz Páscoa pra todos vocês apesar de ninguém ter me mandado chocolates
Artist:Maffalda
ArtistUnicode:Maffalda
Creator:Nhawak
Version:Chewin's Extra
Source:
Tags:coelhinho dubstep mashup portuguese brazil soundclown galinha pintadinha XinCrin Mao -Bakari- appleeaterx Mira-san Frey Gero Fort -kevincela- sukiNathan Spaghetti Chewin EvilElvis Asphyxia Blue Dragon Irreversible alacat
BeatmapID:765097
BeatmapSetID:336644

[Difficulty]
HPDrainRate:7
CircleSize:4
OverallDifficulty:8
ApproachRate:9.6
SliderMultiplier:1.4
SliderTickRate:1

[Events]
//Background and Video events
0,0,"BG.jpg",0,0
//Break Periods
//Storyboard Layer 0 (Background)
//Storyboard Layer 1 (Fail)
//Storyboard Layer 2 (Pass)
//Storyboard Layer 3 (Foreground)
//Storyboard Sound Samples

[TimingPoints]
15,285.714285714286,4,2,1,60,1,0
15,-133.333333333333,3,2,1,60,0,0
3464,285.714285714286,4,2,1,60,1,0
6035,-200,3,2,1,60,0,0
6913,285.714285714286,4,2,1,60,1,0
6913,-200,3,2,1,60,0,0
10893,285.714285714286,4,2,1,60,1,0
12035,285.714285714286,4,2,1,60,1,0
13501,285.714285714286,4,2,1,60,1,0
13501,-100,3,2,1,60,0,0
14001,-100,3,2,1,5,0,0
14072,-100,3,2,1,60,0,0
14288,-100,3,2,1,5,0,0
14358,-100,3,2,1,60,0,0
14572,-100,3,2,1,5,0,0
14644,285.714285714286,4,2,1,60,1,0
14644,-66.6666666666667,3,2,1,60,0,1
21072,-83.3333333333333,3,2,1,60,0,0
21429,-200,3,2,1,5,0,0
21501,-66.6666666666667,3,2,66,60,0,1
21572,-66.6666666666667,3,2,1,60,0,1
24501,-83.3333333333333,3,2,1,60,0,0
24858,-66.6666666666667,3,2,1,5,0,0
24929,-50,3,2,1,60,0,1
25144,-66.6666666666667,3,2,1,60,0,1
26644,-66.6666666666667,3,2,1,60,0,0
27501,-133.333333333333,3,2,1,60,0,0
28286,-133.333333333333,3,2,1,5,0,1
28358,-66.6666666666667,3,2,1,60,0,1
32644,-100,3,2,1,60,0,1
33501,285.714285714286,4,2,1,60,1,0
33501,-100,3,2,1,60,0,0
37143,-100,3,2,1,5,0,0
37215,-100,3,2,1,60,0,0
37429,-100,3,2,1,5,0,0
37501,-100,3,2,1,60,0,0
37715,-100,3,2,1,5,0,0
37786,-100,3,2,1,60,0,0
38572,-100,3,2,1,5,0,0
38643,-100,3,2,1,60,0,0
44001,-100,3,2,1,5,0,0
44072,-100,3,2,1,60,0,0
44286,-100,3,2,1,5,0,0
44358,-100,3,2,1,60,0,0
44572,-100,3,2,1,5,0,0
44643,-100,3,2,1,60,0,0

[Colours]
Combo1 : 3,252,202
Combo2 : 0,128,192
Combo3 : 248,211,7
Combo4 : 255,40,40

[HitObjects]
152,192,15,37,2,0:0:0:0:
144,87,300,1,0,0:0:0:0:
152,192,586,38,0,L|144:76,1,105.000004005432,2|2,0:0|0:0,0:0:0:0:
256,352,1443,1,0,0:0:0:0:
348,264,1729,5,2,0:0:0:0:
356,159,2015,1,0,0:0:0:0:
348,264,2300,38,0,L|356:148,1,105.000004005432,2|2,0:0|0:0,0:0:0:0:
280,68,2729,6,0,L|276:36,6,26.2500010013581,2|0|2|0|2|0|2,0:0|0:0|0:0|0:0|0:0|0:0|0:0,0:0:0:0:
252,188,3443,37,2,0:0:0:0:
176,260,3749,1,0,0:0:0:0:
88,160,4035,1,0,0:0:0:0:
240,332,4321,5,2,0:0:0:0:
176,260,4606,1,0,0:0:0:0:
348,152,4892,1,0,0:0:0:0:
328,296,5178,37,2,0:0:0:0:
240,332,5464,1,0,0:0:0:0:
176,260,5749,1,0,0:0:0:0:
112,340,6035,6,0,P|84:332|52:296,1,70,2|0,0:0|0:0,0:0:0:0:
400,192,6913,37,2,0:0:0:0:
312,240,7198,1,0,0:0:0:0:
316,144,7484,1,2,0:0:0:0:
400,192,7770,1,2,0:0:0:0:
120,368,8341,1,0,0:0:0:0:
72,276,8627,5,2,0:0:0:0:
184,220,8913,1,0,0:0:0:0:
84,160,9198,1,2,0:0:0:0:
72,276,9484,1,2,0:0:0:0:
440,32,10055,1,0,0:0:0:0:
376,108,10341,37,2,0:0:0:0:
424,192,10627,1,0,0:0:0:0:
328,192,10893,5,0,0:0:0:0:
344,292,11178,1,2,0:0:0:0:
248,256,11464,37,0,0:0:0:0:
204,376,11750,1,0,0:0:0:0:
132,280,12035,5,2,0:0:0:0:
64,216,12320,1,2,0:0:0:0:
200,156,12606,1,2,0:0:0:0:
88,16,12892,1,2,0:0:0:0:
456,192,13501,37,0,0:0:0:0:
456,192,13786,2,0,P|408:200|348:240,1,105
300,160,14072,2,0,P|272:196|260:268,1,105
172,228,14358,2,0,P|168:272|196:336,1,105,2|0,0:0|0:0,0:0:0:0:
256,368,14644,38,0,L|368:360,1,105.000004005432,4|0,0:0|0:0,0:0:0:0:
360,360,14858,1,0,0:0:0:0:
360,360,14929,1,0,0:0:0:0:
468,192,15072,1,0,0:0:0:0:
360,360,15215,1,2,0:0:0:0:
336,24,15358,1,4,0:0:0:0:
144,196,15501,38,0,B|192:176|252:236|332:176,1,157.500006008148,8|0,0:0|0:0,0:0:0:0:
356,148,15786,1,0,0:0:0:0:
168,280,15929,1,0,0:0:0:0:
256,40,16072,1,2,0:0:0:0:
256,352,16215,1,0,0:0:0:0:
188,104,16358,6,0,L|68:96,1,105.000004005432,4|0,0:0|0:0,0:0:0:0:
83,97,16572,1,0,0:0:0:0:
83,97,16644,1,0,0:0:0:0:
324,192,16786,37,0,0:0:0:0:
204,256,16929,1,2,0:0:0:0:
396,288,17072,1,0,0:0:0:0:
128,168,17215,1,8,0:0:0:0:
128,168,17286,1,0,0:0:0:0:
128,168,17358,1,0,0:0:0:0:
256,348,17501,5,0,0:0:0:0:
196,76,17644,1,0,0:0:0:0:
428,184,17786,2,0,L|324:192,1,105.000004005432
28,240,18072,38,0,B|68:212|120:288|196:224,1,157.500006008148,4|0,0:0|0:0,0:0:0:0:
240,192,18358,1,0,0:0:0:0:
352,360,18501,1,0,0:0:0:0:
236,295,18644,2,0,P|232:219|248:171,1,105.000004005432,2|0,0:0|0:0,0:0:0:0:
424,40,18929,1,8,0:0:0:0:
424,40,19001,1,0,0:0:0:0:
424,40,19072,1,0,0:0:0:0:
332,244,19215,5,2,0:0:0:0:
440,192,19358,1,0,0:0:0:0:
344,132,19501,1,2,0:0:0:0:
408,380,19644,1,4,0:0:0:0:
408,380,19715,1,0,0:0:0:0:
408,380,19786,38,0,L|412:260,1,105.000004005432,4|0,0:0|0:0,0:0:0:0:
200,132,20072,2,0,L|196:236,1,105.000004005432
316,172,20358,1,2,0:0:0:0:
76,192,20501,1,0,0:0:0:0:
264,360,20644,2,0,P|284:324|288:244,1,105.000004005432,8|0,0:0|0:0,0:0:0:0:
60,288,20929,1,0,0:0:0:0:
60,288,21001,1,0,0:0:0:0:
60,288,21072,1,0,0:0:0:0:
60,288,21144,1,0,0:0:0:0:
60,288,21215,6,0,B|116:276|140:312|204:272,1,125.999996154785,2|0,0:0|0:0,0:0:0:0:
216,212,21501,38,0,P|272:176|252:268,1,210.000008010865,4|0,0:0|0:0,0:0:0:0:
184,282,21858,1,0,0:0:0:0:
184,282,21929,1,0,0:0:0:0:
168,108,22072,5,0,0:0:0:0:
252,348,22215,1,4,0:0:0:0:
220,28,22358,1,10,0:0:0:0:
252,348,22501,1,0,0:0:0:0:
292,28,22644,1,2,0:0:0:0:
252,348,22786,1,0,0:0:0:0:
344,108,22929,1,2,0:0:0:0:
252,348,23072,1,0,0:0:0:0:
244,152,23215,38,0,L|248:268,1,105.000004005432,6|0,0:0|0:0,0:0:0:0:
247,256,23429,1,0,0:0:0:0:
247,256,23501,1,2,0:0:0:0:
136,100,23644,1,0,0:0:0:0:
384,188,23786,1,0,0:0:0:0:
144,308,23929,5,0,0:0:0:0:
144,308,24001,1,0,0:0:0:0:
144,308,24072,2,0,P|140:232|160:176,1,105.000004005432,10|0,0:0|0:0,0:0:0:0:
456,248,24358,1,2,0:0:0:0:
247,256,24501,38,0,B|303:240|339:288|431:248,1,167.999994873047,4|0,0:0|0:0,0:0:0:0:
456,248,24858,1,0,0:0:0:0:
452,224,24929,2,0,P|424:216|468:264,1,210,4|0,0:0|0:0,0:0:0:0:
428,256,25215,2,0,L|420:120,1,105.000004005432
176,176,25501,5,2,0:0:0:0:
247,256,25644,1,0,0:0:0:0:
272,112,25786,1,10,0:0:0:0:
272,112,25858,1,0,0:0:0:0:
272,112,25929,1,0,0:0:0:0:
256,352,26072,1,2,0:0:0:0:
216,32,26215,1,0,0:0:0:0:
456,192,26358,37,2,0:0:0:0:
351,198,26501,2,0,L|456:192,1,105.000004005432
256,352,26786,1,0,0:0:0:0:
36,276,26929,2,0,P|32:216|40:168,1,105.000004005432
229,91,27215,2,0,P|236:143|231:196,1,105.000004005432
128,192,27501,6,0,P|196:180|116:224,1,288.750011014939
40,172,28358,6,0,L|52:32,1,105.000004005432,4|0,0:0|0:0,0:0:0:0:
376,192,28644,1,0,0:0:0:0:
268,248,28786,2,0,P|260:180|280:120,1,105.000004005432
412,64,29072,1,0,0:0:0:0:
320,320,29215,6,0,B|264:364|196:288|136:352,1,157.500006008148,8|0,0:0|0:0,0:0:0:0:
167,330,29501,1,0,0:0:0:0:
36,192,29644,1,0,0:0:0:0:
152,112,29786,2,0,L|146:216,1,105.000004005432
104,24,30072,1,4,0:0:0:0:
268,145,30215,1,0,0:0:0:0:
288,144,30286,1,0,0:0:0:0:
308,144,30358,1,0,0:0:0:0:
416,32,30501,37,0,0:0:0:0:
424,256,30644,1,0,0:0:0:0:
268,145,30786,1,0,0:0:0:0:
504,140,30929,2,0,L|320:144,1,157.500006008148,8|0,0:0|0:0,0:0:0:0:
268,145,31215,6,0,P|260:84|272:36,1,105.000004005432
424,256,31501,2,0,P|432:320|424:372,1,105.000004005432
144,308,31786,38,0,B|192:326|236:298|300:306,1,157.500006008148
340,308,32072,1,0,0:0:0:0:
184,120,32215,1,0,0:0:0:0:
184,120,32286,1,0,0:0:0:0:
184,120,32358,2,0,P|180:188|188:232,1,105.000004005432,2|0,0:0|0:0,0:0:0:0:
456,140,32644,6,0,P|460:72|452:28,1,105.000004005432,2|0,0:0|0:0,0:0:0:0:
444,160,32929,6,0,P|434:92|418:50,1,105.000004005432,2|0,0:0|0:0,0:0:0:0:
432,180,33215,6,0,P|412:114|388:76,1,105,2|0,0:0|0:0,0:0:0:0:
408,196,33501,21,4,0:0:0:0:
48,72,33786,1,0,0:0:0:0:
16,312,34072,1,2,0:0:0:0:
104,252,34215,37,4,0:0:0:0:
104,252,34286,1,0,0:0:0:0:
104,252,34358,2,0,P|152:264|228:336,1,140,10|0,0:0|0:0,0:0:0:0:
456,192,34929,1,0,0:0:0:0:
392,336,35215,5,6,0:0:0:0:
256,44,35786,1,0,0:0:0:0:
200,132,36072,2,0,P|152:136|64:88,1,140,10|0,0:0|0:0,0:0:0:0:
260,224,36643,1,0,0:0:0:0:
316,128,36929,38,0,P|356:120|432:140,1,105,6|0,0:0|0:0,0:0:0:0:
480,184,37215,2,0,P|492:224|488:296,1,105
444,352,37501,2,0,L|328:360,1,105
264,332,37786,5,10,0:0:0:0:
48,136,38072,1,0,0:0:0:0:
48,372,38358,1,0,0:0:0:0:
148,276,38501,37,4,0:0:0:0:
148,276,38572,1,0,0:0:0:0:
148,276,38643,2,0,L|164:128,1,140,6|0,0:0|0:0,0:0:0:0:
16,256,39215,1,0,0:0:0:0:
256,116,39501,1,10,0:0:0:0:
256,368,39786,1,0,0:0:0:0:
256,368,40358,5,6,0:0:0:0:
464,312,40643,1,0,0:0:0:0:
496,72,40929,1,0,0:0:0:0:
408,132,41072,37,4,0:0:0:0:
408,132,41143,1,0,0:0:0:0:
408,132,41215,2,0,P|360:120|284:48,1,140,10|0,0:0|0:0,0:0:0:0:
56,192,41786,1,0,0:0:0:0:
120,48,42072,5,6,0:0:0:0:
256,340,42643,1,0,0:0:0:0:
312,252,42930,2,0,P|360:248|448:296,1,140,10|0,0:0|0:0,0:0:0:0:
252,160,43502,1,0,0:0:0:0:
196,256,43786,38,0,P|156:264|80:244,1,105,6|0,0:0|0:0,0:0:0:0:
32,200,44072,2,0,P|20:160|24:88,1,105
68,32,44358,2,0,L|184:24,1,105
248,52,44643,5,10,0:0:0:0:
464,248,44929,1,0,0:0:0:0:
464,12,45215,1,0,0:0:0:0:
364,108,45358,37,4,0:0:0:0:
364,108,45429,1,0,0:0:0:0:
364,108,45501,2,0,L|348:256,1,140,6|0,0:0|0:0,0:0:0:0:
496,128,46072,1,0,0:0:0:0:
256,268,46358,5,10,0:0:0:0:
248,252,46429,37,0,0:0:0:0:
