osu file format v14

[General]
AudioFilename: caralho.mp3
AudioLeadIn: 0
PreviewTime: 13458
Countdown: 0
SampleSet: Soft
StackLeniency: 0.7
Mode: 0
LetterboxInBreaks: 0
EpilepsyWarning: 1
WidescreenStoryboard: 1

[Editor]
DistanceSpacing: 0.8
BeatDivisor: 12
GridSize: 4
TimelineZoom: 1.3

[Metadata]
Title:Feliz Pascoa pra todos voces apesar de ninguem ter me mandado chocolates
TitleUnicode:Feliz Páscoa pra todos vocês apesar de ninguém ter me mandado chocolates
Artist:Maffalda
ArtistUnicode:Maffalda
Creator:Nhawak
Version:Asphyxia's Ultra
Source:
Tags:coelhinho dubstep mashup portuguese brazil soundclown galinha pintadinha XinCrin Mao -Bakari- appleeaterx Mira-san Frey Gero Fort -kevincela- sukiNathan Spaghetti Chewin EvilElvis Asphyxia Blue Dragon Irreversible alacat
BeatmapID:768358
BeatmapSetID:336644

[Difficulty]
HPDrainRate:6
CircleSize:4.2
OverallDifficulty:9
ApproachRate:9.5
SliderMultiplier:3.4
SliderTickRate:1

[Events]
//Background and Video events
0,0,"BG.jpg",0,0
//Break Periods
//Storyboard Layer 0 (Background)
//Storyboard Layer 1 (Fail)
//Storyboard Layer 2 (Pass)
//Storyboard Layer 3 (Foreground)
//Storyboard Sound Samples

[TimingPoints]
15,857.142857142857,4,2,1,60,1,0
15,-103.092783505155,4,2,1,60,0,0
3464,857.142857142857,4,2,1,60,1,0
6913,857.142857142857,4,2,1,60,1,0
6913,-103.092783505155,4,2,1,60,0,0
10893,857.142857142857,4,2,1,60,1,0
12035,857.142857142857,4,2,1,60,1,0
13501,857.142857142857,4,2,1,60,1,0
13501,-78.7401574803149,4,2,1,60,0,0
14001,-78.7401574803149,4,2,1,5,0,0
14072,-78.7401574803149,4,2,1,60,0,0
14286,-78.7401574803149,4,2,1,5,0,0
14358,-78.7401574803149,4,2,1,60,0,0
14572,-78.7401574803149,4,2,1,5,0,0
14644,857.142857142857,4,2,1,60,1,0
14644,-51.2820512820513,4,2,1,60,0,1
21072,-133.333333333333,4,2,1,60,0,0
21429,-133.333333333333,4,2,1,5,0,0
21501,-51.2820512820513,4,2,66,60,0,1
21572,-51.2820512820513,4,2,1,60,0,1
24501,-133.333333333333,4,2,1,60,0,0
24858,-133.333333333333,4,2,1,5,0,0
24929,-51.2820512820513,4,2,1,60,0,1
26644,-51.2820512820513,4,2,1,60,0,0
27501,-78.7401574803149,4,2,1,60,0,0
28286,-78.7401574803149,4,2,1,5,0,0
28358,-51.2820512820513,4,2,1,60,0,1
32643,-66.6666666666667,4,2,1,60,0,1
32929,-83.3333333333333,4,2,1,60,0,1
33215,-111.111111111111,4,2,1,60,0,1
33501,857.142857142857,4,2,1,60,1,0
33501,-78.7401574803149,4,2,1,60,0,0

[Colours]
Combo1 : 255,40,40
Combo2 : 0,128,192
Combo3 : 248,211,7

[HitObjects]
68,121,15,6,0,B|116:91|173:121|173:121|227:149|276:112,1,219.86667186676,2|2,0:0|0:0,0:0:0:0:
302,29,872,2,0,P|342:51|308:192,1,219.86667186676,2|2,0:0|0:0,0:0:0:0:
236,241,1729,2,0,P|335:210|392:308,1,219.86667186676,2|2,0:0|0:0,0:0:0:0:
307,301,2586,1,2,0:0:0:0:
307,301,2729,2,0,L|313:340,5,27.6249987354279
307,301,3157,2,0,P|274:327|252:334,1,55.2499974708558,2|0,0:0|0:0,0:0:0:0:
351,221,3443,5,2,0:0:0:0:
416,280,3749,1,2,0:0:0:0:
307,301,4035,1,2,0:0:0:0:
325,126,4321,1,2,0:0:0:0:
416,280,4606,1,2,0:0:0:0:
254,207,4892,1,2,0:0:0:0:
425,170,5178,5,2,0:0:0:0:
416,280,5464,1,2,0:0:0:0:
254,207,5749,1,2,0:0:0:0:
425,170,6035,1,2,0:0:0:0:
425,170,6913,6,0,B|392:181|359:159|359:159|323:221|253:206|253:206|243:221|228:224,1,219.86667186676,2|2,0:0|0:0,0:0:0:0:
164,278,7770,2,0,P|96:293|112:176,1,219.86667186676,2|2,0:0|0:0,0:0:0:0:
172,127,8627,2,0,P|105:81|108:183,1,219.86667186676,2|2,0:0|0:0,0:0:0:0:
177,214,9484,2,0,P|251:170|163:130,1,219.86667186676,2|2,0:0|0:0,0:0:0:0:
119,344,10341,5,2,0:0:0:0:
202,315,10627,1,2,0:0:0:0:
276,362,10893,1,2,0:0:0:0:
359,333,11178,1,2,0:0:0:0:
289,278,11464,1,2,0:0:0:0:
359,333,11750,1,2,0:0:0:0:
202,315,12035,5,2,0:0:0:0:
374,237,12320,1,2,0:0:0:0:
202,315,12606,1,2,0:0:0:0:
396,102,12892,1,2,0:0:0:0:
396,102,13501,1,0,0:0:0:0:
303,124,13786,6,0,P|245:131|183:88,1,108.375002067089
202,110,14072,2,0,L|188:229,1,108.375002067089
189,218,14358,2,0,P|136:252|76:242,1,108.375002067089
92,249,14644,6,0,P|125:286|47:257,1,220.999989883423,4|0,1:0|0:0,0:0:0:0:
210,21,15073,1,2,0:0:0:0:
239,300,15216,1,2,0:0:0:0:
49,172,15359,1,2,0:3:0:0:
400,222,15502,6,0,B|355:252|294:220|294:220|239:192|184:220,1,220.999989883423,8|0,0:0|0:0,0:0:0:0:
210,21,15930,1,2,0:0:0:0:
239,300,16073,1,2,0:0:0:0:
214,36,16216,1,2,0:0:0:0:
0,293,16359,6,0,P|42:254|122:260,1,110.499994941712,2|0,0:3|0:0,0:0:0:0:
239,300,16644,1,0,0:0:0:0:
208,6,16786,1,2,0:0:0:0:
334,335,16929,1,2,0:0:0:0:
304,70,17072,1,2,0:0:0:0:
426,363,17216,6,0,B|443:318|407:266|407:266|366:211|395:151,1,220.999989883423,8|2,0:0|0:0,0:0:0:0:
140,265,17644,2,0,L|79:279,1,55.2499974708558,2|0,0:0|0:0,0:0:0:0:
223,145,17786,2,0,L|284:159,1,55.2499974708558,2|0,0:0|0:0,0:0:0:0:
153,337,17929,2,0,L|92:351,1,55.2499974708558,2|0,0:0|0:0,0:0:0:0:
251,77,18072,6,0,L|378:110,1,110.499994941712,2|0,0:3|0:0,0:0:0:0:
239,300,18358,1,0,0:0:0:0:
208,6,18501,1,2,0:0:0:0:
436,142,18644,1,2,0:0:0:0:
125,175,18786,1,2,0:0:0:0:
296,365,18929,6,0,B|275:312|275:312|291:257,1,110.499994941712,8|0,0:0|0:0,0:0:0:0:
443,37,19215,2,0,B|457:88|457:88|436:141,1,110.499994941712,2|2,0:0|0:0,0:0:0:0:
125,175,19501,1,0,0:0:0:0:
406,218,19644,1,2,0:3:0:0:
170,87,19786,6,0,L|206:325,1,220.999989883423,8|0,0:3|0:0,0:0:0:0:
480,185,20215,1,2,0:0:0:0:
133,269,20358,2,0,P|166:235|235:232,1,110.499994941712,2|2,0:0|0:0,0:0:0:0:
319,289,20644,2,0,P|275:255|360:265,1,220.999989883423,8|2,0:0|0:0,0:0:0:0:
238,151,21072,6,0,P|287:124|344:123,1,106.25
388,140,21501,6,0,P|360:95|448:122,1,220.999989883423,4|0,0:0|0:0,0:0:0:0:
206,261,21929,1,2,0:0:0:0:
189,258,22001,1,0,0:0:0:0:
172,256,22072,5,2,0:0:0:0:
426,218,22215,1,2,0:3:0:0:
173,342,22358,1,8,0:0:0:0:
261,50,22501,1,2,0:0:0:0:
319,306,22644,1,2,0:0:0:0:
68,230,22786,1,2,0:0:0:0:
362,161,22929,1,2,0:0:0:0:
111,83,23072,1,2,0:0:0:0:
319,306,23215,1,2,0:3:0:0:
411,93,23358,5,2,0:0:0:0:
411,93,23429,1,0,0:0:0:0:
411,93,23501,1,2,0:0:0:0:
226,197,23644,1,2,0:0:0:0:
493,275,23786,1,2,0:0:0:0:
453,26,23929,1,2,0:0:0:0:
226,197,24072,1,8,0:0:0:0:
498,141,24215,1,2,0:0:0:0:
265,8,24358,1,2,0:0:0:0:
185,349,24502,6,0,P|213:332|290:332,1,106.25,6|0,0:3|0:0,0:0:0:0:
277,303,24930,6,0,B|291:234|226:197|226:197|281:205|314:157,1,220.999989883423,4|0,0:0|0:0,0:0:0:0:
257,39,25359,2,0,L|247:97,1,55.2499974708558
242,122,25502,5,2,0:0:0:0:
472,82,25645,1,2,0:0:0:0:
227,208,25786,1,8,0:0:0:0:
456,168,25929,1,2,0:0:0:0:
218,295,26072,1,2,0:0:0:0:
438,255,26215,1,2,0:0:0:0:
204,379,26358,1,2,0:0:0:0:
338,187,26501,1,2,0:3:0:0:
158,156,26644,5,4,0:0:0:0:
242,122,26786,1,0,0:0:0:0:
227,208,26929,1,0,0:0:0:0:
0,183,27072,5,0,0:0:0:0:
69,133,27215,1,0,0:0:0:0:
84,217,27358,1,0,0:0:0:0:
242,122,27501,6,0,B|189:105|158:156|158:156|120:108|69:133|69:133|120:81|107:32|58:13|5:45|19:96|64:96,1,395.816663646825,4|0,0:0|0:0,0:0:0:0:
84,217,28358,6,0,P|106:172|68:133,1,110.499994941712,4|0,0:0|0:0,0:0:0:0:
134,320,28644,1,0,0:0:0:0:
242,122,28786,1,2,0:0:0:0:
265,379,28929,2,0,L|254:258,1,110.499994941712,2|2,0:0|0:3,0:0:0:0:
459,125,29215,6,0,B|382:134|382:134|310:114|310:114|238:122,1,220.999989883423,8|2,0:0|0:0,0:0:0:0:
399,7,29644,1,2,0:0:0:0:
511,195,29786,1,2,0:0:0:0:
241,121,29929,1,2,0:0:0:0:
24,118,30072,6,0,B|92:110|92:110|164:130|164:130|241:121,1,220.999989883423,2|0,0:3|0:0,0:0:0:0:
134,320,30501,1,2,0:0:0:0:
305,71,30643,2,0,P|261:44|203:50,1,110.499994941712,2|2,0:0|0:0,0:0:0:0:
82,278,30929,6,0,P|40:328|129:304,1,220.999989883423,8|2,0:0|0:0,0:0:0:0:
384,230,31358,1,2,0:0:0:0:
334,229,31430,1,0,0:0:0:0:
288,206,31502,1,2,0:0:0:0:
255,169,31572,1,0,0:0:0:0:
241,120,31643,1,2,0:0:0:0:
246,70,31715,1,0,0:0:0:0:
273,27,31786,5,2,0:3:0:0:
251,299,31929,1,0,0:0:0:0:
273,27,32072,1,0,0:0:0:0:
466,209,32215,1,2,0:0:0:0:
165,288,32358,1,2,0:0:0:0:
361,109,32501,1,2,0:0:0:0:
125,209,32643,6,0,P|70:214|3:173,1,127.5,8|0,0:0|0:0,0:0:0:0:
121,185,32929,6,0,P|67:189|20:156,1,102,4|0,0:0|0:0,0:0:0:0:
116,161,33215,6,0,P|71:164|40:143,1,76.4999976654053,2|0,0:0|0:0,0:0:0:0:
92,97,33501,5,6,0:0:0:0:
193,36,33858,1,2,0:0:0:0:
291,93,34072,1,2,0:0:0:0:
291,93,34215,1,2,0:3:0:0:
400,58,34358,5,8,0:0:0:0:
466,150,34643,1,2,0:0:0:0:
400,243,34929,1,2,0:0:0:0:
291,206,35215,1,2,0:0:0:0:
191,265,35501,1,2,0:0:0:0:
291,206,35786,1,2,0:0:0:0:
189,150,36072,5,8,0:0:0:0:
193,374,36358,1,2,0:0:0:0:
291,206,36643,1,2,0:0:0:0:
103,92,36929,1,2,0:3:0:0:
319,0,37215,1,2,0:0:0:0:
291,206,37501,1,2,0:0:0:0:
103,92,37787,5,8,0:0:0:0:
319,0,38072,1,2,0:0:0:0:
291,206,38357,1,2,0:0:0:0:
199,152,38500,1,2,0:3:0:0:
199,152,38643,1,2,0:0:0:0:
375,256,38929,1,2,0:0:0:0:
383,140,39215,1,0,0:0:0:0:
204,263,39501,5,6,0:0:0:0:
412,344,40358,1,2,0:0:0:0:
369,236,40644,1,2,0:0:0:0:
481,260,40929,1,2,0:0:0:0:
481,260,41072,1,2,0:3:0:0:
412,344,41216,6,0,B|339:295|262:329|262:329|200:358|136:323,1,287.866664470418,8|2,0:0|0:0,0:0:0:0:
369,236,42072,1,2,0:0:0:0:
413,345,42358,2,0,P|367:235|484:272,1,287.866664470418,2|2,0:0|0:0,0:0:0:0:
417,279,43216,1,2,0:0:0:0:
256,112,43502,1,2,0:0:0:0:
95,279,43786,5,0,0:0:0:0:
334,191,44072,1,2,0:0:0:0:
178,191,44358,1,2,0:0:0:0:
390,58,44644,1,8,0:0:0:0:
122,58,44929,1,2,0:0:0:0:
256,292,45215,1,2,0:0:0:0:
256,292,45358,1,2,0:3:0:0:
256,112,45501,5,2,0:0:0:0:
73,230,45786,1,2,0:0:0:0:
439,230,46072,1,2,0:0:0:0:
256,16,46358,1,12,0:0:0:0:
256,192,46429,12,0,48929,0:0:0:0:
