osu file format v14

[General]
AudioFilename: caralho.mp3
AudioLeadIn: 0
PreviewTime: 13458
Countdown: 0
SampleSet: None
StackLeniency: 0.7
Mode: 0
LetterboxInBreaks: 0
EpilepsyWarning: 1
WidescreenStoryboard: 1

[Editor]
DistanceSpacing: 1.4
BeatDivisor: 6
GridSize: 4
TimelineZoom: 1.8

[Metadata]
Title:Feliz Pascoa pra todos voces apesar de ninguem ter me mandado chocolates
TitleUnicode:Feliz Páscoa pra todos vocês apesar de ninguém ter me mandado chocolates
Artist:Maffalda
ArtistUnicode:Maffalda
Creator:Nhawak
Version:Alphabet's Hard
Source:
Tags:coelhinho dubstep mashup portuguese brazil soundclown galinha pintadinha XinCrin Mao -Bakari- appleeaterx Mira-san Frey Gero Fort -kevincela- sukiNathan Spaghetti Chewin EvilElvis Asphyxia Blue Dragon Irreversible alacat
BeatmapID:1186570
BeatmapSetID:336644

[Difficulty]
HPDrainRate:5
CircleSize:4
OverallDifficulty:6
ApproachRate:7.5
SliderMultiplier:3.1
SliderTickRate:1

[Events]
//Background and Video events
0,0,"BG.jpg",0,0
//Break Periods
//Storyboard Layer 0 (Background)
//Storyboard Layer 1 (Fail)
//Storyboard Layer 2 (Pass)
//Storyboard Layer 3 (Foreground)
//Storyboard Sound Samples

[TimingPoints]
15,857.142857142857,4,2,1,60,1,0
15,-100,4,2,1,60,0,0
3464,857.142857142857,4,2,1,60,1,0
3464,-100,4,2,1,60,0,0
6035,-125,4,2,1,60,0,0
6913,857.142857142857,4,2,1,60,1,0
6913,-100,4,2,1,60,0,0
10893,857.142857142857,4,2,1,60,1,0
10893,-100,4,2,1,60,0,0
12035,857.142857142857,4,2,1,60,1,0
12035,-90.9090909090909,4,2,1,60,0,0
12249,-90.9090909090909,4,2,1,5,0,0
12320,-90.9090909090909,4,2,1,60,0,0
13501,857.142857142857,4,2,1,60,1,0
13501,-125,4,2,1,60,0,0
13715,-125,4,2,1,5,0,0
13786,-125,4,2,1,60,0,0
14644,857.142857142857,4,3,1,60,1,0
14644,-83.3333333333333,4,2,8,60,0,0
15072,-83.3333333333333,4,3,1,60,0,0
15501,-83.3333333333333,4,2,8,60,0,0
15786,-83.3333333333333,4,3,1,60,0,0
16786,-83.3333333333333,4,3,1,60,0,0
17215,-83.3333333333333,4,2,8,60,0,0
17644,-83.3333333333333,4,3,1,60,0,0
18501,-83.3333333333333,4,3,1,60,0,0
18929,-83.3333333333333,4,2,8,60,0,0
19215,-83.3333333333333,4,3,1,60,0,0
19786,-83.3333333333333,4,3,1,60,0,0
20644,-83.3333333333333,4,2,8,60,0,0
21072,-100,4,3,1,60,0,0
21501,-76.9230769230769,4,2,66,60,0,1
21786,-76.9230769230769,4,2,8,60,0,1
24501,-76.9230769230769,4,3,1,60,0,1
24929,-76.9230769230769,4,2,8,60,0,1
26644,-76.9230769230769,4,3,1,60,0,1
28358,-83.3333333333333,4,2,8,60,0,1
28786,-83.3333333333333,4,3,1,60,0,1
29215,-83.3333333333333,4,2,8,60,0,1
29501,-83.3333333333333,4,3,1,60,0,1
30501,-83.3333333333333,4,3,1,60,0,1
30929,-83.3333333333333,4,2,8,60,0,1
31358,-83.3333333333333,4,3,1,60,0,1
32215,-83.3333333333333,4,3,1,60,0,1
32858,-83.3333333333333,4,3,1,5,0,1
32929,-90.9090909090909,4,3,1,60,0,1
33501,857.142857142857,4,3,1,60,1,0
33501,-100,4,2,8,60,0,0
39501,-125,4,2,8,60,0,0
40358,-100,4,2,8,60,0,0

[Colours]
Combo1 : 255,40,40
Combo2 : 0,128,192
Combo3 : 248,211,7

[HitObjects]
360,296,15,6,0,P|408:268|416:196,2,103.333333333333,2|0|0,0:0|0:0|0:0,0:0:0:0:
236,296,872,2,0,P|188:268|180:196,2,103.333333333333,2|0|0,0:0|0:0|0:0,0:0:0:0:
300,188,1729,6,0,B|300:60|300:60|376:132,1,206.666666666667,2|0,0:0|0:0,0:0:0:0:
360,240,2586,2,0,B|360:368|360:368|284:296,1,206.666666666667,2|0,0:0|0:0,0:0:0:0:
176,272,3464,5,2,0:0:0:0:
68,336,3749,1,0,0:0:0:0:
108,220,4035,1,0,0:0:0:0:
216,160,4321,2,0,L|344:168,2,103.333333333333,2|0|0,0:0|0:0|0:0,0:0:0:0:
124,80,5178,5,2,0:0:0:0:
240,36,5464,1,0,0:0:0:0:
356,80,5749,1,0,0:0:0:0:
472,124,6035,2,0,P|488:208|384:236,1,206.666666666667,2|0,0:0|0:0,0:0:0:0:
332,196,6913,6,0,P|276:168|212:180,1,103.333333333333,2|0,0:0|0:0,0:0:0:0:
236,170,7484,1,0,0:0:0:0:
152,260,7770,2,0,P|96:288|32:276,1,103.333333333333,2|0,0:0|0:0,0:0:0:0:
56,286,8341,1,0,0:0:0:0:
0,176,8627,6,0,P|-12:120|120:72,1,206.666666666667,2|0,0:0|0:0,0:0:0:0:
208,124,9484,2,0,B|256:156|316:136|316:136|368:120|428:144,1,206.666666666667,2|0,0:0|0:0,0:0:0:0:
480,236,10341,5,2,0:0:0:0:
388,320,10627,1,0,0:0:0:0:
308,224,10893,1,0,0:0:0:0:
296,236,11178,2,0,L|176:240,2,103.333333333333,2|0|0,0:0|0:0|0:0,0:0:0:0:
412,164,12035,6,0,P|432:120|416:64,1,85.2500026016236,2|0,0:0|0:0,0:0:0:0:
408,56,12320,2,0,P|380:24|272:24,2,113.666670135498,2|2|2,0:0|0:0|0:0,0:0:0:0:
320,248,13501,6,0,L|244:252,1,62,2|0,0:0|0:0,0:0:0:0:
232,252,13786,2,0,B|168:256|168:256|188:236,2,82.6666666666667,2|2|2,0:0|0:0|0:0,0:0:0:0:
364,324,14644,6,0,P|400:280|380:184,1,124,12|0,0:0|0:0,0:0:0:0:
348,160,15072,1,2,0:0:0:0:
308,100,15215,2,0,P|300:68|320:16,2,61.9999981079102,2|0|8,0:0|0:0|0:0,0:0:0:0:
464,144,15786,2,0,P|464:192|444:224,1,61.9999981079102,2|2,0:0|0:0,0:0:0:0:
400,248,16072,2,0,P|400:296|420:328,1,61.9999981079102,2|2,0:0|0:0,0:0:0:0:
312,256,16358,6,0,B|256:240|256:240|172:260,1,123.99999621582
124,288,16786,1,2,0:0:0:0:
52,264,16929,1,2,0:0:0:0:
20,196,17072,1,2,0:0:0:0:
60,132,17215,2,0,L|192:136,1,123.99999621582,8|0,0:0|0:0,0:0:0:0:
256,116,17644,2,0,L|248:72,2,30.9999990539551,2|2|2,0:0|0:0|0:0,0:0:0:0:
316,160,17929,1,2,0:0:0:0:
288,252,18072,6,0,B|248:244|248:244|144:256,1,123.99999621582
108,304,18501,2,0,P|88:252|104:208,1,61.9999981079102,2|2,0:0|0:0,0:0:0:0:
120,180,18786,1,2,0:0:0:0:
184,108,18929,2,0,P|128:88|56:108,2,123.99999621582,8|2|0,0:0|0:0|0:0,0:0:0:0:
248,160,19644,1,0,0:0:0:0:
248,160,19786,6,0,P|280:176|356:164,1,61.9999981079102,2|2,0:0|0:0,0:0:0:0:
448,132,20215,1,2,0:0:0:0:
476,200,20358,1,2,0:0:0:0:
464,272,20501,1,2,0:0:0:0:
416,328,20644,6,0,P|372:332|332:312,1,61.9999981079102,8|0,0:0|0:0,0:0:0:0:
300,280,20929,1,0,0:0:0:0:
232,304,21072,6,0,L|148:312,1,51.6666666666667,2|0,0:0|0:0,0:0:0:0:
168,168,21501,6,0,P|180:120|124:44,1,134.333327184042,4|0,0:0|0:0,0:0:0:0:
40,116,22072,2,0,L|128:124,1,67.1666635920208,2|0,0:0|0:0,0:0:0:0:
168,176,22358,2,0,L|234:169,1,67.1666635920208,8|0,0:0|0:0,0:0:0:0:
352,232,22644,2,0,P|308:224|248:240,1,67.1666635920208,2|0,0:0|0:0,0:0:0:0:
216,268,22929,2,0,P|172:276|112:260,1,67.1666635920208,2|0,0:0|0:0,0:0:0:0:
76,240,23215,5,0,0:0:0:0:
52,164,23358,2,0,L|0:168,2,33.5833317960104,2|2|2,0:0|0:0|0:0,0:0:0:0:
104,104,23644,1,2,0:0:0:0:
167,174,23786,2,0,L|271:166,1,67.1666635920208,2|0,0:0|0:0,0:0:0:0:
308,136,24072,1,10,0:0:0:0:
380,176,24215,2,0,L|400:256,1,67.1666635920208
364,316,24501,6,0,P|324:324|276:320,1,67.1666635920208,2|0,0:0|0:0,0:0:0:0:
132,244,24929,6,0,P|116:192|148:104,1,134.333327184042
220,68,25358,1,0,0:0:0:0:
304,112,25501,2,0,P|344:120|404:104,1,67.1666635920208,2|0,0:0|0:0,0:0:0:0:
452,68,25786,2,0,P|444:108|460:168,1,67.1666635920208,10|0,0:0|0:0,0:0:0:0:
488,220,26072,2,0,L|384:228,1,67.1666635920208,2|0,0:0|0:0,0:0:0:0:
340,276,26358,2,0,L|273:270,1,67.1666635920208,2|0,0:0|0:0,0:0:0:0:
188,228,26644,5,2,0:0:0:0:
128,300,26786,1,2,0:0:0:0:
96,212,26929,2,0,L|112:124,1,67.1666635920208,2|2,0:0|0:0,0:0:0:0:
128,52,27215,1,2,0:0:0:0:
208,104,27358,1,2,0:0:0:0:
276,40,27501,2,2,B|312:16|348:32|348:32|400:60|456:32|456:32|496:68|472:116,1,268.666654368083
416,252,28358,6,0,P|352:264|292:224,1,123.99999621582,4|0,0:0|0:0,0:0:0:0:
252,172,28786,1,2,0:0:0:0:
204,236,28929,2,0,L|216:296,1,61.9999981079102,2|0,0:0|0:0,0:0:0:0:
160,352,29215,2,0,P|100:364|40:324,1,123.99999621582,8|2,0:0|0:0,0:0:0:0:
12,260,29644,2,0,P|4:224|16:184,1,61.9999981079102,2|2,0:0|0:0,0:0:0:0:
56,136,29929,1,2,0:0:0:0:
132,112,30072,6,0,L|224:116,1,61.9999981079102
348,60,30501,2,0,B|380:56|380:56|448:68,2,61.9999981079102,2|2|2,0:0|0:0|0:0,0:0:0:0:
284,112,30929,2,0,L|288:236,1,123.99999621582,8|0,0:0|0:0,0:0:0:0:
328,308,31358,2,0,L|372:324,2,30.9999990539551,2|2|2,0:0|0:0|0:0,0:0:0:0:
248,308,31643,1,2,0:0:0:0:
156,248,31786,6,0,P|172:288|140:372,1,123.99999621582,0|2,0:0|0:0,0:0:0:0:
68,364,32215,2,0,P|52:320|60:272,1,61.9999981079102,2|2,0:0|0:0,0:0:0:0:
72,228,32501,1,2,0:0:0:0:
28,160,32643,2,2,P|16:132|44:64,1,92.9999971618653
68,60,32929,2,2,L|184:52,1,113.666670135498
316,44,33501,6,0,P|300:88|348:172,1,103.333333333333,6|0,0:0|0:0,0:0:0:0:
436,192,34072,1,2,0:0:0:0:
476,252,34215,1,0,0:0:0:0:
448,320,34358,2,0,L|324:324,1,103.333333333333,8|0,0:0|0:0,0:0:0:0:
236,240,34929,1,2,0:0:0:0:
132,324,35215,6,0,P|68:336|0:312,1,103.333333333333,2|0,0:0|0:0,0:0:0:0:
76,200,35786,1,2,0:0:0:0:
184,120,36072,1,8,0:0:0:0:
60,68,36358,1,0,0:0:0:0:
76,200,36643,1,2,0:0:0:0:
192,268,36929,6,0,P|260:284|320:256,2,103.333333333333,2|0|0,0:0|0:0|0:0,0:0:0:0:
192,132,37786,2,0,P|260:116|320:144,2,103.333333333333,10|0|0,0:0|0:0|0:0,0:0:0:0:
136,180,38501,1,0,0:0:0:0:
100,244,38643,5,2,0:0:0:0:
240,280,38929,1,0,0:0:0:0:
84,284,39215,1,2,0:0:0:0:
236,320,39501,2,0,B|264:308|288:312|288:312|344:336|400:304,1,165.333333333333,8|0,0:0|0:0,0:0:0:0:
432,168,40358,6,0,P|408:116|272:100,1,206.666666666667,4|2,0:0|0:0,0:0:0:0:
220,148,41072,1,0,0:0:0:0:
160,192,41215,2,0,B|96:200|96:200|152:136|100:56,1,206.666666666667,8|2,0:0|0:0,0:0:0:0:
24,188,42072,6,0,B|16:244|80:276|80:276|200:260,1,206.666666666667,2|2,0:0|0:0,0:0:0:0:
312,220,42929,2,0,B|364:196|412:228|412:228|460:196|520:220,1,206.666666666667,8|0,0:0|0:0,0:0:0:0:
464,352,43786,6,0,P|392:364|336:340,1,103.333333333333,2|0,0:0|0:0,0:0:0:0:
256,296,44358,1,2,0:0:0:0:
140,336,44643,1,10,0:0:0:0:
124,320,44929,2,0,L|128:200,1,103.333333333333,0|2,0:0|0:0,0:0:0:0:
128,144,45358,1,0,0:0:0:0:
132,72,45501,5,2,0:0:0:0:
312,136,45786,1,2,0:0:0:0:
60,180,46072,1,2,0:0:0:0:
276,240,46358,6,0,L|352:256,1,51.6666666666667,12|0,0:0|0:0,0:0:0:0:
