osu file format v14

[General]
AudioFilename: caralho.mp3
AudioLeadIn: 0
PreviewTime: 14644
Countdown: 0
SampleSet: Soft
StackLeniency: 0.6
Mode: 2
LetterboxInBreaks: 0
WidescreenStoryboard: 0

[Editor]
Bookmarks: 3157,14644,33501
DistanceSpacing: 1
BeatDivisor: 12
GridSize: 16
TimelineZoom: 2.5

[Metadata]
Title:Feliz Pascoa pra todos voces apesar de ninguem ter me mandado chocolates
TitleUnicode:Feliz Pascoa pra todos voces apesar de ninguem ter me mandado chocolates
Artist:Maffalda
ArtistUnicode:Maffalda
Creator:Hareimu
Version:Salad
Source:
Tags:coelho coelhinho da rabbit bunny easter day dubstep mashup brazil jbhyperion p_i_k_u
BeatmapID:873531
BeatmapSetID:401604

[Difficulty]
HPDrainRate:4
CircleSize:3
OverallDifficulty:7
ApproachRate:7
SliderMultiplier:2.99999990463257
SliderTickRate:3

[Events]
//Background and Video events
0,0,"^owo^.jpg",0,0
//Break Periods
//Storyboard Layer 0 (Background)
//Storyboard Layer 1 (Fail)
//Storyboard Layer 2 (Pass)
//Storyboard Layer 3 (Foreground)
//Storyboard Sound Samples

[TimingPoints]
15,857.142857142857,4,2,0,65,1,0
3464,857.142857142857,4,2,0,65,1,0
6913,857.142857142857,4,2,0,65,1,0
10893,857.142857142857,4,2,0,65,1,0
12035,857.142857142857,4,2,0,65,1,0
13501,857.142857142857,4,2,0,65,1,0
14644,857.142857142857,4,3,1,65,1,1
33501,857.142857142857,4,2,1,65,1,0
49786,-100,4,2,0,5,0,0

[Colours]
Combo1 : 228,69,228
Combo2 : 149,69,228
Combo3 : 148,148,148
Combo4 : 69,69,228

[HitObjects]
256,192,15,5,2,0:0:0:0:
432,128,586,1,0,0:0:0:0:
288,192,872,1,2,0:0:0:0:
80,128,1443,1,2,0:0:0:0:
256,192,1729,2,0,L|352:224,2,99.9999968210856,2|0|0,0:0|0:0|0:0,0:0:0:0:
80,128,2586,1,2,0:0:0:0:
384,192,3157,5,2,0:0:0:0:
128,192,3464,2,0,L|32:160,2,99.9999968210856,2|0|0,0:0|0:0|0:0,0:0:0:0:
304,192,4321,2,0,L|400:160,2,99.9999968210856,2|0|2,0:0|0:0|0:0,0:0:0:0:
96,192,5178,6,0,L|32:112,2,99.9999968210857,2|0|0,0:0|0:0|0:0,0:0:0:0:
304,192,6035,1,2,0:0:0:0:
128,192,6913,6,0,P|64:128|128:64,1,199.999993642171,2|0,0:0|0:0,0:0:0:0:
272,64,7770,2,0,P|336:128|272:192,1,199.999993642171,2|2,0:0|0:0,0:0:0:0:
64,192,8627,1,2,0:0:0:0:
96,288,8913,1,0,0:0:0:0:
192,288,9198,1,0,0:0:0:0:
432,288,9484,1,2,0:0:0:0:
112,192,10055,1,2,0:0:0:0:
320,192,10341,6,0,L|416:160,1,99.9999968210857,2|0,0:0|0:0,0:0:0:0:
320,192,10893,1,0,0:0:0:0:
128,192,11178,2,0,L|224:160,2,99.9999968210857,2|0|2,0:0|0:0|0:0,0:0:0:0:
368,192,12035,5,0,0:0:0:0:
464,192,12320,1,2,0:0:0:0:
368,192,12606,1,0,0:0:0:0:
128,192,12892,1,2,0:0:0:0:
416,224,13786,2,0,P|480:160|416:96,1,199.999993642171,0|0,0:0|0:0,0:0:0:0:
176,96,14644,6,0,L|80:128,2,99.9999968210857,2|0|0,1:3|0:0|0:0,0:0:0:0:
416,96,15501,1,4,1:2:0:0:
480,176,15786,1,0,0:0:0:0:
464,272,16072,1,0,0:0:0:0:
304,272,16358,6,0,P|208:240|224:160,1,199.999993642171,0|0,1:0|0:0,0:0:0:0:
464,160,17215,1,4,1:2:0:0:
352,160,17501,1,0,0:0:0:0:
208,160,17786,1,0,0:0:0:0:
448,160,18072,5,2,1:3:0:0:
496,256,18358,1,0,0:0:0:0:
400,320,18644,1,0,0:0:0:0:
160,320,18929,1,4,1:2:0:0:
80,256,19215,1,0,0:0:0:0:
112,160,19501,1,0,0:0:0:0:
320,160,19786,6,0,L|416:192,1,99.9999968210857,0|0,1:0|0:0,0:0:0:0:
272,240,20358,1,0,0:0:0:0:
32,240,20644,2,0,L|128:208,1,99.9999968210857,4|0,1:2|0:0,0:0:0:0:
240,208,21072,2,0,P|304:208|352:272,1,149.999995231629,0|0,0:0|1:0,0:0:0:0:
240,208,21786,5,0,0:0:0:0:
336,208,22072,1,2,0:1:0:0:
96,208,22358,2,0,L|32:288,2,99.9999968210857,4|0|0,1:2|0:0|0:0,0:0:0:0:
288,208,23215,2,0,L|384:240,2,99.9999968210857,0|0|0,1:0|0:0|0:0,0:0:0:0:
112,208,24072,6,0,L|32:144,1,99.9999968210857,4|2,1:2|0:1,0:0:0:0:
112,80,24501,2,0,L|208:48,1,99.9999968210857,0|0,0:0|0:0,0:0:0:0:
352,48,24929,6,0,L|448:80,2,99.9999968210857,0|0|2,1:0|0:0|0:1,0:0:0:0:
96,48,25786,2,0,L|32:128,2,99.9999968210857,4|0|2,1:2|0:0|0:1,0:0:0:0:
256,48,26644,6,0,L|304:64,1,49.9999984105428,0|0,1:0|0:0,0:0:0:0:
256,128,26929,2,0,L|208:144,1,49.9999984105428,0|0,0:0|0:0,0:0:0:0:
256,208,27215,2,0,L|304:224,1,49.9999984105428,0|0,0:0|0:0,0:0:0:0:
208,224,27501,6,0,B|160:224|160:224|112:224|64:224|32:176|48:112|112:112|160:112,1,299.999990463257,6|2,0:1|1:3,0:0:0:0:
256,112,28644,5,0,0:0:0:0:
160,112,28929,1,0,0:0:0:0:
336,112,29215,1,4,1:2:0:0:
256,112,29501,1,0,0:0:0:0:
352,112,29786,1,0,0:0:0:0:
176,112,30072,5,0,1:0:0:0:
48,112,30358,1,0,0:0:0:0:
144,112,30643,1,0,0:0:0:0:
384,112,30929,2,0,L|480:144,2,99.9999968210857,4|0|0,1:2|0:0|0:0,0:0:0:0:
128,112,31786,6,0,L|32:144,2,99.9999968210857,0|0|0,1:0|0:0|0:0,0:0:0:0:
384,112,32643,1,4,1:2:0:0:
256,112,32929,1,0,0:3:0:0:
128,112,33215,1,0,0:0:0:0:
352,192,33501,6,0,P|416:128|352:64,1,199.999993642171,4|0,1:0|0:0,0:0:0:0:
256,64,34215,1,0,1:0:0:0:
160,64,34358,2,0,P|96:128|160:192,1,199.999993642171,4|2,1:2|0:0,0:0:0:0:
400,192,35215,5,0,1:0:0:0:
160,192,35786,1,0,0:0:0:0:
400,192,36072,2,0,P|464:256|400:320,1,199.999993642171,4|2,1:2|0:0,0:0:0:0:
160,320,36929,6,0,L|64:288,2,99.9999968210857,4|0|0,1:0|0:0|0:0,0:0:0:0:
368,320,37786,2,0,L|464:288,2,99.9999968210857,4|0|0,1:2|0:0|0:0,0:0:0:0:
272,320,38501,1,0,1:0:0:0:
368,320,38643,6,0,L|464:288,1,99.9999968210857,4|0,1:0|0:0,0:0:0:0:
368,320,39215,1,0,0:0:0:0:
144,320,39501,1,4,1:2:0:0:
432,320,40358,6,0,P|480:224|416:192,1,199.999993642171,4|0,1:0|0:0,0:0:0:0:
320,192,41072,1,0,1:0:0:0:
224,192,41215,2,0,P|176:128|256:64,1,199.999993642171,4|2,1:2|0:0,0:0:0:0:
416,64,42072,5,0,1:0:0:0:
256,64,42643,1,0,0:0:0:0:
64,64,42929,2,0,P|16:128|96:192,1,199.999993642171,4|2,1:2|0:0,0:0:0:0:
336,192,43786,6,0,L|432:224,2,99.9999968210857,4|0|0,1:0|0:0|0:0,0:0:0:0:
96,192,44643,2,0,L|32:272,2,99.9999968210857,6|0|2,1:2|0:0|0:0,0:0:0:0:
192,192,45358,1,0,1:0:0:0:
288,192,45501,5,0,1:0:0:0:
352,256,45786,1,0,0:0:0:0:
320,160,46072,1,2,0:0:0:0:
80,160,46358,5,4,1:2:0:0:
256,192,46786,12,0,49786,0:0:0:0:
