osu file format v14

[General]
AudioFilename: caralho.mp3
AudioLeadIn: 0
PreviewTime: 14644
Countdown: 0
SampleSet: Soft
StackLeniency: 0.6
Mode: 2
LetterboxInBreaks: 0
WidescreenStoryboard: 0

[Editor]
DistanceSpacing: 1
BeatDivisor: 6
GridSize: 8
TimelineZoom: 2.8

[Metadata]
Title:Feliz Pascoa pra todos voces apesar de ninguem ter me mandado chocolates
TitleUnicode:Feliz Pascoa pra todos voces apesar de ninguem ter me mandado chocolates
Artist:Maffalda
ArtistUnicode:Maffalda
Creator:Hareimu
Version:Piku's Rain
Source:
Tags:coelho coelhinho da rabbit bunny easter day dubstep mashup brazil jbhyperion p_i_k_u
BeatmapID:883224
BeatmapSetID:401604

[Difficulty]
HPDrainRate:6
CircleSize:4
OverallDifficulty:9
ApproachRate:9
SliderMultiplier:3.36
SliderTickRate:3

[Events]
//Background and Video events
0,0,"^owo^.jpg",0,0
//Break Periods
//Storyboard Layer 0 (Background)
//Storyboard Layer 1 (Fail)
//Storyboard Layer 2 (Pass)
//Storyboard Layer 3 (Foreground)
//Storyboard Sound Samples

[TimingPoints]
15,857.142857142857,4,2,1,65,1,0
3464,857.142857142857,4,2,1,65,1,0
6913,857.142857142857,4,2,1,65,1,0
10893,857.142857142857,4,2,1,65,1,0
12035,857.142857142857,4,2,1,65,1,0
12035,-76.9230769230769,4,2,1,65,0,0
12606,-100,4,2,1,65,0,0
13501,857.142857142857,4,2,1,65,1,0
14644,857.142857142857,4,2,1,90,1,1
14644,-66.6666666666667,4,2,1,90,0,1
27501,-133.333333333333,4,2,1,90,0,1
28358,-66.6666666666667,4,2,1,90,0,1
33215,-50,4,2,1,90,0,1
33501,857.142857142857,4,2,1,65,1,0
49786,-100,4,2,0,5,0,0

[Colours]
Combo1 : 228,69,228
Combo2 : 149,69,228
Combo3 : 148,148,148
Combo4 : 69,69,228

[HitObjects]
344,224,15,6,0,L|440:168,2,112,2|0|2,0:0|0:0|0:0,0:0:0:0:
120,264,872,2,0,P|72:168|120:64,1,224,2|2,0:0|0:0,0:0:0:0:
368,48,1729,6,0,P|400:96|408:152,1,112,2|0,0:0|0:0,0:0:0:0:
176,216,2300,1,2,0:0:0:0:
400,120,2586,2,0,P|440:232|376:304,1,224,2|2,0:0|0:0,0:0:0:0:
104,208,3464,5,2,0:0:0:0:
272,144,3750,1,0,0:0:0:0:
80,176,4035,1,2,0:0:0:0:
304,184,4321,1,2,0:0:0:0:
472,200,4607,1,0,0:0:0:0:
304,160,4893,1,2,0:0:0:0:
80,272,5178,6,0,P|48:168|104:72,1,224,2|2,0:0|0:0,0:0:0:0:
360,80,6035,1,2,0:0:0:0:
336,304,6913,6,0,L|432:248,2,112,2|0|2,0:0|0:0|0:0,0:0:0:0:
112,280,7770,2,0,P|64:184|136:112,1,224,2|2,0:0|0:0,0:0:0:0:
360,120,8627,1,2,0:0:0:0:
160,56,8912,1,0,0:0:0:0:
328,48,9198,1,2,0:0:0:0:
96,64,9484,2,0,P|22:139|71:232,1,224,2|2,0:0|0:0,0:0:0:0:
344,144,10341,6,0,L|232:152,1,112,2|0,0:0|0:0,0:0:0:0:
416,240,10893,1,2,0:0:0:0:
192,272,11178,2,0,L|304:280,1,112,2|2,0:0|0:0,0:0:0:0:
96,200,11750,1,2,0:0:0:0:
344,192,12035,6,0,L|192:184,1,145.599993334961,2|2,0:0|0:0,0:0:0:0:
384,72,12606,1,2,0:0:0:0:
24,40,12892,1,2,0:0:0:0:
128,64,13787,5,0,0:0:0:0:
176,184,14072,1,0,0:0:0:0:
264,280,14358,1,2,0:0:0:0:
456,256,14644,6,0,L|432:176,1,84.0000032043458,2|0,1:3|0:0,0:0:0:0:
208,136,14929,2,0,L|232:216,1,84.0000032043458,0|0,0:0|1:0,0:0:0:0:
368,320,15215,2,0,L|344:240,1,84.0000032043458,0|4,1:0|0:3,0:0:0:0:
24,176,15501,2,0,L|56:96,1,84.0000032043458,4|0,0:0|0:0,0:0:0:0:
280,304,15787,1,0,1:0:0:0:
328,224,15929,1,0,1:0:0:0:
344,128,16073,1,0,0:0:0:0:
320,32,16215,1,0,1:0:0:0:
80,304,16358,6,0,P|16:184|64:88,1,252.000009613037,4|0,0:3|1:0,0:0:0:0:
320,168,16929,2,0,L|392:216,1,84.0000032043458,0|0,0:0|1:0,0:0:0:0:
144,272,17215,2,0,P|96:192|144:152,1,168.000006408692,4|0,0:0|1:0,0:0:0:0:
400,88,17644,1,0,1:0:0:0:
424,128,17715,1,0,3:0:0:0:
440,176,17787,1,0,1:0:0:0:
440,224,17858,1,0,3:0:0:0:
424,272,17929,1,0,1:0:0:0:
176,344,18072,6,0,L|40:240,1,168.000006408692,4|0,0:3|0:0,0:0:0:0:
152,176,18501,2,0,L|72:144,2,84.0000032043458,0|0|0,1:0|1:0|1:0,0:0:0:0:
416,96,18929,1,4,0:0:0:0:
464,176,19072,1,0,0:0:0:0:
304,200,19215,1,0,1:0:0:0:
232,264,19358,1,0,1:0:0:0:
392,272,19501,1,0,1:0:0:0:
480,320,19644,1,0,1:0:0:0:
200,328,19786,6,0,L|160:248,1,84.0000032043458,4|0,0:3|1:0,0:0:0:0:
320,320,20072,1,0,0:0:0:0:
392,256,20215,1,0,1:0:0:0:
416,160,20358,1,0,1:0:0:0:
392,64,20501,1,0,1:0:0:0:
120,80,20644,5,4,0:2:0:0:
272,88,20929,1,2,0:0:0:0:
32,168,21215,1,0,0:0:0:0:
376,320,21501,6,0,P|448:248|376:136,1,252.000009613037,4|0,0:3|0:0,0:0:0:0:
128,96,22072,1,0,0:0:0:0:
176,184,22215,1,2,1:0:0:0:
424,80,22358,1,4,0:0:0:0:
496,128,22501,1,2,0:1:0:0:
384,176,22644,1,0,0:0:0:0:
312,224,22787,1,2,0:1:0:0:
240,264,22929,1,0,0:0:0:0:
352,224,23072,1,2,0:1:0:0:
136,112,23215,5,4,0:3:0:0:
48,144,23358,1,0,0:0:0:0:
48,184,23429,1,0,1:0:0:0:
64,224,23501,1,2,1:0:0:0:
192,208,23644,1,0,0:0:0:0:
320,296,23787,1,2,1:0:0:0:
448,232,23929,1,0,1:0:0:0:
200,232,24072,5,4,0:2:0:0:
112,136,24215,1,2,0:1:0:0:
152,288,24358,1,0,1:0:0:0:
448,176,24501,2,0,L|392:336,1,168.000006408692,4|0,0:3|0:0,0:0:0:0:
120,160,24929,6,0,L|96:240,1,84.0000032043458,4|0,0:3|0:0,0:0:0:0:
224,248,25215,2,0,L|200:328,1,84.0000032043458
344,128,25501,2,0,L|368:208,1,84.0000032043458
80,200,25786,2,0,L|40:280,1,84.0000032043458,4|2,0:2|0:1,0:0:0:0:
432,200,26072,2,0,L|472:280,1,84.0000032043458,0|2,0:0|0:1,0:0:0:0:
184,232,26358,2,0,L|144:312,1,84.0000032043458,2|0,0:1|1:0,0:0:0:0:
304,352,26644,5,12,0:3:0:0:
376,288,26787,1,2,2:0:0:0:
400,192,26929,1,2,2:0:0:0:
376,96,27072,1,2,2:0:0:0:
304,32,27215,1,2,2:0:0:0:
208,8,27358,1,2,2:0:0:0:
424,208,27501,2,0,P|336:288|256:200,1,252.000009613037,4|4,0:3|0:3,0:0:0:0:
472,152,28501,6,0,L|440:72,1,84.0000032043458,0|0,0:0|1:0,0:0:0:0:
328,88,28786,2,0,L|264:144,2,84.0000032043458,0|0|0,1:0|1:0|1:0,0:0:0:0:
48,144,29215,2,0,L|72:224,1,84.0000032043458,4|0,0:2|0:0,0:0:0:0:
184,320,29501,5,0,1:0:0:0:
120,264,29644,1,0,1:0:0:0:
104,184,29787,1,0,0:0:0:0:
152,120,29929,1,0,1:0:0:0:
400,40,30072,6,0,P|432:120|416:200,1,168.000006408692,4|0,0:3|0:0,0:0:0:0:
272,232,30501,2,0,L|344:184,2,84.0000032043458,0|0|0,1:0|1:0|1:0,0:0:0:0:
48,248,30929,2,0,P|24:176|40:88,1,168.000006408692,4|0,0:0|1:0,0:0:0:0:
288,56,31358,5,0,1:0:0:0:
312,96,31429,1,0,3:0:0:0:
320,144,31501,1,0,1:0:0:0:
248,176,31572,1,0,3:0:0:0:
224,216,31644,1,0,1:0:0:0:
216,264,31715,1,0,3:0:0:0:
384,256,31786,6,0,L|504:136,1,168.000006408692,4|0,0:3|0:0,0:0:0:0:
368,96,32215,2,0,L|448:56,2,84.0000032043458,0|0|0,1:0|1:0|1:0,0:0:0:0:
144,96,32643,2,0,L|272:104,1,126.000004806519,4|0,0:0|0:0,0:0:0:0:
344,176,32929,2,0,L|216:184,1,126.000004806519,2|0,3:0|0:0,0:0:0:0:
144,256,33215,2,0,L|368:264,1,224,2|4,3:0|0:3,0:0:0:0:
256,320,34072,5,2,0:0:0:0:
328,320,34215,1,0,0:0:0:0:
72,328,34358,2,0,P|16:248|80:152,1,224,6|2,0:0|0:0,0:0:0:0:
440,96,35215,2,0,P|496:176|432:272,1,224,4|2,0:3|0:0,0:0:0:0:
64,280,36072,2,0,L|16:176,2,112,4|2|2,0:0|0:0|0:0,0:0:0:0:
448,304,36929,5,4,0:3:0:0:
304,248,37215,1,2,0:0:0:0:
488,184,37501,1,2,0:0:0:0:
104,192,37787,1,4,0:0:0:0:
272,168,38072,1,2,0:0:0:0:
104,184,38358,1,2,0:0:0:0:
168,184,38501,1,4,0:3:0:0:
424,192,38643,6,0,P|456:248|424:280,1,112,4|2,0:3|0:0,0:0:0:0:
208,288,39215,1,2,0:0:0:0:
432,296,39501,2,0,P|464:224|368:136,1,224,4|0,0:0|0:0,0:0:0:0:
152,208,40358,1,4,0:3:0:0:
264,208,40929,5,2,0:0:0:0:
176,208,41072,1,4,0:3:0:0:
432,320,41215,2,0,P|488:216|424:152,1,224,4|0,0:0|0:0,0:0:0:0:
72,320,42072,2,0,L|48:208,1,112,4|2,0:3|0:0,0:0:0:0:
248,152,42643,1,2,0:0:0:0:
440,160,42929,2,0,L|456:48,1,112,4|2,0:0|0:0,0:0:0:0:
232,32,43501,1,2,0:0:0:0:
456,152,43786,5,0,0:0:0:0:
232,152,44072,1,2,0:0:0:0:
456,160,44358,1,2,0:0:0:0:
72,264,44644,1,4,0:0:0:0:
280,248,44929,1,2,0:0:0:0:
72,240,45215,1,2,0:0:0:0:
136,224,45358,1,4,0:3:0:0:
392,200,45501,5,4,0:3:0:0:
168,176,45787,1,2,0:0:0:0:
392,184,46072,1,2,0:0:0:0:
24,136,46358,1,4,0:0:0:0:
256,192,46643,12,0,49786,0:0:0:0:
