osu file format v14

[General]
AudioFilename: caralho.mp3
AudioLeadIn: 0
PreviewTime: 14644
Countdown: 0
SampleSet: Soft
StackLeniency: 0.6
Mode: 2
LetterboxInBreaks: 0
WidescreenStoryboard: 0

[Editor]
DistanceSpacing: 1
BeatDivisor: 6
GridSize: 4
TimelineZoom: 2.799999

[Metadata]
Title:Feliz Pascoa pra todos voces apesar de ninguem ter me mandado chocolates
TitleUnicode:Feliz Pascoa pra todos voces apesar de ninguem ter me mandado chocolates
Artist:Maffalda
ArtistUnicode:Maffalda
Creator:Hareimu
Version:Hyperion's Platter
Source:
Tags:coelho coelhinho da rabbit bunny easter day dubstep mashup brazil jbhyperion p_i_k_u
BeatmapID:882638
BeatmapSetID:401604

[Difficulty]
HPDrainRate:5
CircleSize:3.5
OverallDifficulty:8
ApproachRate:8
SliderMultiplier:2.2
SliderTickRate:3

[Events]
//Background and Video events
0,0,"^owo^.jpg",0,0
//Break Periods
//Storyboard Layer 0 (Background)
//Storyboard Layer 1 (Fail)
//Storyboard Layer 2 (Pass)
//Storyboard Layer 3 (Foreground)
//Storyboard Sound Samples

[TimingPoints]
15,857.142857142857,4,2,0,65,1,0
15,-50,4,2,0,65,0,0
3464,857.142857142857,4,2,0,65,1,0
3464,-50,4,2,0,65,0,0
6913,857.142857142857,4,2,0,65,1,0
6913,-50,4,2,0,65,0,0
10893,857.142857142857,4,2,0,65,1,0
10893,-50,4,2,0,65,0,0
12035,857.142857142857,4,2,0,65,1,0
13501,857.142857142857,4,2,0,65,1,0
13786,-50,4,2,0,65,0,0
14644,857.142857142857,4,3,1,65,1,1
14644,-50,4,3,1,65,0,1
33501,857.142857142857,4,2,1,65,1,0
33501,-66.6666666666667,4,2,1,65,0,0
46786,-100,4,2,1,65,0,0
47215,-100,4,2,1,65,0,0
47643,-100,4,2,1,65,0,0
48072,-100,4,2,1,65,0,0
48501,-100,4,2,1,65,0,0
48929,-100,4,2,1,65,0,0
49358,-100,4,2,1,65,0,0
49786,-100,4,2,0,5,0,0

[Colours]
Combo1 : 228,69,228
Combo2 : 149,69,228
Combo3 : 148,148,148
Combo4 : 69,69,228

[HitObjects]
380,192,15,5,2,0:0:0:0:
120,192,586,2,0,P|136:128|216:100,1,146.666666666667,0|2,0:0|0:0,0:0:0:0:
440,192,1443,1,2,0:0:0:0:
212,192,1729,2,0,L|52:160,1,146.666666666667,2|0,0:0|0:0,0:0:0:0:
192,100,2300,1,0,0:0:0:0:
428,100,2586,1,2,0:0:0:0:
136,192,3157,1,2,0:0:0:0:
388,192,3464,6,0,P|460:160|484:84,2,146.666666666667,2|0|0,0:0|0:0|0:0,0:0:0:0:
153,96,4321,2,0,P|81:128|57:204,2,146.666666666667,2|0|2,0:0|0:0|0:0,0:0:0:0:
388,192,5178,1,2,0:0:0:0:
152,192,5749,2,0,L|292:240,1,146.666666666667,0|2,0:0|0:0,0:0:0:0:
440,192,6913,5,2,0:0:0:0:
176,192,7484,2,0,P|124:212|176:248,1,146.666666666667,0|2,0:0|0:0,0:0:0:0:
432,192,8341,1,2,0:0:0:0:
196,192,8627,2,0,P|200:256|268:288,1,146.666666666667,2|0,0:0|0:0,0:0:0:0:
416,192,9198,1,0,0:0:0:0:
180,192,9484,1,2,0:0:0:0:
444,192,10055,1,2,0:0:0:0:
208,192,10341,6,0,L|72:104,1,146.666666666667,2|0,0:0|0:0,0:0:0:0:
276,192,10893,1,0,0:0:0:0:
44,192,11178,2,0,L|168:272,2,146.666666666667,2|0|2,0:0|0:0|0:0,0:0:0:0:
300,192,12035,1,0,0:0:0:0:
168,192,12320,1,2,0:0:0:0:
388,192,12606,1,0,0:0:0:0:
24,192,12892,1,2,0:0:0:0:
352,192,13501,5,0,0:0:0:0:
116,192,13786,2,0,L|260:116,2,146.666666666667,0|0|0,0:0|0:0|0:0,0:0:0:0:
468,192,14644,6,0,B|508:192|508:192|408:244,1,146.666666666667,2|0,1:3|0:0,0:0:0:0:
224,240,15215,1,0,0:0:0:0:
152,240,15358,1,0,0:0:0:0:
36,240,15501,2,0,P|32:192|116:172,1,146.666666666667,4|0,1:2|0:0,0:0:0:0:
304,168,16072,1,0,0:0:0:0:
68,168,16358,6,0,B|4:168|4:168|112:168,1,146.666666666667,0|0,1:0|0:0,0:0:0:0:
160,168,16786,1,0,0:0:0:0:
218,133,16929,1,0,0:0:0:0:
193,71,17072,1,0,0:0:0:0:
76,68,17215,2,0,P|12:112|4:188,1,146.666666666667,4|0,1:2|0:0,0:0:0:0:
148,176,17786,1,0,0:0:0:0:
500,176,18072,6,0,P|480:248|408:284,1,146.666666666667,2|0,1:3|0:0,0:0:0:0:
236,288,18644,1,0,0:0:0:0:
164,288,18786,1,0,0:0:0:0:
280,288,18929,2,0,P|352:260|376:192,1,146.666666666667,4|0,1:2|0:0,0:0:0:0:
184,136,19501,1,0,0:0:0:0:
420,140,19786,6,0,L|476:92,1,73.3333333333333,0|0,1:0|0:0,0:0:0:0:
284,92,20215,1,0,0:0:0:0:
212,92,20358,1,0,0:0:0:0:
284,92,20501,1,0,0:0:0:0:
400,216,20644,2,0,P|464:248|480:328,2,146.666666666667,4|0|0,1:2|0:0|0:0,0:0:0:0:
48,192,21501,6,0,P|68:256|140:280,1,146.666666666667,0|0,1:0|0:0,0:0:0:0:
344,192,22072,2,0,L|401:124,1,73.3333333333333,2|0,0:1|0:0,0:0:0:0:
272,124,22358,2,0,L|228:47,1,73.3333333333333,4|2,1:2|1:0,0:0:0:0:
368,68,22644,2,0,L|438:27,1,73.3333333333333,0|2,0:0|0:1,0:0:0:0:
300,192,22929,2,0,L|225:235,1,73.3333333333333,0|2,0:0|0:1,0:0:0:0:
480,260,23215,5,0,1:0:0:0:
288,260,23501,2,0,L|188:260,1,73.3333333333333,0|2,0:0|0:1,0:0:0:0:
348,192,23786,2,0,L|412:144,1,73.3333333333333,0|2,0:0|0:1,0:0:0:0:
260,120,24072,2,0,B|192:92|192:92|260:64,1,146.666666666667,4|2,1:2|0:1,0:0:0:0:
407,148,24501,2,0,B|475:176|475:176|407:204,1,146.666666666667,0|0,0:0|0:0,0:0:0:0:
186,194,24929,6,0,P|171:256|243:288,1,146.666666666667,0|0,1:0|0:0,0:0:0:0:
440,240,25500,1,2,0:1:0:0:
512,240,25643,1,2,0:1:0:0:
396,240,25786,2,0,L|264:176,1,146.666666666667,4|0,1:2|0:0,0:0:0:0:
456,108,26357,1,2,0:1:0:0:
100,72,26644,6,0,L|20:72,2,73.3333333333333,0|0|0,1:0|0:0|0:0,0:0:0:0:
188,72,27072,1,0,0:0:0:0:
76,156,27215,2,0,L|4:192,1,73.3333333333333,0|0,0:0|0:0,0:0:0:0:
232,188,27500,2,0,P|356:232|280:328,1,293.333333333333,6|0,0:1|0:0,0:0:0:0:
48,192,28358,6,0,P|84:124|148:108,1,146.666666666667,2|0,1:3|0:0,0:0:0:0:
72,108,28786,1,0,0:0:0:0:
8,136,28929,1,0,0:0:0:0:
48,192,29072,1,0,1:0:0:0:
272,304,29215,2,0,P|340:264|324:200,1,146.666666666667,4|0,1:2|0:0,0:0:0:0:
140,208,29786,1,0,0:0:0:0:
376,208,30072,6,0,L|452:208,1,73.3333333333333,0|0,1:0|0:0,0:0:0:0:
256,208,30501,1,0,0:0:0:0:
168,193,30643,1,0,0:0:0:0:
227,126,30786,1,0,0:0:0:0:
344,128,30929,2,0,L|496:96,1,146.666666666667,4|0,1:2|0:0,0:0:0:0:
252,48,31501,1,0,0:0:0:0:
207,70,31572,1,0,0:0:0:0:
192,118,31643,1,0,0:0:0:0:
220,161,31715,1,0,0:0:0:0:
256,192,31786,6,0,P|306:219|250:239,1,146.666666666667,0|0,1:0|0:0,0:0:0:0:
28,192,32358,1,0,0:0:0:0:
100,192,32501,1,0,0:0:0:0:
320,192,32643,2,0,P|400:212|444:280,2,146.666666666667,4|0|0,1:2|0:3|0:0,0:0:0:0:
100,192,33501,5,4,1:0:0:0:
372,192,34215,1,0,1:0:0:0:
240,192,34358,2,0,P|176:156|268:104,1,220.000008392334,4|2,1:2|0:0,0:0:0:0:
384,192,35215,1,0,1:0:0:0:
164,192,35786,1,0,0:0:0:0:
384,192,36072,2,0,L|492:156,1,110.000004196167,4|0,1:2|0:0,0:0:0:0:
268,128,36643,1,2,0:0:0:0:
488,120,36929,6,0,L|392:56,2,110.000004196167,4|0|0,1:0|0:0|0:0,0:0:0:0:
256,192,37786,2,0,L|352:256,2,110.000004196167,4|0|0,1:2|0:0|0:0,0:0:0:0:
184,192,38501,1,0,1:0:0:0:
48,192,38643,1,4,1:0:0:0:
312,192,39215,1,0,0:0:0:0:
92,192,39501,2,0,P|36:140|136:108,1,220.000008392334,4|0,1:2|0:0,0:0:0:0:
352,192,40358,5,4,1:0:0:0:
76,192,41072,1,0,1:0:0:0:
208,192,41215,2,0,P|300:160|332:44,1,220.000008392334,4|0,1:2|0:0,0:0:0:0:
112,192,42072,1,0,1:0:0:0:
332,192,42643,1,0,0:0:0:0:
112,192,42929,2,0,L|208:128,1,110.000004196167,4|0,1:2|0:0,0:0:0:0:
60,128,43500,1,2,0:0:0:0:
312,132,43786,6,0,L|408:196,2,110.000004196167,4|0|0,1:0|0:0|0:0,0:0:0:0:
104,192,44643,2,0,L|200:256,2,110.000004196167,6|0|2,1:2|0:0|0:0,0:0:0:0:
172,192,45358,1,0,1:0:0:0:
304,192,45501,1,0,1:0:0:0:
160,192,45786,1,0,0:0:0:0:
392,192,46072,1,2,0:0:0:0:
40,192,46358,5,4,1:2:0:0:
256,192,46643,12,0,49786,0:0:0:0:
