osu file format v14

[General]
AudioFilename: caralho.mp3
AudioLeadIn: 0
PreviewTime: 14644
Countdown: 0
SampleSet: None
StackLeniency: 0.6
Mode: 2
LetterboxInBreaks: 0
WidescreenStoryboard: 0

[Editor]
Bookmarks: 3157,14644,33501
DistanceSpacing: 1
BeatDivisor: 6
GridSize: 16
TimelineZoom: 2.9

[Metadata]
Title:Feliz Pascoa pra todos voces apesar de ninguem ter me mandado chocolates
TitleUnicode:Feliz Pascoa pra todos voces apesar de ninguem ter me mandado chocolates
Artist:Maffalda
ArtistUnicode:Maffalda
Creator:Hareimu
Version:Easter!
Source:
Tags:coelho coelhinho da rabbit bunny easter day dubstep mashup brazil jbhyperion p_i_k_u
BeatmapID:877746
BeatmapSetID:401604

[Difficulty]
HPDrainRate:6
CircleSize:4
OverallDifficulty:9.2
ApproachRate:9.2
SliderMultiplier:3.59999990463257
SliderTickRate:3

[Events]
//Background and Video events
0,0,"^owo^.jpg",0,0
//Break Periods
//Storyboard Layer 0 (Background)
//Storyboard Layer 1 (Fail)
//Storyboard Layer 2 (Pass)
//Storyboard Layer 3 (Foreground)
//Storyboard Sound Samples

[TimingPoints]
15,857.142857142857,4,2,0,65,1,0
3464,857.142857142857,4,2,0,65,1,0
6913,857.142857142857,4,2,0,65,1,0
10893,857.142857142857,4,2,0,65,1,0
12035,857.142857142857,4,2,0,65,1,0
13501,857.142857142857,4,2,0,65,1,0
14644,857.142857142857,4,3,1,65,1,1
14644,-66.6666666666667,4,3,1,65,0,1
27501,-117.647058823529,4,3,1,65,0,1
28358,-66.6666666666667,4,3,1,65,0,1
33501,857.142857142857,4,2,1,65,1,0
49786,-100,4,2,0,5,0,0

[Colours]
Combo1 : 228,69,228
Combo2 : 149,69,228
Combo3 : 148,148,148
Combo4 : 69,69,228

[HitObjects]
384,192,15,6,0,P|416:192|496:160,2,119.999996821086,2|0|0,0:0|0:0|0:0,0:0:0:0:
128,192,872,2,0,P|96:192|16:160,2,119.999996821086,2|0|2,0:0|0:0|0:0,0:0:0:0:
480,192,1729,5,2,0:0:0:0:
352,192,2015,1,0,0:0:0:0:
416,288,2300,1,0,0:0:0:0:
192,288,2586,1,2,0:0:0:0:
64,288,2872,1,0,0:0:0:0:
128,176,3157,1,2,0:0:0:0:
384,256,3464,6,0,P|416:256|496:224,1,119.999996821086,2|0,0:0|0:0,0:0:0:0:
320,192,4035,1,0,0:0:0:0:
128,256,4321,2,0,P|96:256|16:224,2,119.999996821086,2|0|2,0:0|0:0|0:0,0:0:0:0:
384,256,5178,6,0,P|416:256|496:224,2,119.999996821086,2|0|0,0:0|0:0|0:0,0:0:0:0:
32,256,6035,1,2,0:0:0:0:
496,224,6913,6,0,P|464:224|384:192,2,119.999996821086,2|0|0,0:0|0:0|0:0,0:0:0:0:
256,224,7770,2,0,P|224:224|144:192,1,120,2|0,0:0|0:0,0:0:0:0:
32,128,8341,1,2,0:0:0:0:
384,128,8627,5,2,0:0:0:0:
448,224,8913,1,0,0:0:0:0:
320,224,9198,1,0,0:0:0:0:
128,224,9484,1,2,0:0:0:0:
192,128,9770,1,0,0:0:0:0:
64,128,10055,1,2,0:0:0:0:
352,128,10341,6,0,P|384:128|464:160,1,120,2|0,0:0|0:0,0:0:0:0:
352,128,10893,1,0,0:0:0:0:
160,128,11178,2,0,P|128:128|48:160,2,120,2|0|2,0:0|0:0|0:0,0:0:0:0:
432,128,12035,1,0,0:0:0:0:
256,128,12320,1,2,0:0:0:0:
496,128,12606,1,0,0:0:0:0:
128,128,12892,1,2,0:0:0:0:
480,128,13787,5,0,0:0:0:0:
352,128,14072,1,0,0:0:0:0:
480,128,14358,1,0,0:0:0:0:
128,160,14644,6,0,L|48:208,2,90.0000010490418,2|0|0,1:3|0:0|0:0,0:0:0:0:
416,208,15072,2,0,L|496:256,2,90.0000034332277
144,208,15501,6,0,L|80:144,1,90.0000010490418,4|0,1:2|0:0,0:0:0:0:
32,64,15786,1,0,0:0:0:0:
16,160,15929,1,0,0:0:0:0:
48,240,16072,1,0,0:0:0:0:
144,240,16215,1,0,0:0:0:0:
416,304,16358,6,0,L|496:256,2,90.0000034332277,0|0|0,1:0|0:0|0:0,0:0:0:0:
336,192,16786,2,0,L|256:144,2,90.0000010490418
80,64,17215,6,0,L|16:240,1,180.000002098084,4|0,1:2|0:0,0:0:0:0:
320,240,17644,1,0,0:0:0:0:
384,240,17715,1,0,0:0:0:0:
432,192,17786,1,0,0:0:0:0:
448,128,17858,1,0,0:0:0:0:
432,192,17929,1,0,0:0:0:0:
384,240,18001,1,0,0:0:0:0:
176,240,18072,6,0,P|112:224|64:128,1,180.000002098084,2|0,1:3|0:0,0:0:0:0:
176,176,18501,2,0,L|256:224,1,90.0000034332277
336,224,18786,1,0,0:0:0:0:
64,128,18929,6,0,L|16:304,1,180.000006866455,4|0,1:2|0:0,0:0:0:0:
96,256,19358,2,0,L|16:304,1,90.0000034332277
96,192,19644,1,0,1:0:0:0:
352,176,19786,5,0,1:0:0:0:
384,256,19929,1,0,0:0:0:0:
320,320,20072,1,0,0:0:0:0:
176,320,20215,2,0,L|96:272,2,90.0000034332277
464,240,20644,2,0,P|480:176|400:112,1,180.000002098084,4|0,1:2|0:0,0:0:0:0:
464,240,21072,2,0,L|400:304,1,90.0000034332277
32,240,21501,6,0,L|96:176,1,90.0000010490418,0|0,1:0|0:0,0:0:0:0:
160,112,21786,1,0,0:0:0:0:
32,112,21929,2,0,L|96:48,2,90.0000034332277,0|2|0,0:0|0:1|0:0,0:0:0:0:
304,112,22358,6,0,L|368:176,1,90.0000010490418,4|2,1:2|1:0,0:0:0:0:
96,192,22644,2,0,L|32:128,1,90.0000010490418,0|2,0:0|0:1,0:0:0:0:
368,112,22929,2,0,L|432:176,1,90.0000010490418,0|2,0:0|0:1,0:0:0:0:
160,192,23215,6,0,L|96:128,1,90.0000010490418,0|2,1:0|0:1,0:0:0:0:
144,128,23429,1,2,0:1:0:0:
320,112,23501,2,0,L|400:160,2,90.0000010490418,0|2|0,0:0|0:1|0:0,0:0:0:0:
160,112,23929,1,2,0:1:0:0:
400,192,24072,6,0,L|480:144,2,90.0000034332277,4|2|2,1:2|0:1|0:1,0:0:0:0:
144,192,24501,2,0,P|80:160|144:112,1,180.000006866455
384,112,24929,6,0,L|464:160,2,90.0000010490418,0|0|0,1:0|0:0|0:0,0:0:0:0:
288,112,25358,1,0,0:0:0:0:
432,224,25501,2,0,L|496:288,1,90.0000034332277,2|2,0:1|0:1,0:0:0:0:
224,224,25786,6,0,L|160:160,1,90.0000034332277,4|2,1:2|0:1,0:0:0:0:
416,288,26072,2,0,L|480:224,1,90.0000034332277,0|2,0:0|0:1,0:0:0:0:
192,224,26358,2,0,L|128:160,1,90.0000034332277,2|0,0:1|0:0,0:0:0:0:
400,160,26644,5,0,1:0:0:0:
464,224,26786,1,0,0:0:0:0:
480,128,26929,1,0,0:0:0:0:
448,208,27072,1,0,0:0:0:0:
384,272,27215,1,0,0:0:0:0:
288,272,27358,1,0,0:0:0:0:
80,272,27501,6,0,P|32:192|176:96,1,305.999997730255,6|2,0:1|1:3,0:0:0:0:
288,80,28501,5,0,0:0:0:0:
400,80,28644,1,0,0:0:0:0:
288,80,28786,2,0,L|224:144,2,90.0000034332277,0|0|0,0:0|0:0|1:0,0:0:0:0:
64,80,29215,6,0,L|16:256,1,180.000006866455,4|0,1:2|0:0,0:0:0:0:
32,160,29644,1,0,0:0:0:0:
96,224,29786,1,0,0:0:0:0:
192,224,29929,1,0,0:0:0:0:
432,224,30072,6,0,L|496:160,2,90.0000034332277,0|0|0,1:0|0:0|0:0,0:0:0:0:
288,224,30501,2,0,L|352:160,2,90.0000034332277
64,224,30929,6,0,L|16:48,1,180.000002098084,4|0,1:2|0:0,0:0:0:0:
320,48,31358,1,0,0:0:0:0:
384,48,31429,1,0,0:0:0:0:
432,96,31501,1,0,0:0:0:0:
448,160,31572,1,0,0:0:0:0:
432,224,31643,1,0,0:0:0:0:
384,272,31715,1,0,0:0:0:0:
80,272,31786,5,0,1:0:0:0:
16,208,31929,1,0,0:0:0:0:
32,112,32072,1,0,0:0:0:0:
128,112,32215,2,0,L|192:176,2,90.0000034332277
352,112,32643,6,0,P|400:160|368:208,1,135.000005149841,4|2,1:2|0:3,0:0:0:0:
160,272,32929,2,0,P|112:224|144:176,1,135.000005149841,0|2,0:3|0:3,0:0:0:0:
352,112,33215,2,0,P|400:160|368:208,1,135.000005149841,0|2,0:0|0:3,0:0:0:0:
96,272,33501,5,4,1:0:0:0:
304,80,34072,5,0,0:0:0:0:
176,80,34215,1,0,1:0:0:0:
416,80,34358,2,0,P|496:112|464:240,1,239.999993642171,4|2,1:2|0:0,0:0:0:0:
112,304,35215,2,0,P|32:272|64:144,1,239.999993642171,0|0,1:0|0:0,0:0:0:0:
416,80,36072,2,0,P|384:208|464:240,1,239.999993642171,4|2,1:2|0:0,0:0:0:0:
112,240,36929,6,0,P|48:224|48:176,2,120,4|0|0,1:0|0:0|0:0,0:0:0:0:
464,240,37786,2,0,P|416:240|400:176,2,120,4|0|0,1:2|0:0|0:0,0:0:0:0:
352,240,38501,1,0,1:0:0:0:
80,240,38643,2,0,P|32:240|16:176,2,120,4|0|0,1:0|0:0|0:0,0:0:0:0:
432,240,39501,2,0,P|384:240|368:176,1,120,4|2,1:2|0:0,0:0:0:0:
96,80,40358,6,0,P|208:80|304:160,1,239.999993642171,4|0,1:0|0:0,0:0:0:0:
192,240,41072,1,0,1:0:0:0:
400,80,41215,2,0,P|480:144|432:256,1,239.999993642171,4|2,1:2|0:0,0:0:0:0:
80,272,42072,6,0,P|16:176|96:112,1,239.999993642171,0|0,1:0|0:0,0:0:0:0:
448,80,42929,2,0,L|336:128,2,119.999996821086,4|0|2,1:2|0:0|0:0,0:0:0:0:
48,80,43786,5,4,1:0:0:0:
256,160,44072,1,0,0:0:0:0:
96,272,44358,1,0,0:0:0:0:
464,272,44643,1,6,1:2:0:0:
256,160,44929,1,0,0:0:0:0:
416,80,45215,1,2,0:0:0:0:
320,80,45358,1,0,1:0:0:0:
80,80,45501,5,0,1:0:0:0:
208,192,45787,1,0,0:0:0:0:
16,288,46073,1,2,0:0:0:0:
416,288,46358,5,4,1:2:0:0:
256,192,46643,12,0,49786,0:0:0:0:
