osu file format v12

[General]
AudioFilename: Kaichou wa Maid-sama OST- Main Theme.mp3
AudioLeadIn: 0
PreviewTime: 616
Countdown: 0
SampleSet: Normal
StackLeniency: 0.7
Mode: 1
LetterboxInBreaks: 0

[Editor]
DistanceSpacing: 1.2
BeatDivisor: 4
GridSize: 8

[Metadata]
Title:Kaichou wa Maid-sama! - Main Theme
TitleUnicode:会長はメイド様! - メインテーマ
Artist:Maeguchi Wataru
ArtistUnicode:前口渉
Creator:HeatKai
Version:Oni
Source:Kaichō wa Maid-sama!
Tags:ost soundtrack
BeatmapID:267765
BeatmapSetID:100934

[Difficulty]
HPDrainRate:5
CircleSize:5
OverallDifficulty:5
ApproachRate:5
SliderMultiplier:1.4
SliderTickRate:1

[Events]
//Background and Video events
0,0,"bg.jpg",0,100
//Break Periods
//Storyboard Layer 0 (Background)
//Storyboard Layer 1 (Fail)
//Storyboard Layer 2 (Pass)
//Storyboard Layer 3 (Foreground)
//Storyboard Sound Samples
//Background Colour Transformations
3,100,163,162,255

[TimingPoints]
1809,588.235294117647,4,1,0,100,1,0
25338,447.761194029851,4,1,0,100,1,0
27129,-100,4,1,0,100,0,1
41457,-100,4,1,0,100,0,0
41905,-125,4,1,0,100,0,0
55785,-100,4,1,0,100,0,0
64740,-100,4,1,0,100,0,1
93397,-100,4,1,0,100,0,0

[HitObjects]
144,144,632,1,0,0:0:0:0:
312,144,1073,1,0,0:0:0:0:
432,24,1514,1,0,0:0:0:0:
360,72,1809,1,2,0:0:0:0:
232,128,2250,1,0,0:0:0:0:
336,168,2691,1,0,0:0:0:0:
224,160,2985,1,2,0:0:0:0:
136,136,3867,1,0,0:0:0:0:
136,136,4014,1,0,0:0:0:0:
136,136,4161,1,2,0:0:0:0:
272,152,4603,1,0,0:0:0:0:
224,264,5044,1,2,0:0:0:0:
256,184,5338,1,0,0:0:0:0:
256,168,5926,1,0,0:0:0:0:
256,168,6220,1,0,0:0:0:0:
256,168,6367,1,0,0:0:0:0:
256,184,6514,1,2,0:0:0:0:
168,88,6956,1,0,0:0:0:0:
256,184,7397,1,2,0:0:0:0:
200,120,7691,1,0,0:0:0:0:
280,216,8132,1,0,0:0:0:0:
200,120,8573,1,2,0:0:0:0:
248,192,8867,1,0,0:0:0:0:
208,120,9161,1,0,0:0:0:0:
248,192,9456,1,0,0:0:0:0:
208,120,9750,1,0,0:0:0:0:
248,192,10044,1,6,0:0:0:0:
184,80,10485,1,4,0:0:0:0:
248,192,10926,1,4,0:0:0:0:
208,120,11220,1,2,0:0:0:0:
264,232,11661,1,0,0:0:0:0:
208,120,12103,1,2,0:0:0:0:
248,192,12397,1,2,0:0:0:0:
248,192,12985,1,0,0:0:0:0:
248,192,13279,1,0,0:0:0:0:
248,192,13426,1,0,0:0:0:0:
248,192,13573,1,2,0:0:0:0:
248,192,14014,1,2,0:0:0:0:
248,192,14456,1,0,0:0:0:0:
248,192,14750,1,2,0:0:0:0:
248,192,15338,1,0,0:0:0:0:
248,192,15632,1,0,0:0:0:0:
248,192,15779,1,0,0:0:0:0:
248,192,15926,1,2,0:0:0:0:
248,192,16367,1,2,0:0:0:0:
248,192,16808,1,0,0:0:0:0:
248,192,17103,1,2,0:0:0:0:
248,192,17691,1,0,0:0:0:0:
248,192,18279,1,2,0:0:0:0:
240,192,20044,1,0,0:0:0:0:
240,192,20632,1,2,0:0:0:0:
240,192,21808,1,2,0:0:0:0:
240,192,22691,1,0,0:0:0:0:
240,192,22838,1,0,0:0:0:0:
240,192,22985,1,2,0:0:0:0:
240,192,23867,1,0,0:0:0:0:
240,192,23941,1,0,0:0:0:0:
240,192,24014,1,0,0:0:0:0:
240,192,24088,1,0,0:0:0:0:
240,192,24161,5,2,0:0:0:0:
64,144,25338,5,4,0:0:0:0:
224,96,25785,1,4,0:0:0:0:
240,264,26233,1,8,0:0:0:0:
344,192,26569,1,8,0:0:0:0:
408,88,26905,1,0,0:0:0:0:
408,88,27129,1,12,0:0:0:0:
328,88,27352,1,0,0:0:0:0:
288,88,27464,1,0,0:0:0:0:
248,88,27576,1,8,0:0:0:0:
168,120,27800,1,0,0:0:0:0:
88,152,28024,1,8,0:0:0:0:
88,152,28472,1,8,0:0:0:0:
160,192,28696,1,0,0:0:0:0:
120,168,28808,1,0,0:0:0:0:
88,152,28920,1,8,0:0:0:0:
160,104,29143,1,0,0:0:0:0:
168,152,29255,1,0,0:0:0:0:
96,112,29479,1,0,0:0:0:0:
72,72,29591,1,8,0:0:0:0:
136,128,29815,1,8,0:0:0:0:
120,168,30263,1,8,0:0:0:0:
136,128,30487,1,0,0:0:0:0:
136,128,30599,1,0,0:0:0:0:
136,128,30711,1,8,0:0:0:0:
136,128,31046,1,0,0:0:0:0:
136,128,31382,1,0,0:0:0:0:
136,128,31606,1,8,0:0:0:0:
136,128,31942,1,0,0:0:0:0:
136,128,32278,1,0,0:0:0:0:
136,128,32502,1,8,0:0:0:0:
136,128,32949,1,0,0:0:0:0:
136,128,33397,1,12,0:0:0:0:
136,128,33621,1,0,0:0:0:0:
136,128,33733,1,8,0:0:0:0:
136,128,33957,1,0,0:0:0:0:
136,128,34069,1,8,0:0:0:0:
136,128,34293,1,12,0:0:0:0:
136,128,34517,1,8,0:0:0:0:
136,128,34629,1,0,0:0:0:0:
136,128,34852,1,0,0:0:0:0:
136,128,34964,1,8,0:0:0:0:
136,128,35188,1,8,0:0:0:0:
136,128,35636,1,8,0:0:0:0:
136,128,35860,1,0,0:0:0:0:
136,128,35972,1,0,0:0:0:0:
136,128,36084,1,8,0:0:0:0:
136,128,36308,1,0,0:0:0:0:
136,128,36420,1,8,0:0:0:0:
56,112,36643,1,0,0:0:0:0:
136,128,36755,1,8,0:0:0:0:
136,128,36979,1,8,0:0:0:0:
136,128,37427,1,8,0:0:0:0:
136,128,37651,1,0,0:0:0:0:
136,128,37763,1,0,0:0:0:0:
136,128,37875,1,8,0:0:0:0:
136,128,38099,1,8,0:0:0:0:
136,128,38211,1,0,0:0:0:0:
136,128,38435,1,0,0:0:0:0:
136,128,38546,1,8,0:0:0:0:
136,128,38770,1,8,0:0:0:0:
136,128,39218,1,0,0:0:0:0:
136,128,39666,1,8,0:0:0:0:
136,128,40114,1,0,0:0:0:0:
136,128,40561,1,0,0:0:0:0:
136,128,40711,1,0,0:0:0:0:
136,128,40860,1,0,0:0:0:0:
136,128,41009,1,8,0:0:0:0:
136,128,41158,1,8,0:0:0:0:
136,128,41308,1,8,0:0:0:0:
136,128,41457,1,4,0:0:0:0:
136,128,41905,1,8,0:0:0:0:
136,128,42129,1,8,0:0:0:0:
136,128,42240,1,8,0:0:0:0:
136,128,42352,1,0,0:0:0:0:
136,128,42576,1,0,0:0:0:0:
136,128,42800,1,8,0:0:0:0:
136,128,43024,1,0,0:0:0:0:
136,128,43248,1,0,0:0:0:0:
136,128,43696,1,8,0:0:0:0:
136,128,43920,1,8,0:0:0:0:
136,128,44032,1,8,0:0:0:0:
136,128,44143,1,0,0:0:0:0:
136,128,44367,1,0,0:0:0:0:
136,128,44591,1,8,0:0:0:0:
136,128,44703,1,0,0:0:0:0:
136,128,44927,1,0,0:0:0:0:
136,128,45039,1,0,0:0:0:0:
136,128,45487,1,8,0:0:0:0:
136,128,45711,1,8,0:0:0:0:
136,128,45823,1,8,0:0:0:0:
136,128,45935,1,0,0:0:0:0:
136,128,46158,1,0,0:0:0:0:
136,128,46382,1,8,0:0:0:0:
136,128,46606,1,0,0:0:0:0:
136,128,46830,1,0,0:0:0:0:
136,128,47278,1,8,0:0:0:0:
136,128,47502,1,8,0:0:0:0:
136,128,47614,1,8,0:0:0:0:
136,128,47725,1,0,0:0:0:0:
136,128,47949,1,0,0:0:0:0:
136,128,48173,1,8,0:0:0:0:
136,128,48285,1,0,0:0:0:0:
136,128,48509,1,0,0:0:0:0:
136,128,48621,1,0,0:0:0:0:
136,128,49069,1,8,0:0:0:0:
136,128,49293,1,8,0:0:0:0:
136,128,49405,1,0,0:0:0:0:
136,128,49517,1,8,0:0:0:0:
136,128,49740,1,0,0:0:0:0:
136,128,49964,1,8,0:0:0:0:
136,128,50188,1,0,0:0:0:0:
136,128,50412,1,0,0:0:0:0:
136,128,50860,1,8,0:0:0:0:
136,128,51084,1,8,0:0:0:0:
136,128,51196,1,8,0:0:0:0:
136,128,51308,1,0,0:0:0:0:
136,128,51532,1,0,0:0:0:0:
136,128,51755,1,8,0:0:0:0:
136,128,51867,1,0,0:0:0:0:
136,128,51979,1,8,0:0:0:0:
136,128,52203,1,0,0:0:0:0:
136,128,52651,1,8,0:0:0:0:
136,128,52875,1,8,0:0:0:0:
96,104,52987,1,0,0:0:0:0:
136,128,53099,1,0,0:0:0:0:
136,128,53323,1,0,0:0:0:0:
136,128,53546,1,8,0:0:0:0:
136,128,53770,1,0,0:0:0:0:
136,128,53994,1,0,0:0:0:0:
136,128,54442,1,8,0:0:0:0:
136,128,54666,1,0,0:0:0:0:
136,128,54778,1,0,0:0:0:0:
136,128,54890,1,0,0:0:0:0:
136,128,55114,1,0,0:0:0:0:
136,128,55338,1,8,0:0:0:0:
136,128,55449,1,0,0:0:0:0:
136,128,55561,1,0,0:0:0:0:
136,128,55785,1,4,0:0:0:0:
136,128,56009,1,0,0:0:0:0:
136,128,56233,1,8,0:0:0:0:
136,128,56457,1,8,0:0:0:0:
136,128,56569,1,0,0:0:0:0:
136,128,56681,1,0,0:0:0:0:
136,128,56905,1,0,0:0:0:0:
136,128,57129,1,8,0:0:0:0:
136,128,57352,1,8,0:0:0:0:
136,128,57464,1,0,0:0:0:0:
136,128,57576,1,0,0:0:0:0:
136,128,57800,1,0,0:0:0:0:
136,128,58024,1,8,0:0:0:0:
136,128,58248,1,0,0:0:0:0:
136,128,58360,1,0,0:0:0:0:
136,128,58584,1,0,0:0:0:0:
136,128,58696,1,0,0:0:0:0:
136,128,58920,1,8,0:0:0:0:
136,128,59143,1,8,0:0:0:0:
136,128,59255,1,8,0:0:0:0:
136,128,59367,1,0,0:0:0:0:
136,128,59591,1,0,0:0:0:0:
136,128,59815,1,8,0:0:0:0:
136,128,60039,1,8,0:0:0:0:
136,128,60151,1,8,0:0:0:0:
136,128,60263,1,0,0:0:0:0:
136,128,60487,1,0,0:0:0:0:
136,128,60711,1,8,0:0:0:0:
136,128,60935,1,8,0:0:0:0:
136,128,61047,1,8,0:0:0:0:
136,128,61159,1,0,0:0:0:0:
136,128,61383,1,0,0:0:0:0:
136,128,61607,1,8,0:0:0:0:
136,128,61830,1,8,0:0:0:0:
136,128,61942,1,8,0:0:0:0:
136,128,62166,1,0,0:0:0:0:
136,128,62278,1,0,0:0:0:0:
136,128,62502,1,8,0:0:0:0:
136,128,62726,1,0,0:0:0:0:
136,128,62949,1,12,0:0:0:0:
136,128,63397,1,12,0:0:0:0:
136,128,63845,1,12,0:0:0:0:
136,128,64181,1,12,0:0:0:0:
136,128,64517,1,4,0:0:0:0:
136,128,64740,1,4,0:0:0:0:
136,128,64964,1,0,0:0:0:0:
136,128,65076,1,0,0:0:0:0:
136,128,65188,1,8,0:0:0:0:
216,120,65412,1,8,0:0:0:0:
136,128,65636,1,0,0:0:0:0:
136,128,66084,1,8,0:0:0:0:
136,128,66308,1,8,0:0:0:0:
136,128,66532,1,0,0:0:0:0:
136,128,66643,1,0,0:0:0:0:
136,128,66867,1,8,0:0:0:0:
136,128,66979,1,0,0:0:0:0:
136,128,67203,1,8,0:0:0:0:
136,128,67427,1,0,0:0:0:0:
136,128,67875,1,8,0:0:0:0:
136,128,68099,1,8,0:0:0:0:
136,128,68323,1,0,0:0:0:0:
136,128,68435,1,0,0:0:0:0:
136,128,68658,1,8,0:0:0:0:
136,128,68770,1,0,0:0:0:0:
136,128,68994,1,8,0:0:0:0:
136,128,69218,1,0,0:0:0:0:
136,128,69330,1,8,0:0:0:0:
136,128,69554,1,8,0:0:0:0:
136,128,69666,1,0,0:0:0:0:
136,128,69890,1,8,0:0:0:0:
136,128,70114,1,0,0:0:0:0:
136,128,70561,1,8,0:0:0:0:
136,128,71009,1,12,0:0:0:0:
136,128,71345,1,12,0:0:0:0:
136,128,71681,1,4,0:0:0:0:
136,128,71905,1,12,0:0:0:0:
136,128,72129,1,0,0:0:0:0:
136,128,72240,1,8,0:0:0:0:
136,128,72464,1,8,0:0:0:0:
136,128,72576,1,0,0:0:0:0:
136,128,72800,1,8,0:0:0:0:
136,128,73248,1,8,0:0:0:0:
136,128,73472,1,0,0:0:0:0:
136,128,73584,1,0,0:0:0:0:
136,128,73696,1,8,0:0:0:0:
136,128,73920,1,0,0:0:0:0:
136,128,74032,1,8,0:0:0:0:
136,128,74255,1,8,0:0:0:0:
136,128,74367,1,0,0:0:0:0:
136,128,74591,1,8,0:0:0:0:
136,128,75039,1,8,0:0:0:0:
136,128,75263,1,0,0:0:0:0:
136,128,75375,1,0,0:0:0:0:
136,128,75487,1,8,0:0:0:0:
136,128,75711,1,0,0:0:0:0:
136,128,75823,1,8,0:0:0:0:
136,128,76046,1,0,0:0:0:0:
136,128,76158,1,8,0:0:0:0:
136,128,76382,1,0,0:0:0:0:
136,128,76606,1,0,0:0:0:0:
136,128,76718,1,8,0:0:0:0:
136,128,76942,1,8,0:0:0:0:
136,128,77054,1,0,0:0:0:0:
136,128,77278,1,8,0:0:0:0:
136,128,77726,1,8,0:0:0:0:
136,128,78173,1,12,0:0:0:0:
136,128,78509,1,12,0:0:0:0:
136,128,78845,1,4,0:0:0:0:
136,128,79069,1,8,0:0:0:0:
136,128,79293,1,8,0:0:0:0:
136,128,79405,1,0,0:0:0:0:
136,128,79629,1,0,0:0:0:0:
136,128,79740,1,8,0:0:0:0:
136,128,79964,1,8,0:0:0:0:
136,128,80188,1,0,0:0:0:0:
136,128,80300,1,0,0:0:0:0:
136,128,80412,1,8,0:0:0:0:
136,128,80636,1,8,0:0:0:0:
136,128,80748,1,8,0:0:0:0:
136,128,80860,1,0,0:0:0:0:
136,128,81084,1,8,0:0:0:0:
136,128,81196,1,0,0:0:0:0:
136,128,81420,1,0,0:0:0:0:
136,128,81532,1,8,0:0:0:0:
136,128,81755,1,8,0:0:0:0:
136,128,81979,1,0,0:0:0:0:
136,128,82091,1,0,0:0:0:0:
136,128,82203,1,8,0:0:0:0:
136,128,82427,1,8,0:0:0:0:
136,128,82539,1,0,0:0:0:0:
136,128,82651,1,8,0:0:0:0:
136,128,82875,1,0,0:0:0:0:
136,128,82987,1,8,0:0:0:0:
136,128,83211,1,0,0:0:0:0:
136,128,83323,1,8,0:0:0:0:
136,128,83546,1,0,0:0:0:0:
136,128,83770,1,0,0:0:0:0:
136,128,83882,1,8,0:0:0:0:
136,128,84106,1,8,0:0:0:0:
136,128,84218,1,0,0:0:0:0:
136,128,84442,1,8,0:0:0:0:
136,128,84890,1,8,0:0:0:0:
136,128,85338,1,12,0:0:0:0:
136,128,85673,1,12,0:0:0:0:
136,128,86009,1,4,0:0:0:0:
136,128,86233,1,12,0:0:0:0:
136,128,86457,1,0,0:0:0:0:
136,128,86569,1,8,0:0:0:0:
136,128,86793,1,8,0:0:0:0:
136,128,86905,1,0,0:0:0:0:
136,128,87129,1,8,0:0:0:0:
136,128,87352,1,0,0:0:0:0:
96,112,87464,1,0,0:0:0:0:
136,128,87576,1,8,0:0:0:0:
136,128,87800,1,0,0:0:0:0:
136,128,88024,1,8,0:0:0:0:
136,128,88136,1,0,0:0:0:0:
136,128,88360,1,0,0:0:0:0:
136,128,88472,1,8,0:0:0:0:
136,128,88696,1,0,0:0:0:0:
136,128,88920,1,8,0:0:0:0:
136,128,89143,1,0,0:0:0:0:
136,128,89255,1,0,0:0:0:0:
136,128,89367,1,8,0:0:0:0:
136,128,89591,1,0,0:0:0:0:
136,128,89815,1,8,0:0:0:0:
136,128,89927,1,8,0:0:0:0:
136,128,90151,1,0,0:0:0:0:
136,128,90263,1,8,0:0:0:0:
136,128,90487,1,0,0:0:0:0:
136,128,90711,1,0,0:0:0:0:
136,128,91158,1,8,0:0:0:0:
136,128,91606,1,0,0:0:0:0:
136,128,91830,1,0,0:0:0:0:
136,128,91942,1,0,0:0:0:0:
136,128,92054,1,8,0:0:0:0:
136,128,92278,1,0,0:0:0:0:
136,128,92502,1,0,0:0:0:0:
136,128,92614,1,0,0:0:0:0:
136,128,92726,1,0,0:0:0:0:
136,128,92949,1,8,0:0:0:0:
136,128,93173,1,0,0:0:0:0:
136,128,93397,1,4,0:0:0:0:
128,0,93733,1,0,0:0:0:0:
128,40,93845,1,8,0:0:0:0:
160,120,94069,1,0,0:0:0:0:
160,120,94181,1,0,0:0:0:0:
160,120,94293,1,0,0:0:0:0:
160,120,94517,1,0,0:0:0:0:
160,128,94740,1,8,0:0:0:0:
160,120,95188,1,0,0:0:0:0:
160,120,95524,1,0,0:0:0:0:
160,120,95636,1,8,0:0:0:0:
160,120,95860,1,0,0:0:0:0:
160,120,95972,1,0,0:0:0:0:
160,120,96084,1,0,0:0:0:0:
160,120,96308,1,0,0:0:0:0:
144,160,96420,1,0,0:0:0:0:
160,120,96532,1,8,0:0:0:0:
144,160,96643,1,0,0:0:0:0:
160,120,96755,1,0,0:0:0:0:
144,160,96867,1,0,0:0:0:0:
160,120,96979,1,0,0:0:0:0:
104,232,97315,1,0,0:0:0:0:
120,192,97427,1,8,0:0:0:0:
160,120,97651,1,0,0:0:0:0:
144,160,97763,1,0,0:0:0:0:
160,120,97875,1,0,0:0:0:0:
120,192,98099,1,0,0:0:0:0:
160,120,98323,1,8,0:0:0:0:
88,272,98770,1,0,0:0:0:0:
128,200,98994,1,0,0:0:0:0:
144,160,99106,1,0,0:0:0:0:
160,120,99218,1,8,0:0:0:0:
128,200,99442,1,0,0:0:0:0:
160,120,99666,1,12,0:0:0:0:
112,240,100002,1,12,0:0:0:0:
160,120,100338,1,12,0:0:0:0:
128,200,100561,1,12,0:0:0:0:
160,120,100785,1,0,0:0:0:0:
144,160,100897,1,0,0:0:0:0:
160,120,101009,1,8,0:0:0:0:
128,200,101233,1,0,0:0:0:0:
160,120,101457,1,8,0:0:0:0:
128,200,101681,1,0,0:0:0:0:
144,160,101793,1,0,0:0:0:0:
160,120,101905,1,8,0:0:0:0:
128,200,102129,1,0,0:0:0:0:
160,120,102352,1,8,0:0:0:0:
128,200,102576,1,0,0:0:0:0:
144,160,102688,1,0,0:0:0:0:
160,120,102800,1,8,0:0:0:0:
128,200,103024,1,0,0:0:0:0:
160,120,103248,1,8,0:0:0:0:
144,160,103360,1,8,0:0:0:0:
128,200,103472,1,0,0:0:0:0:
112,240,103584,1,0,0:0:0:0:
128,200,103696,1,8,0:0:0:0:
80,312,103808,1,8,0:0:0:0:
64,352,103920,1,0,0:0:0:0:
80,312,104032,1,0,0:0:0:0:
96,272,104143,1,8,0:0:0:0:
136,200,104367,1,0,0:0:0:0:
136,200,104479,1,0,0:0:0:0:
136,184,104591,1,8,0:0:0:0:
136,184,104815,1,0,0:0:0:0:
136,184,105039,1,8,0:0:0:0:
136,184,105263,1,0,0:0:0:0:
136,184,105487,1,8,0:0:0:0:
136,184,105599,1,0,0:0:0:0:
136,184,105711,1,0,0:0:0:0:
136,184,105935,1,12,0:0:0:0:
136,184,106158,1,12,0:0:0:0:
