osu file format v12

[General]
AudioFilename: Kaichou wa Maid-sama OST- Main Theme.mp3
AudioLeadIn: 0
PreviewTime: 616
Countdown: 0
SampleSet: Normal
StackLeniency: 0.7
Mode: 1
LetterboxInBreaks: 0

[Editor]
DistanceSpacing: 0.1
BeatDivisor: 4
GridSize: 32

[Metadata]
Title:Kaichou wa Maid-sama! - Main Theme
TitleUnicode:会長はメイド様! - メインテーマ
Artist:Maeguchi Wataru
ArtistUnicode:前口渉
Creator:HeatKai
Version:Kantan
Source:Kaichō wa Maid-sama!
Tags:ost soundtrack
BeatmapID:269811
BeatmapSetID:100934

[Difficulty]
HPDrainRate:4
CircleSize:5
OverallDifficulty:4
ApproachRate:5
SliderMultiplier:1.4
SliderTickRate:1

[Events]
//Background and Video events
0,0,"bg.jpg",0,100
//Break Periods
//Storyboard Layer 0 (Background)
//Storyboard Layer 1 (Fail)
//Storyboard Layer 2 (Pass)
//Storyboard Layer 3 (Foreground)
//Storyboard Sound Samples
//Background Colour Transformations
3,100,163,162,255

[TimingPoints]
1809,588.235294117647,4,1,0,100,1,0
25338,447.761194029851,4,1,0,100,1,0
27129,-100,4,1,0,100,0,1
41457,-100,4,1,0,100,0,0
64740,-100,4,1,0,100,0,1
93397,-100,4,1,0,100,0,0

[HitObjects]
192,192,632,1,0,0:0:0:0:
192,192,1809,1,2,0:0:0:0:
192,192,2985,1,2,0:0:0:0:
192,192,3573,1,0,0:0:0:0:
192,192,4161,1,2,0:0:0:0:
192,192,5338,1,2,0:0:0:0:
192,192,6514,1,2,0:0:0:0:
192,192,7691,1,2,0:0:0:0:
192,192,8279,1,0,0:0:0:0:
192,192,8867,1,2,0:0:0:0:
192,192,10044,1,2,0:0:0:0:
192,192,11220,1,2,0:0:0:0:
192,192,12397,1,2,0:0:0:0:
192,192,12985,1,0,0:0:0:0:
192,192,13573,1,2,0:0:0:0:
192,192,14750,1,2,0:0:0:0:
192,192,15926,1,2,0:0:0:0:
192,192,17103,1,2,0:0:0:0:
192,192,17691,1,0,0:0:0:0:
192,192,18279,1,2,0:0:0:0:
224,192,20044,1,0,0:0:0:0:
224,192,20632,1,2,0:0:0:0:
256,192,21808,1,2,0:0:0:0:
256,192,22985,1,2,0:0:0:0:
256,192,24161,1,2,0:0:0:0:
256,192,25338,1,0,0:0:0:0:
256,192,26233,1,8,0:0:0:0:
256,192,27129,1,4,0:0:0:0:
256,192,28024,1,8,0:0:0:0:
256,192,29367,1,0,0:0:0:0:
256,192,29815,1,8,0:0:0:0:
256,192,30711,1,0,0:0:0:0:
256,192,31606,1,8,0:0:0:0:
256,192,32949,1,0,0:0:0:0:
256,192,33397,1,8,0:0:0:0:
256,192,34293,1,4,0:0:0:0:
256,192,35188,1,8,0:0:0:0:
224,160,36532,1,0,0:0:0:0:
224,160,36979,1,8,0:0:0:0:
224,160,37875,1,0,0:0:0:0:
224,160,38770,1,8,0:0:0:0:
224,160,40114,1,0,0:0:0:0:
224,160,40561,1,8,0:0:0:0:
224,160,41457,1,4,0:0:0:0:
224,160,42352,1,8,0:0:0:0:
224,160,43248,1,0,0:0:0:0:
224,160,43696,1,0,0:0:0:0:
224,160,44143,1,8,0:0:0:0:
224,160,45039,1,0,0:0:0:0:
224,160,45935,1,8,0:0:0:0:
224,160,46830,1,0,0:0:0:0:
224,160,47278,1,0,0:0:0:0:
224,160,47726,1,8,0:0:0:0:
224,160,48621,1,0,0:0:0:0:
224,160,49517,1,8,0:0:0:0:
224,160,50412,1,0,0:0:0:0:
224,160,50860,1,0,0:0:0:0:
224,160,51308,1,8,0:0:0:0:
224,160,52203,1,0,0:0:0:0:
224,160,53099,1,8,0:0:0:0:
224,160,53994,1,0,0:0:0:0:
224,160,54442,1,0,0:0:0:0:
224,160,54890,1,8,0:0:0:0:
224,160,55785,1,4,0:0:0:0:
224,160,56681,1,8,0:0:0:0:
224,160,58024,1,0,0:0:0:0:
224,160,58472,1,8,0:0:0:0:
224,160,59367,1,0,0:0:0:0:
224,160,60263,1,8,0:0:0:0:
224,160,61606,1,0,0:0:0:0:
224,160,62054,1,8,0:0:0:0:
224,160,62949,1,4,0:0:0:0:
224,160,63845,1,8,0:0:0:0:
224,160,64740,1,4,0:0:0:0:
256,160,65636,1,8,0:0:0:0:
256,160,66532,1,0,0:0:0:0:
256,160,66979,1,0,0:0:0:0:
256,160,67427,1,8,0:0:0:0:
256,160,68323,1,0,0:0:0:0:
256,160,69218,1,8,0:0:0:0:
256,160,70114,1,0,0:0:0:0:
256,160,70561,1,0,0:0:0:0:
256,160,71009,1,8,0:0:0:0:
256,160,71457,1,0,0:0:0:0:
256,160,71905,1,0,0:0:0:0:
256,160,72800,1,8,0:0:0:0:
256,160,73696,1,0,0:0:0:0:
256,160,74143,1,0,0:0:0:0:
256,160,74591,1,8,0:0:0:0:
256,160,75487,1,0,0:0:0:0:
256,160,76382,1,8,0:0:0:0:
256,160,77278,1,0,0:0:0:0:
256,160,77726,1,0,0:0:0:0:
256,160,78173,1,8,0:0:0:0:
256,160,79069,1,4,0:0:0:0:
256,160,79964,1,8,0:0:0:0:
256,160,80860,1,0,0:0:0:0:
256,160,81308,1,0,0:0:0:0:
256,160,81755,1,8,0:0:0:0:
256,160,82651,1,0,0:0:0:0:
256,160,83546,1,8,0:0:0:0:
256,160,84442,1,0,0:0:0:0:
256,160,84890,1,0,0:0:0:0:
256,160,85338,1,8,0:0:0:0:
256,160,86233,1,4,0:0:0:0:
256,160,87129,1,8,0:0:0:0:
256,160,88472,1,0,0:0:0:0:
256,160,88920,1,8,0:0:0:0:
256,160,89815,1,0,0:0:0:0:
256,160,90711,1,8,0:0:0:0:
256,160,91606,1,0,0:0:0:0:
256,160,92054,1,0,0:0:0:0:
256,160,92502,1,8,0:0:0:0:
256,160,93397,1,4,0:0:0:0:
256,160,94293,1,8,0:0:0:0:
256,160,95188,1,0,0:0:0:0:
256,160,96084,1,8,0:0:0:0:
256,160,96532,1,0,0:0:0:0:
256,160,96979,1,0,0:0:0:0:
256,160,97875,1,8,0:0:0:0:
256,160,98770,1,0,0:0:0:0:
256,160,99666,1,8,0:0:0:0:
256,160,100114,1,0,0:0:0:0:
256,160,100561,1,0,0:0:0:0:
256,160,101457,1,8,0:0:0:0:
256,160,102352,1,0,0:0:0:0:
256,160,103248,1,8,0:0:0:0:
256,160,103696,1,0,0:0:0:0:
256,160,104143,1,0,0:0:0:0:
256,160,105039,1,8,0:0:0:0:
256,160,105935,1,4,0:0:0:0:
256,160,106158,1,4,0:0:0:0:
