osu file format v10

[General]
AudioFilename: Tomoshibi.mp3
AudioLeadIn: 2000
PreviewTime: 57512
Countdown: 0
SampleSet: Soft
StackLeniency: 0.7
Mode: 0
LetterboxInBreaks: 0

[Editor]
Bookmarks: 32967,59149,85330,98421,124603,131830,156375,161557
DistanceSpacing: 0.8
BeatDivisor: 4
GridSize: 4

[Metadata]
Title:Lamplight
TitleUnicode:Lamplight
Artist:Maeda Jun
ArtistUnicode:Maeda Jun
Creator:CXu
Version:Easy
Source:Little Busters!
Tags:Manack Tomoshibi OST BGM Kert ambient
BeatmapID:188918
BeatmapSetID:55790

[Difficulty]
HPDrainRate:3
CircleSize:3
OverallDifficulty:3
ApproachRate:4
SliderMultiplier:1.2
SliderTickRate:1

[Events]
//Background and Video events
0,0,"0134.jpg"
//Break Periods
//Storyboard Layer 0 (Background)
//Storyboard Layer 1 (Fail)
//Storyboard Layer 2 (Pass)
//Storyboard Layer 3 (Foreground)
//Storyboard Sound Samples
//Background Colour Transformations
3,100,163,162,255

[TimingPoints]
240,545.454545454546,3,2,1,15,1,0
4603,-100,3,2,1,10,0,0
5012,-100,3,2,2,5,0,0
6785,-100,3,2,1,20,0,0
30785,-100,3,2,1,5,0,0
31330,-100,3,2,1,10,0,0
32421,-100,3,2,1,15,0,0
32967,-100,3,2,1,20,0,0
55876,-100,3,2,1,15,0,0
56967,-100,3,2,1,5,0,0
57512,-100,3,2,1,10,0,0
58603,-100,3,2,1,15,0,0
59149,-100,3,2,1,25,0,0
72240,-100,3,2,1,20,0,0
82058,-100,3,2,1,15,0,0
83149,-100,3,2,1,10,0,0
85330,-100,3,2,1,20,0,0
124330,-100,3,2,2,18,0,0
126240,-100,3,2,1,15,0,0
127603,-100,3,2,1,10,0,0
130058,-100,3,2,1,10,0,0
130603,-100,3,2,1,15,0,0
130876,-100,3,2,1,20,0,0
131149,-100,3,2,1,5,0,0
131830,545.454545454546,3,2,1,25,1,1
131966,-100,3,2,1,25,0,0
144920,-100,3,2,1,20,0,0
154739,-133.333333333333,3,2,1,15,0,0
155830,-100,3,2,1,15,0,0
156102,-200,3,2,2,5,0,0

[Colours]
Combo1 : 249,179,115
Combo2 : 187,250,254
Combo3 : 235,175,231
Combo4 : 170,177,230
SliderBorder : 239,239,239

[HitObjects]
80,48,240,2,0,B|200:64,2,120
40,136,1876,2,0,B|48:200|96:240,1,120
184,280,2967,1,0,0:0:0
272,240,3512,5,0,0:0:0
368,232,4058,1,0,0:0:0
464,256,4603,2,0,B|504:128,1,135,0|2,0:0|0:0,0:0:0
232,144,6785,6,0,B|200:24,1,120
112,56,7876,1,0,0:0:0
56,136,8421,2,0,B|24:192|32:256,1,120,2|0,0:0|0:0,0:0:0
56,344,9512,1,0,0:0:0
128,280,10058,6,0,B|176:232|248:248,2,120
176,368,11694,1,2,0:0:0
272,384,12240,1,0,0:0:0
352,328,12785,1,0,0:0:0
368,232,13330,5,0,0:0:0
96,136,14967,1,2,0:0:0
368,48,16603,1,2,0:0:0
380,144,17149,5,0,0:0:0
456,216,17694,1,0,0:0:0
424,304,18240,2,0,B|320:376|272:296|192:328,1,240,0|0,0:0|0:0,0:0:0
104,360,19876,6,0,B|40:336|24:264,1,120,2|0,0:0|0:0,0:0:0
56,184,20967,1,0,0:0:0
136,128,21512,6,0,B|376:160,1,240,2|0,0:0|0:0,0:0:0
464,124,23149,5,0,0:0:0
504,212,23694,1,0,0:0:0
464,300,24240,1,0,0:0:0
376,256,24785,6,0,B|136:224,1,240,2|0,0:0|0:0,0:0:0
64,168,26421,6,0,B|32:48,2,120
152,128,28058,2,0,B|144:8,2,120,2|0|0,0:0|0:0|0:0,0:0:0
248,112,29694,5,0,0:0:0
256,192,30785,12,0,32967,0:0:0
448,72,34603,6,0,B|491:194|420:311|356:313,1,240,2|0,0:0|0:0,0:0:0
319,347,36240,1,0,0:0:0
64,72,37876,6,0,B|20:194|91:311|155:313,1,240,2|0,0:0|0:0,0:0:0
193,347,39513,1,0,0:0:0
256,272,40058,5,0,0:0:0
176,220,40603,1,0,0:0:0
124,140,41149,2,0,B|148:76|209:62,1,120,2|0,0:0|0:0,0:0:0
304,64,42240,2,0,B|365:77|389:141,1,120,0|2,0:0|0:0,0:0:0
184,340,44421,5,0,0:0:0
52,200,45512,1,2,0:0:0
136,152,46058,6,0,B|196:112|208:44,1,120
288,104,47149,1,0,0:0:0
308,196,47694,2,0,B|336:320,2,120,2|0|0,0:0|0:0|0:0,0:0:0
380,132,49330,6,0,B|416:72|476:64,2,120
448,200,50967,1,2,0:0:0
472,292,51512,1,0,0:0:0
416,372,52058,1,0,0:0:0
340,312,52603,6,0,B|244:216|120:264,1,240,0|2,0:0|0:0,0:0:0
168,348,54240,2,0,B|273:261|236:133,1,240,0|2,0:0|0:0,0:0:0
196,44,55876,5,2,0:0:0
256,192,56967,12,2,59149,0:0:0
428,136,60785,6,0,B|456:56,2,60,2|0|0,0:0|0:0|0:0,0:0:0
320,296,62421,2,0,B|332:376,2,60,2|0|2,0:0|0:0|0:0,0:0:0
256,116,64058,2,0,P|148:60|28:80,1,240,0|2,0:0|0:0,0:0:0
52,168,65694,6,0,B|28:232,2,60,0|0|2,0:0|0:0|0:0,0:0:0
232,96,67330,2,0,B|224:32,2,60,2|0|2,0:0|0:0|0:0,0:0:0
332,260,68967,6,0,B|475:278|513:136,1,240,2|0,0:0|0:0,0:0:0
428,100,70603,2,0,B|344:121|292:64|265:4|194:62|151:15,1,240,2|2,0:0|0:0,0:0:0
108,44,72240,5,0,0:0:0
44,116,72785,1,0,0:0:0
36,212,73330,2,0,B|32:280|64:328,1,120,0|2,0:0|0:0,0:0:0
156,348,74421,5,0,0:0:0
244,304,74967,2,0,B|296:272|360:280,1,120,0|2,0:0|0:0,0:0:0
452,308,76058,5,0,0:0:0
472,216,76603,2,0,B|492:96,1,120,0|2,0:0|0:0,0:0:0
408,48,77694,5,0,0:0:0
328,100,78240,1,0,0:0:0
236,80,78785,6,0,B|112:52,1,120,2|0,0:0|0:0,0:0:0
52,124,79876,1,0,0:0:0
72,216,80421,6,0,B|196:244,1,120,2|0,0:0|0:0,0:0:0
252,168,81512,1,0,0:0:0
328,228,82058,6,0,B|384:268|388:328,1,120,0|0,0:0|0:0,0:0:0
296,352,83149,2,0,B|204:336,1,80,2|0,0:0|0:0,0:0:0
24,84,85330,5,0,0:0:0
120,68,85876,1,0,0:0:0
216,52,86421,1,0,0:0:0
296,108,86967,5,0,0:0:0
392,124,87513,1,0,0:0:0
488,140,88058,1,0,0:0:0
504,236,88603,6,0,B|480:352,2,120
452,156,90240,6,0,B|328:100|228:184,1,240,2|0,0:0|0:0,0:0:0
228,280,91876,6,0,B|332:344,2,120
144,236,93512,2,0,B|108:169|151:100,2,120,0|0|0,0:0|0:0|0:0,0:0:0
220,180,95149,5,0,0:0:0
308,144,95694,1,0,0:0:0
404,156,96240,1,0,0:0:0
496,124,96785,6,0,B|496:56|448:16,2,120,2|2|0,0:0|0:0|0:0,0:0:0
480,220,98421,6,0,B|460:304|334:324|290:250,1,240
344,168,100058,2,0,B|324:83|198:63|154:137,1,240,2|0,0:0|0:0,0:0:0
120,228,101694,2,0,B|108:296|152:340,2,120
216,216,103330,5,2,0:0:0
252,128,103876,1,0,0:0:0
196,48,104421,1,0,0:0:0
100,32,104967,6,0,B|15:87|34:186,2,180,0|2|0,0:0|0:0|0:0,0:0:0
184,76,107149,2,0,B|304:56,1,120,0|0,0:0|0:0,0:0:0
384,108,108240,2,0,B|468:163|449:262,2,180,2|0|2,0:0|0:0|0:0,0:0:0
300,152,110421,2,0,B|180:132,1,120
92,164,111512,6,0,B|72:228,1,60,2|0,0:0|0:0,0:0:0
96,316,112330,2,0,B|156:288|216:316,1,120,2|0,0:0|0:0,0:0:0
256,304,113149,2,0,B|368:380|480:304,1,240,2|2,0:0|0:0,0:0:0
448,212,114785,5,0,0:0:0
355,187,115330,1,0,0:0:0
292,112,115876,1,0,0:0:0
212,56,116421,6,0,B|156:20|96:40,2,120,2|2|0,0:0|0:0|0:0,0:0:0
292,112,118058,6,0,B|348:96,1,60,2|0,0:0|0:0,0:0:0
444,108,118876,2,0,B|516:180|468:288,1,180,2|2,0:0|0:0,0:0:0
380,296,120240,2,0,B|312:280|268:320,1,120,0|2,0:0|0:0,0:0:0
172,340,121330,6,0,B|100:268|148:160,2,180,0|0|2,0:0|0:0|0:0,0:0:0
256,292,123512,2,0,B|372:336,1,120,0|0,0:0|0:0,0:0:0
416,336,124330,6,0,B|480:308|476:236,1,120,2|0,0:0|0:0,0:0:0
392,196,125421,2,0,B|344:136|360:84|312:32,1,180,2|0,0:0|0:0,0:0:0
224,68,126785,1,0,0:0:0
144,124,127330,2,0,B|92:96,1,60,2|0,0:0|0:0,0:0:0
256,192,129512,12,0,131149,3:0:0
464,284,131830,6,0,B|488:168,1,120,2|0,0:0|0:0,0:0:0
448,80,132920,1,0,0:0:0
368,28,133466,2,0,B|320:76|332:144,1,120,4|0,0:0|0:0,0:0:0
360,228,134557,1,0,0:0:0
272,268,135102,6,0,B|200:316|104:224|32:304,1,240,2|2,0:0|0:0,0:0:0
96,376,136739,2,0,B|160:319|152:215|81:168,1,240,4|0,0:0|0:0,0:0:0
36,84,138375,6,0,B|152:56,1,120,2|0,0:0|0:0,0:0:0
232,108,139466,1,0,0:0:0
324,76,140011,2,0,B|388:84|428:128,1,120,4|0,0:0|0:0,0:0:0
472,216,141102,1,0,0:0:0
424,300,141648,6,0,B|380:352|320:356|320:356|296:336|296:336|248:364|184:344,1,240,2|0,0:0|0:0,0:0:0
120,320,143284,2,0,B|49:273|13:155|80:51|161:26,1,360,6|2,0:0|0:0,0:0:0
256,48,145466,5,0,0:0:0
324,116,146011,2,0,B|444:132,1,120,0|2,0:0|0:0,0:0:0
500,208,147102,5,0,0:0:0
420,260,147648,1,0,0:0:0
356,332,148193,6,0,B|288:348|236:312,1,120,2|0,0:0|0:0,0:0:0
148,336,149284,1,0,0:0:0
84,264,149830,6,0,B|64:128,1,120,2|0,0:0|0:0,0:0:0
120,64,150920,1,0,0:0:0
212,92,151466,5,2,0:0:0
284,156,152011,1,0,0:0:0
324,244,152557,1,0,0:0:0
376,324,153102,6,0,B|440:344|496:304,2,120,2|0|0,0:0|0:0|0:0,0:0:0
324,244,154739,5,2,0:0:0
424,208,155284,2,0,B|448:164|436:120,1,90.0000034332277,0|2,0:0|0:0,0:0:0
472,80,156102,6,0,B|372:16|256:88|292:208|292:208|256:200|200:248|224:348|72:340|40:268,1,600,0|0,0:0|0:0,0:3:0
