osu file format v13

[General]
AudioFilename: ga.mp3
AudioLeadIn: 0
PreviewTime: 43720
Countdown: 0
SampleSet: Soft
StackLeniency: 0.7
Mode: 0
LetterboxInBreaks: 0
WidescreenStoryboard: 0

[Editor]
Bookmarks: 19174,21902,32811,38265,65538,87356,98265,103720,109174,131334,152811
DistanceSpacing: 1
BeatDivisor: 4
GridSize: 4
TimelineZoom: 2

[Metadata]
Title:Ghost Assassin (Hourglass Bonusmix)
TitleUnicode:Ghost Assassin (Hourglass Bonusmix)
Artist:Maduk ft. Veela
ArtistUnicode:Maduk ft. Veela
Creator:alacat
Version:Normal
Source:
Tags:drum and bass dnb remix W_h_i_t_e Damnae iyasine Guy collab collaboration
BeatmapID:479210
BeatmapSetID:198820

[Difficulty]
HPDrainRate:3
CircleSize:3
OverallDifficulty:3
ApproachRate:4
SliderMultiplier:1
SliderTickRate:1

[Events]
//Background and Video events
0,0,"bg.jpg",0,0
//Break Periods
2,87556,96945
//Storyboard Layer 0 (Background)
//Storyboard Layer 1 (Fail)
//Storyboard Layer 2 (Pass)
//Storyboard Layer 3 (Foreground)
//Storyboard Sound Samples
//Background Colour Transformations
3,100,0,0,0

[TimingPoints]
84,340.909090909091,4,2,9,30,1,0
21902,-100,4,2,9,40,0,0
32811,-100,4,2,9,20,0,0
38265,-100,4,2,9,40,0,0
40993,-100,4,2,9,50,0,0
42356,-100,4,2,9,40,0,0
43379,-100,4,2,9,70,0,0
65538,-100,4,2,9,60,0,1
65879,-100,4,2,9,60,0,0
87356,-100,4,2,9,40,0,0
91277,-100,4,2,9,35,0,0
103720,-100,4,2,9,25,0,0
106447,-100,4,2,9,32,0,0
107129,-100,4,2,9,40,0,0
107811,-100,4,2,9,40,0,0
108152,-100,4,2,9,45,0,0
108493,-100,4,2,9,35,0,0
108834,-100,4,2,9,80,0,0
109174,-100,4,2,9,60,0,1
130993,-100,4,2,9,60,0,0
131334,-100,4,2,9,60,0,0

[Colours]
Combo1 : 220,185,255
Combo2 : 255,166,255
Combo3 : 187,187,255
Combo4 : 155,255,255
Combo5 : 255,172,214

[HitObjects]
256,192,19174,12,4,21902,0:0:0:0:
180,298,23265,6,0,B|126:281|79:302|79:302|28:291|3:243,1,200,2|0,0:0|0:0,0:0:0:0:
56,160,24288,1,0,0:0:0:0:
152,192,24629,6,0,P|192:108|148:16,2,200,2|0|2,0:0|0:0|0:0,0:0:0:0:
56,160,26334,1,0,0:0:0:0:
8,248,26674,2,0,L|24:348,1,100
116,308,27356,6,0,B|216:332|216:276|316:300,1,200,2|0,0:0|0:0,0:0:0:0:
392,360,28379,1,0,0:0:0:0:
484,324,28720,2,0,P|512:228|468:140,2,200,2|0|2,0:0|0:0|0:0,0:0:0:0:
392,360,30424,5,0,0:0:0:0:
312,300,30765,2,0,L|208:288,1,100
148,212,31447,2,0,B|92:204|52:236|52:236|12:212|24:148,2,200,2|0|2,0:0|0:0|0:0,0:0:0:0:
228,152,33152,6,0,P|280:160|328:156,1,100
396,84,33834,1,0,0:0:0:0:
480,140,34174,2,0,B|458:283|458:283|420:328,1,200,2|0,0:0|0:0,0:0:0:0:
328,352,35197,1,0,0:0:0:0:
244,296,35538,6,0,P|144:296|64:356,2,200,2|0|2,0:0|0:0|0:0,0:0:0:0:
328,352,37243,1,0,0:0:0:0:
416,308,37584,2,0,B|428:260|428:260|428:208,1,100
348,148,38265,6,0,P|354:98|348:48,1,100,0|4,0:0|0:3,0:0:0:0:
256,92,38947,2,0,P|248:144|256:192,1,100,0|4,0:0|0:3,0:0:0:0:
232,288,39629,2,0,P|144:332|52:304,1,200
16,212,40652,1,8,0:0:0:0:
96,148,40993,6,0,P|148:160|188:192,1,100,4|8,0:3|0:0,0:0:0:0:
256,120,41674,2,0,P|294:157|312:205,1,100,4|8,0:3|0:0,0:0:0:0:
284,296,42356,2,0,P|412:356|496:248,1,300,4|8,0:3|0:0,0:0:0:0:
448,160,43720,6,0,P|444:108|448:60,1,100,4|8,0:0|0:0,0:0:0:0:
356,24,44402,2,0,L|256:40,1,100,2|8,0:0|0:0,0:0:0:0:
196,120,45084,1,2,0:0:0:0:
256,200,45424,1,8,0:0:0:0:
208,288,45765,2,0,P|160:300|112:288,1,100,2|8,0:0|0:0,0:0:0:0:
76,196,46447,6,0,L|88:96,2,100,2|8|2,0:0|0:0|0:0,0:0:0:0:
16,276,47470,1,8,0:0:0:0:
76,356,47811,2,0,B|112:372|112:372|176:364,1,100,2|8,0:0|0:0,0:0:0:0:
244,296,48493,1,2,0:0:0:0:
192,212,48834,1,8,0:0:0:0:
256,136,49174,6,0,P|272:88|272:40,2,100,2|8|2,0:0|0:0|0:0,0:0:0:0:
156,120,50197,1,8,0:0:0:0:
92,200,50538,2,0,B|120:300,1,100,2|8,0:0|0:0,0:0:0:0:
192,364,51220,2,0,P|240:352|284:324,1,100,2|8,0:0|0:0,0:0:0:0:
340,244,51902,6,0,P|326:196|328:144,1,100,2|8,0:0|0:0,0:0:0:0:
396,72,52584,1,2,0:0:0:0:
488,112,52924,1,8,0:0:0:0:
468,212,53265,2,0,L|492:312,1,100,2|8,0:0|0:0,0:0:0:0:
400,352,53947,2,0,P|352:340|300:340,1,100,2|8,0:0|0:0,0:0:0:0:
208,372,54629,5,2,0:0:0:0:
176,276,54970,1,8,0:0:0:0:
268,236,55311,2,0,B|288:196|288:196|280:140,1,100,2|8,0:0|0:0,0:0:0:0:
196,84,55993,1,2,0:0:0:0:
116,140,56334,2,0,L|96:244,2,100,8|2|8,0:0|0:0|0:0,0:0:0:0:
208,184,57356,6,0,P|256:188|304:172,1,100,2|8,0:0|0:0,0:0:0:0:
328,76,58038,1,2,0:0:0:0:
240,28,58379,1,8,0:0:0:0:
168,96,58720,2,0,L|68:88,1,100,2|8,0:0|0:0,0:0:0:0:
8,168,59402,2,0,P|0:220|12:268,1,100,2|8,0:0|0:0,0:0:0:0:
112,280,60084,5,2,0:0:0:0:
188,212,60424,1,8,0:0:0:0:
284,240,60765,1,2,0:0:0:0:
368,188,61106,1,8,0:0:0:0:
464,220,61447,2,0,L|484:320,2,100,2|8|2,0:0|0:0|0:0,0:0:0:0:
440,124,62470,1,8,0:0:0:0:
368,56,62811,6,0,P|316:48|268:56,1,100,2|8,0:0|0:0,0:0:0:0:
172,40,63493,2,0,P|139:81|122:126,1,100,2|8,0:0|0:0,0:0:0:0:
164,216,64174,2,0,L|268:204,1,100,2|8,0:0|0:0,0:0:0:0:
344,144,64856,2,0,P|440:156|472:248,1,200,4|2,0:3|0:0,0:0:0:0:
420,328,65879,5,12,0:0:0:0:
328,364,66220,2,0,L|224:352,1,100,2|8,0:0|0:0,0:0:0:0:
144,296,66902,1,2,0:0:0:0:
188,204,67243,1,8,0:0:0:0:
116,136,67584,2,0,P|112:84|124:36,1,100,2|8,0:0|0:0,0:0:0:0:
220,60,68265,6,0,B|292:80|360:40|360:40|388:64|384:92,1,200,2|2,0:0|0:0,0:0:0:0:
336,172,69288,1,8,0:0:0:0:
252,224,69629,2,0,P|200:220|156:200,1,100,2|8,0:0|0:0,0:0:0:0:
76,260,70311,2,0,P|55:307|52:356,1,100,2|8,0:0|0:0,0:0:0:0:
148,332,70993,6,0,B|220:312|288:352|288:352|316:328|312:300,1,200,2|2,0:0|0:0,0:0:0:0:
252,224,72015,1,8,0:0:0:0:
172,164,72356,2,0,L|72:180,2,100,2|8|2,0:0|0:0|0:0,0:0:0:0:
232,84,73379,1,8,0:0:0:0:
316,140,73720,6,0,B|388:160|456:120|456:120|484:144|480:172,1,200,2|2,0:0|0:0,0:0:0:0:
448,260,74743,1,8,0:0:0:0:
372,328,75084,2,0,P|324:344|272:344,2,100,2|8|2,0:0|0:0|0:0,0:0:0:0:
348,232,76106,1,8,0:0:0:0:
272,164,76447,6,0,B|200:144|132:184|132:184|104:160|108:132,1,200,2|2,0:0|0:0,0:0:0:0:
148,44,77470,1,8,0:0:0:0:
244,68,77811,2,0,L|344:48,1,100,2|8,0:0|0:0,0:0:0:0:
432,92,78493,2,0,P|451:137|454:187,1,100,2|8,0:0|0:0,0:0:0:0:
388,264,79174,6,0,B|316:284|248:244|248:244|220:268|224:296,1,200,2|2,0:0|0:0,0:0:0:0:
156,364,80197,1,8,0:0:0:0:
72,308,80538,2,0,L|56:209,1,100,2|8,0:0|0:0,0:0:0:0:
76,112,81220,1,2,0:0:0:0:
168,72,81561,1,8,0:0:0:0:
248,132,81902,6,0,B|320:152|388:112|388:112|416:136|412:164,1,200,2|2,0:0|0:0,0:0:0:0:
352,240,82924,1,8,0:0:0:0:
264,292,83265,2,0,L|164:272,2,100,2|8|2,0:0|0:0|0:0,0:0:0:0:
352,340,84288,1,8,0:0:0:0:
440,296,84629,6,0,B|460:224|420:156|420:156|444:128|472:132,1,200,2|2,0:0|0:0,0:0:0:0:
416,44,85652,1,8,0:0:0:0:
336,104,85993,2,0,L|232:116,1,100,2|8,0:0|0:0,0:0:0:0:
180,200,86674,2,0,P|192:248|216:292,1,100,2|8,0:0|0:0,0:0:0:0:
308,336,87356,5,4,0:0:0:0:
464,164,98265,6,0,B|496:232|496:232|488:304|412:312,1,200,2|2,0:0|0:0,0:0:0:0:
272,172,99629,2,0,B|256:72|256:72|268:44|288:36,2,150,2|2|0,0:0|0:0|0:0,0:0:0:0:
288,272,100993,6,0,P|212:328|112:312,1,200,2|2,0:0|0:0,0:0:0:0:
56,120,102356,2,0,B|35:215|35:215|4:260,2,150,2|2|0,0:0|0:0|0:0,0:0:0:0:
128,52,103720,6,0,L|228:68,1,100,4|8,0:3|0:0,0:0:0:0:
316,116,104402,2,0,L|416:100,1,100,4|8,0:3|0:0,0:0:0:0:
508,140,105084,2,0,B|487:243|432:203|406:313,1,200,4|4,0:3|0:3,0:0:0:0:
324,364,106106,1,8,0:0:0:0:
256,288,106447,6,0,P|204:300|164:332,1,100,4|8,0:3|0:0,0:0:0:0:
68,324,107129,2,0,P|30:287|12:239,1,100,4|8,0:3|0:0,0:0:0:0:
44,148,107811,2,0,P|172:88|256:196,1,300,4|8,0:3|0:0,0:0:0:0:
216,288,109174,6,0,L|117:303,2,100,4|8|2,0:0|0:0|0:0,0:0:0:0:
288,356,110197,1,8,0:0:0:0:
312,260,110538,1,2,0:0:0:0:
240,188,110879,1,8,0:0:0:0:
292,100,111220,2,0,P|340:88|388:100,1,100,2|8,0:0|0:0,0:0:0:0:
436,188,111902,6,0,L|424:288,2,100,2|8|2,0:0|0:0|0:0,0:0:0:0:
496,108,112924,1,8,0:0:0:0:
436,28,113265,2,0,B|400:12|400:12|336:20,1,100,2|8,0:0|0:0,0:0:0:0:
268,88,113947,1,2,0:0:0:0:
320,172,114288,1,8,0:0:0:0:
256,248,114629,6,0,P|220:284|199:327,2,100,2|8|2,0:0|0:0|0:0,0:0:0:0:
356,264,115652,1,8,0:0:0:0:
420,184,115993,2,0,B|428:136|428:136|424:108|400:92,1,100,2|8,0:0|0:0,0:0:0:0:
304,108,116674,2,0,P|256:96|212:68,1,100,2|8,0:0|0:0,0:0:0:0:
132,128,117356,6,0,P|146:176|144:228,1,100,2|8,0:0|0:0,0:0:0:0:
92,312,118038,1,2,0:0:0:0:
4,264,118379,1,8,0:0:0:0:
28,168,118720,2,0,L|16:68,1,100,2|8,0:0|0:0,0:0:0:0:
112,32,119402,2,0,P|160:44|212:44,1,100,2|8,0:0|0:0,0:0:0:0:
304,12,120084,5,2,0:0:0:0:
336,108,120424,1,8,0:0:0:0:
240,144,120765,2,0,B|220:184|220:184|228:240,1,100,2|8,0:0|0:0,0:0:0:0:
308,296,121447,1,2,0:0:0:0:
396,244,121788,2,0,L|416:140,2,100,8|2|8,0:0|0:0|0:0,0:0:0:0:
304,200,122811,6,0,P|256:196|208:212,1,100,2|8,0:0|0:0,0:0:0:0:
156,296,123493,1,2,0:0:0:0:
224,368,123834,1,8,0:0:0:0:
316,324,124174,2,0,L|416:332,1,100,2|8,0:0|0:0,0:0:0:0:
496,268,124856,2,0,P|504:208|492:168,1,100,2|8,0:0|0:0,0:0:0:0:
408,120,125538,5,2,0:0:0:0:
324,172,125879,1,8,0:0:0:0:
228,144,126220,1,2,0:0:0:0:
144,196,126561,1,8,0:0:0:0:
48,164,126902,2,0,L|28:64,2,100,2|8|2,0:0|0:0|0:0,0:0:0:0:
72,260,127924,1,8,0:0:0:0:
144,328,128265,6,0,P|196:336|244:328,1,100,2|8,0:0|0:0,0:0:0:0:
340,344,128947,2,0,P|373:303|390:258,1,100,2|8,0:0|0:0,0:0:0:0:
348,168,129629,2,0,L|244:180,1,100,2|8,0:0|0:0,0:0:0:0:
168,240,130311,2,0,P|72:228|40:136,1,200,2|2,0:0|0:0,0:0:0:0:
92,56,131334,5,12,0:0:0:0:
184,20,131674,2,0,L|288:32,1,100,2|8,0:0|0:0,0:0:0:0:
368,88,132356,1,2,0:0:0:0:
324,180,132697,1,8,0:0:0:0:
396,248,133038,2,0,P|400:300|388:348,1,100,2|8,0:0|0:0,0:0:0:0:
292,320,133720,6,0,L|192:336,1,100,2|8,0:0|0:0,0:0:0:0:
132,256,134402,2,0,L|32:240,2,100,2|8|2,0:0|0:0|0:0,0:0:0:0:
224,216,135424,1,8,0:0:0:0:
288,140,135765,2,0,P|300:88|288:40,1,100,2|8,0:0|0:0,0:0:0:0:
384,16,136447,6,0,L|484:36,1,100,2|8,0:0|0:0,0:0:0:0:
484,136,137129,2,0,L|386:117,1,100,2|8,0:0|0:0,0:0:0:0:
288,140,137811,1,2,0:0:0:0:
244,228,138152,1,8,0:0:0:0:
292,316,138493,2,0,P|340:348|380:364,1,100,2|8,0:0|0:0,0:0:0:0:
440,284,139174,6,0,L|428:184,1,100,2|8,0:0|0:0,0:0:0:0:
336,144,139856,2,0,L|324:44,1,100,2|8,0:0|0:0,0:0:0:0:
224,64,140538,2,0,P|176:48|124:48,2,100,2|8|2,0:0|0:0|0:0,0:0:0:0:
236,164,141561,1,8,0:0:0:0:
304,236,141902,6,0,P|352:252|404:252,2,100,2|8|2,0:0|0:0|0:0,0:0:0:0:
236,164,142924,1,8,0:0:0:0:
168,88,143265,2,0,P|116:100|80:128,1,100,2|8,0:0|0:0,0:0:0:0:
104,224,143947,2,0,L|80:324,1,100,2|8,0:0|0:0,0:0:0:0:
168,372,144629,6,0,L|192:275,1,100,2|8,0:0|0:0,0:0:0:0:
256,196,145311,1,2,0:0:0:0:
348,236,145652,1,8,0:0:0:0:
404,152,145993,2,0,L|388:52,2,100,2|8|2,0:0|0:0|0:0,0:0:0:0:
484,216,147015,1,8,0:0:0:0:
436,304,147356,6,0,P|396:332|344:344,1,100,2|8,0:0|0:0,0:0:0:0:
256,304,148038,1,2,0:0:0:0:
288,208,148379,1,8,0:0:0:0:
200,156,148720,2,0,L|100:176,2,100,2|8|2,0:0|0:0|0:0,0:0:0:0:
256,76,149743,1,8,0:0:0:0:
344,124,150084,6,0,P|396:120|436:96,2,100,2|8|2,0:0|0:0|0:0,0:0:0:0:
288,208,151106,1,8,0:0:0:0:
200,156,151447,2,0,L|96:144,1,100,2|8,0:0|0:0,0:0:0:0:
16,200,152129,2,0,P|8:260|16:300,1,100,2|8,0:0|0:0,0:0:0:0:
92,364,152811,5,4,1:0:0:0:
