osu file format v14

[General]
AudioFilename: ga.mp3
AudioLeadIn: 0
PreviewTime: -1
Countdown: 1
SampleSet: Normal
StackLeniency: 0.7
Mode: 0
LetterboxInBreaks: 1
WidescreenStoryboard: 1

[Editor]
DistanceSpacing: 0.8
BeatDivisor: 4
GridSize: 4
TimelineZoom: 4.499999

[Metadata]
Title:Ghost Assassin (Hourglass Bonusmix)
TitleUnicode:Ghost Assassin (Hourglass Bonusmix)
Artist:Maduk ft. Veela
ArtistUnicode:Maduk ft. Veela
Creator:YoU_kno
Version:diff
Source:
Tags:drum and bass dnb veela ar10 jump training practice
BeatmapID:722277
BeatmapSetID:325133

[Difficulty]
HPDrainRate:7
CircleSize:4
OverallDifficulty:7.8
ApproachRate:9.4
SliderMultiplier:1.7
SliderTickRate:1

[Events]
//Background and Video events
0,0,"11475663866_e214f6e03e_o.jpg",0,0
//Break Periods
2,87386,103180
//Storyboard Layer 0 (Background)
//Storyboard Layer 1 (Fail)
//Storyboard Layer 2 (Pass)
//Storyboard Layer 3 (Foreground)
//Storyboard Sound Samples

[TimingPoints]
84,340.909090909091,4,1,0,75,1,0
21902,-100,4,1,0,75,0,0
43379,-76.9230769230769,4,1,0,75,0,0
65538,-133.333333333333,4,1,0,75,0,0
65879,-66.6666666666667,4,1,0,75,0,0
83265,-133.333333333333,4,1,0,75,0,0
83606,-66.6666666666667,4,1,0,75,0,0
103720,-100,4,1,0,75,0,0
108834,-57.1428571428571,4,1,0,75,0,0
130993,-133.333333333333,4,1,0,75,0,0
131334,-71.4285714285714,4,1,0,75,0,0

[HitObjects]
120,48,21902,6,0,L|136:148,1,85
108,256,22243,2,0,P|180:252|224:272,1,85
328,208,22584,1,0,0:0:0:0:
392,288,22754,1,0,0:0:0:0:
292,292,22924,2,0,P|224:288|188:256,1,85
124,184,23265,2,0,P|192:184|224:204,1,85
324,292,23606,2,0,B|368:264|368:264|392:196,1,85
304,100,23947,5,0,0:0:0:0:
424,140,24118,1,0,0:0:0:0:
284,200,24288,1,0,0:0:0:0:
376,56,24459,1,0,0:0:0:0:
424,200,24629,2,0,L|464:320,2,85
340,176,25140,2,0,P|276:216|180:188,1,170
264,72,25652,2,0,B|216:160|276:240|276:240|236:256|188:232,1,255
132,252,26334,2,0,P|168:304|216:316,1,85
348,256,26674,1,0,0:0:0:0:
236,192,26845,2,0,P|284:176|344:144,1,85
444,260,27186,1,0,0:0:0:0:
288,312,27527,6,0,L|200:328,2,85
176,252,28038,2,0,P|124:272|76:252,1,85
160,160,28379,2,0,P|160:112|192:80,1,85
260,188,28720,2,0,P|344:224|304:116,1,255
192,124,29402,1,0,0:0:0:0:
220,220,29572,1,0,0:0:0:0:
164,304,29743,2,0,P|108:292|76:260,1,85
228,240,30084,2,0,P|288:228|332:248,1,85
440,300,30424,2,0,L|472:128,1,170
360,176,30936,1,0,0:0:0:0:
300,288,31106,6,0,P|244:328|196:324,1,85
120,200,31447,2,0,L|88:288,1,85
52,140,31788,1,0,0:0:0:0:
52,140,31959,1,0,0:0:0:0:
172,96,32129,2,0,P|232:84|268:92,1,85
304,108,32385,1,0,0:0:0:0:
304,108,32470,2,0,P|352:128|400:128,1,85
440,224,32811,1,0,0:0:0:0:
340,304,32981,1,0,0:0:0:0:
316,180,33152,2,0,P|364:144|280:132,1,170
224,156,33834,6,0,P|200:208|160:224,1,85
168,304,34174,2,0,P|256:256|300:172,1,170
140,120,34856,1,0,0:0:0:0:
140,120,35027,1,0,0:0:0:0:
228,72,35197,2,0,L|252:176,1,85
376,268,35538,2,0,L|368:160,2,85
256,312,36049,1,0,0:0:0:0:
256,312,36220,2,0,P|176:296|152:264,1,85
196,128,36561,1,0,0:0:0:0:
96,208,36731,1,0,0:0:0:0:
76,80,36902,6,0,B|108:48|168:56|168:56|212:96|272:80,1,170
328,56,37413,1,0,0:0:0:0:
328,56,37584,2,0,L|340:144,1,85
228,268,37924,2,0,L|220:184,1,85
392,192,38265,2,0,P|404:260|380:300,1,85
248,180,38606,2,0,P|224:120|244:72,1,85
348,64,38947,5,0,0:0:0:0:
308,228,39288,1,0,0:0:0:0:
184,112,39629,1,0,0:0:0:0:
432,176,39970,1,0,0:0:0:0:
216,316,40311,1,0,0:0:0:0:
176,64,40652,1,0,0:0:0:0:
304,176,40993,5,0,0:0:0:0:
192,268,41163,1,0,0:0:0:0:
212,100,41334,1,0,0:0:0:0:
268,308,41504,1,0,0:0:0:0:
368,76,41674,1,0,0:0:0:0:
448,228,41845,1,0,0:0:0:0:
200,180,42015,1,0,0:0:0:0:
448,228,42186,1,0,0:0:0:0:
288,280,42356,5,0,0:0:0:0:
259,294,42441,1,0,0:0:0:0:
231,308,42526,1,0,0:0:0:0:
203,322,42611,1,0,0:0:0:0:
178,315,42696,1,0,0:0:0:0:
168,286,42782,1,0,0:0:0:0:
169,254,42867,1,0,0:0:0:0:
169,223,42952,1,0,0:0:0:0:
163,192,43037,1,0,0:0:0:0:
145,167,43123,1,0,0:0:0:0:
117,155,43208,1,0,0:0:0:0:
76,164,43294,1,0,0:0:0:0:
44,192,43379,6,0,P|80:124|68:80,1,110.499994941712
240,68,43720,2,0,L|304:160,1,110.499994941712
296,324,44061,2,0,L|296:256,1,55.2499974708558
200,184,44231,2,0,L|258:218,1,55.2499974708558
380,180,44402,2,0,L|321:214,1,55.2499974708558
208,288,44572,1,0,0:0:0:0:
208,288,44743,2,0,P|140:304|100:292,1,110.499994941712
224,180,45084,5,0,0:0:0:0:
332,152,45254,1,0,0:0:0:0:
344,44,45424,1,0,0:0:0:0:
420,228,45595,1,0,0:0:0:0:
208,164,45765,2,0,P|152:156|88:176,1,110.499994941712
320,204,46106,2,0,P|372:160|384:108,1,110.499994941712
216,132,46447,2,0,L|136:140,1,55.2499974708558
172,220,46618,2,0,L|88:228,1,55.2499974708558
76,152,46788,5,0,0:0:0:0:
200,40,46959,1,0,0:0:0:0:
244,224,47129,2,0,L|276:348,1,110.499994941712
420,216,47470,1,0,0:0:0:0:
212,292,47640,1,0,0:0:0:0:
348,116,47811,2,0,P|308:168|260:176,1,110.499994941712
188,156,48066,1,0,0:0:0:0:
188,156,48152,2,0,L|156:264,1,110.499994941712
316,216,48493,1,0,0:0:0:0:
120,116,48663,1,0,0:0:0:0:
276,64,48834,1,0,0:0:0:0:
252,172,49004,1,0,0:0:0:0:
144,200,49174,6,0,P|64:200|16:240,1,110.499994941712
164,328,49515,1,0,0:0:0:0:
284,168,49686,1,0,0:0:0:0:
392,296,49856,2,0,P|308:300|280:288,1,110.499994941712
376,192,50197,2,0,L|484:172,1,110.499994941712
324,72,50538,1,0,0:0:0:0:
268,192,50709,1,0,0:0:0:0:
136,200,50879,2,0,P|72:224|136:176,1,220.999989883423
188,312,51390,5,0,0:0:0:0:
188,312,51561,2,0,L|224:208,1,110.499994941712
364,120,51902,1,0,0:0:0:0:
100,72,52072,1,0,0:0:0:0:
212,224,52243,1,0,0:0:0:0:
212,224,52413,1,0,0:0:0:0:
180,36,52584,2,0,B|164:116|164:116|128:148,1,110.499994941712
284,136,52924,1,0,0:0:0:0:
256,300,53095,1,0,0:0:0:0:
116,212,53265,6,0,P|104:176|108:152,1,55.2499974708558
184,80,53436,2,0,P|196:116|192:140,1,55.2499974708558
108,236,53606,2,0,P|88:196|96:124,1,110.499994941712
268,60,53947,1,0,0:0:0:0:
188,232,54118,1,0,0:0:0:0:
344,176,54288,1,0,0:0:0:0:
340,308,54459,1,0,0:0:0:0:
224,248,54629,6,0,L|84:284,1,110.499994941712
200,108,54970,1,0,0:0:0:0:
88,196,55140,1,0,0:0:0:0:
172,312,55311,2,0,L|252:212,1,110.499994941712
292,104,55652,2,0,P|220:76|200:40,1,110.499994941712
420,104,55993,2,0,P|380:184|356:200,1,110.499994941712
236,164,56334,1,0,0:0:0:0:
400,256,56504,1,0,0:0:0:0:
176,204,56674,1,0,0:0:0:0:
363,201,56844,1,0,0:0:0:0:
120,244,57015,6,0,P|132:160|100:108,1,110.499994941712
20,56,57356,2,0,L|160:36,1,110.499994941712
304,116,57697,1,0,0:0:0:0:
248,248,57868,1,0,0:0:0:0:
256,64,58038,2,0,P|200:80|168:120,1,110.499994941712
296,300,58379,2,0,P|352:284|384:244,1,110.499994941712
260,172,58720,1,0,0:0:0:0:
196,112,58890,1,0,0:0:0:0:
108,100,59061,1,0,0:0:0:0:
172,252,59231,1,0,0:0:0:0:
264,112,59402,1,0,0:0:0:0:
316,304,59572,5,0,0:0:0:0:
316,304,59657,1,0,0:0:0:0:
316,304,59743,2,0,P|352:236|352:176,1,110.499994941712
160,168,60084,1,0,0:0:0:0:
412,60,60254,1,0,0:0:0:0:
296,248,60424,1,0,0:0:0:0:
268,140,60595,1,0,0:0:0:0:
172,84,60765,1,0,0:0:0:0:
208,212,60936,2,0,P|128:184|76:196,2,110.499994941712
276,328,61447,6,0,P|296:288|296:264,1,55.2499974708558
328,172,61618,2,0,P|352:204|360:232,1,55.2499974708558
380,328,61788,2,0,P|312:352|232:328,1,110.499994941712
156,188,62129,1,0,0:0:0:0:
212,308,62299,1,0,0:0:0:0:
320,216,62470,2,0,P|300:124|264:92,1,110.499994941712
128,208,62811,1,0,0:0:0:0:
128,208,62981,1,0,0:0:0:0:
276,128,63152,1,0,0:0:0:0:
348,276,63322,1,0,0:0:0:0:
184,240,63493,6,0,P|100:240|60:272,1,110.499994941712
160,48,63834,2,0,P|160:140|168:160,1,110.499994941712
148,344,64174,2,0,L|76:248,2,110.499994941712
224,168,64686,1,0,0:0:0:0:
308,296,64856,1,0,0:0:0:0:
308,296,64941,1,0,0:0:0:0:
308,296,65027,1,0,0:0:0:0:
156,268,65197,2,0,L|92:256,1,55.2499974708558
156,160,65368,5,0,0:0:0:0:
164,104,65453,1,0,0:0:0:0:
200,64,65538,2,0,P|253:89|264:44,1,95.6250036478044
312,24,65879,2,0,P|296:104|248:152,1,127.500004863739
148,176,66220,1,0,0:0:0:0:
208,288,66390,1,0,0:0:0:0:
344,104,66561,1,0,0:0:0:0:
284,216,66731,1,0,0:0:0:0:
136,40,66902,6,0,P|139:123|108:176,1,127.500004863739
128,316,67243,1,0,0:0:0:0:
280,308,67413,1,0,0:0:0:0:
308,156,67584,1,0,0:0:0:0:
200,344,67754,1,0,0:0:0:0:
364,204,67924,2,0,L|364:72,1,127.500004863739
164,164,68265,1,0,0:0:0:0:
380,300,68436,1,0,0:0:0:0:
280,68,68606,5,0,0:0:0:0:
292,156,68777,1,0,0:0:0:0:
304,244,68947,1,0,0:0:0:0:
440,108,69118,1,0,0:0:0:0:
224,244,69288,1,0,0:0:0:0:
300,96,69459,1,0,0:0:0:0:
136,108,69629,2,0,B|80:144|24:128|24:128|32:156,1,127.500004863739
80,224,69970,2,0,P|88:304|76:348,1,127.500004863739
156,176,70311,5,0,0:0:0:0:
332,108,70481,1,0,0:0:0:0:
244,308,70652,1,0,0:0:0:0:
276,184,70822,1,0,0:0:0:0:
160,132,70993,2,0,P|108:96|128:180,1,191.250007295609
176,176,71334,2,0,P|100:232|116:288,1,127.500004863739
188,244,71674,1,0,0:0:0:0:
288,260,71845,1,0,0:0:0:0:
388,272,72015,1,0,0:0:0:0:
212,352,72186,1,0,0:0:0:0:
324,196,72356,6,0,P|336:148|328:128,1,63.7500024318696
244,96,72527,2,0,P|239:127|252:156,1,63.7500024318696
352,236,72697,2,0,P|376:160|352:104,1,127.500004863739
116,44,73038,2,0,L|148:188,1,127.500004863739
288,296,73379,1,0,0:0:0:0:
264,144,73549,1,0,0:0:0:0:
136,336,73720,2,0,B|192:276|192:276|192:208,1,127.500004863739
376,48,74061,2,0,B|320:108|320:108|320:176,1,127.500004863739
240,328,74402,2,0,L|240:196,1,127.500004863739
76,104,74743,5,0,0:0:0:0:
296,228,74913,1,0,0:0:0:0:
184,72,75084,1,0,0:0:0:0:
176,264,75254,1,0,0:0:0:0:
300,156,75424,2,0,P|400:164|436:192,1,127.500004863739
328,264,75765,2,0,P|264:276|228:228,1,127.500004863739
252,132,76106,2,0,P|187:121|170:63,1,127.500004863739
296,40,76447,5,0,0:0:0:0:
232,248,76618,1,0,0:0:0:0:
140,80,76788,1,0,0:0:0:0:
388,136,76959,1,0,0:0:0:0:
204,192,77129,1,0,0:0:0:0:
304,272,77299,1,0,0:0:0:0:
188,324,77470,2,0,L|52:332,1,127.500004863739
132,196,77811,5,0,0:0:0:0:
308,96,77981,1,0,0:0:0:0:
160,220,78152,2,0,B|160:280|136:324|136:324|120:296,1,127.500004863739
92,252,78407,1,0,0:0:0:0:
92,252,78493,2,0,P|80:176|52:124,1,127.500004863739
184,120,78834,1,0,0:0:0:0:
316,196,79004,1,0,0:0:0:0:
344,44,79174,2,0,P|352:136|384:172,1,127.500004863739
452,260,79515,6,0,P|408:276|380:276,1,63.7500024318696
304,208,79686,2,0,P|276:252|280:288,1,63.7500024318696
352,336,79856,2,0,P|388:272|392:208,1,127.500004863739
232,112,80197,1,0,0:0:0:0:
232,112,80368,1,0,0:0:0:0:
312,240,80538,2,0,P|232:240|188:268,1,127.500004863739
268,332,80879,1,0,0:0:0:0:
192,156,81049,1,0,0:0:0:0:
408,192,81220,1,0,0:0:0:0:
304,32,81390,1,0,0:0:0:0:
284,208,81561,1,0,0:0:0:0:
120,108,81731,1,0,0:0:0:0:
304,32,81902,6,0,P|284:112|224:132,1,127.500004863739
56,140,82243,1,0,0:0:0:0:
184,220,82413,1,0,0:0:0:0:
337,220,82584,1,0,0:0:0:0:
456,140,82754,1,0,0:0:0:0:
244,96,82924,1,0,0:0:0:0:
304,304,83095,1,0,0:0:0:0:
456,140,83265,2,0,B|448:80|420:68|420:68|388:72,1,95.6250036478044
376,100,83606,2,0,P|324:132|244:128,1,127.500004863739
172,156,83947,5,0,0:0:0:0:
304,52,84118,1,0,0:0:0:0:
268,240,84288,1,0,0:0:0:0:
364,204,84459,1,0,0:0:0:0:
452,256,84629,2,0,P|424:324|372:356,1,127.500004863739
216,256,84970,2,0,L|196:196,1,63.7500024318696
152,112,85140,2,0,P|100:128|44:120,1,63.7500024318696
72,224,85311,2,0,P|68:296|44:348,1,127.500004863739
180,248,85652,5,0,0:0:0:0:
336,188,85822,1,0,0:0:0:0:
212,76,85993,2,0,L|172:208,1,127.500004863739
392,168,86334,2,0,L|428:45,1,127.500004863739
244,156,86674,1,0,0:0:0:0:
348,268,86845,1,0,0:0:0:0:
256,220,87015,1,0,0:0:0:0:
320,220,87186,1,0,0:0:0:0:
248,192,103720,5,0,0:0:0:0:
248,192,104061,1,0,0:0:0:0:
216,180,104402,1,0,0:0:0:0:
296,212,104743,1,0,0:0:0:0:
236,132,105084,1,0,0:0:0:0:
260,248,105424,1,0,0:0:0:0:
320,108,105765,1,0,0:0:0:0:
192,244,106106,1,0,0:0:0:0:
392,152,106447,5,0,0:0:0:0:
144,192,106618,1,0,0:0:0:0:
400,264,106788,1,0,0:0:0:0:
180,72,106959,1,0,0:0:0:0:
296,352,107129,1,0,0:0:0:0:
288,28,107299,1,0,0:0:0:0:
196,224,107470,1,0,0:0:0:0:
132,84,107640,1,0,0:0:0:0:
336,136,107811,5,0,0:0:0:0:
371,151,107896,1,0,0:0:0:0:
392,184,107981,1,0,0:0:0:0:
392,223,108066,1,0,0:0:0:0:
370,255,108151,1,0,0:0:0:0:
333,269,108237,1,0,0:0:0:0:
295,261,108322,1,0,0:0:0:0:
268,234,108407,1,0,0:0:0:0:
261,195,108492,5,0,0:0:0:0:
276,160,108578,1,0,0:0:0:0:
309,140,108663,1,0,0:0:0:0:
349,143,108748,1,0,0:0:0:0:
388,168,108834,2,0,P|368:260|316:272,1,148.750001418591
164,193,109174,1,0,0:0:0:0:
234,60,109345,1,0,0:0:0:0:
365,130,109515,1,0,0:0:0:0:
295,261,109686,1,0,0:0:0:0:
164,193,109856,2,0,P|176:112|144:52,1,148.750001418591
276,128,110197,5,0,0:0:0:0:
320,112,110282,1,0,0:0:0:0:
364,116,110368,1,0,0:0:0:0:
404,132,110453,1,0,0:0:0:0:
440,156,110538,2,0,P|460:216|432:296,1,148.750001418591
256,268,110879,1,0,0:0:0:0:
328,140,111049,1,0,0:0:0:0:
404,304,111220,1,0,0:0:0:0:
164,224,111390,1,0,0:0:0:0:
304,48,111561,5,0,0:0:0:0:
340,84,111646,1,0,0:0:0:0:
388,104,111731,1,0,0:0:0:0:
440,100,111816,1,0,0:0:0:0:
488,80,111902,2,0,L|460:232,1,148.750001418591
364,296,112243,2,0,P|320:312|284:308,1,74.3750007092953
212,224,112413,2,0,P|152:208|100:236,1,74.3750007092953
72,296,112584,2,0,P|124:224|128:140,1,148.750001418591
264,44,112924,1,0,0:0:0:0:
348,200,113095,1,0,0:0:0:0:
152,128,113265,6,0,L|112:296,1,148.750001418591
316,116,113606,1,0,0:0:0:0:
368,332,113777,1,0,0:0:0:0:
164,248,113947,1,0,0:0:0:0:
452,168,114118,1,0,0:0:0:0:
204,268,114288,1,0,0:0:0:0:
228,180,114459,1,0,0:0:0:0:
264,100,114629,2,0,P|228:28|192:88,1,148.750001418591
164,124,114885,1,0,0:0:0:0:
164,124,114970,2,0,B|136:192|136:192|88:260,1,148.750001418591
272,268,115311,5,0,0:0:0:0:
392,184,115481,1,0,0:0:0:0:
216,204,115652,1,0,0:0:0:0:
96,120,115822,1,0,0:0:0:0:
228,52,115993,2,0,P|224:96|192:136,1,74.3750007092953
152,172,116163,2,0,P|118:200|67:205,1,74.3750007092953
56,100,116334,2,0,P|132:104|188:156,1,148.750001418591
228,212,116674,2,0,P|237:287|195:351,1,148.750001418591
96,240,117015,1,0,0:0:0:0:
320,124,117186,1,0,0:0:0:0:
144,132,117356,1,0,0:0:0:0:
348,280,117527,1,0,0:0:0:0:
156,268,117697,5,0,0:0:0:0:
196,236,117782,1,0,0:0:0:0:
216,188,117868,1,0,0:0:0:0:
208,136,117953,1,0,0:0:0:0:
168,104,118038,2,0,B|224:84|268:56|268:56|300:52|320:80,1,148.750001418591
384,132,118379,1,0,0:0:0:0:
428,228,118549,1,0,0:0:0:0:
448,64,118720,1,0,0:0:0:0:
344,192,118890,1,0,0:0:0:0:
180,188,119061,1,0,0:0:0:0:
280,60,119231,1,0,0:0:0:0:
232,308,119402,6,0,P|248:224|228:160,1,148.750001418591
76,76,119743,2,0,P|84:128|96:156,1,74.3750007092953
176,244,119913,2,0,P|208:188|208:156,1,74.3750007092953
300,60,120084,2,0,P|304:160|340:216,1,148.750001418591
420,260,120339,1,0,0:0:0:0:
420,260,120424,2,0,L|256:276,1,148.750001418591
136,216,120765,2,0,P|156:156|144:64,1,148.750001418591
260,168,121106,1,0,0:0:0:0:
392,100,121277,1,0,0:0:0:0:
260,172,121447,2,0,P|240:256|196:308,1,148.750001418591
76,224,121788,5,0,0:0:0:0:
134,85,121959,1,0,0:0:0:0:
298,155,122129,1,0,0:0:0:0:
217,346,122299,1,0,0:0:0:0:
76,224,122470,2,0,L|176:112,1,148.750001418591
472,96,122811,2,0,L|372:206,1,148.750001418591
264,308,123152,2,0,P|196:264|104:256,1,148.750001418591
264,188,123493,5,0,0:0:0:0:
347,104,123663,1,0,0:0:0:0:
262,19,123834,1,0,0:0:0:0:
156,160,124004,1,0,0:0:0:0:
260,304,124174,2,0,P|296:220|280:164,1,148.750001418591
216,104,124430,1,0,0:0:0:0:
216,104,124515,2,0,P|104:148|104:168,1,148.750001418591
164,288,124856,1,0,0:0:0:0:
80,128,125027,1,0,0:0:0:0:
40,240,125197,1,0,0:0:0:0:
164,72,125368,1,0,0:0:0:0:
212,304,125538,6,0,L|372:268,1,148.750001418591
384,124,125879,2,0,P|332:196|296:140,1,148.750001418591
244,40,126220,1,0,0:0:0:0:
244,40,126390,1,0,0:0:0:0:
100,212,126561,1,0,0:0:0:0:
316,164,126731,1,0,0:0:0:0:
244,40,126902,1,0,0:0:0:0:
244,40,127072,1,0,0:0:0:0:
188,192,127243,1,0,0:0:0:0:
116,96,127413,1,0,0:0:0:0:
204,216,127584,1,0,0:0:0:0:
272,120,127754,1,0,0:0:0:0:
192,280,127924,1,0,0:0:0:0:
96,164,128095,1,0,0:0:0:0:
164,328,128265,5,0,0:0:0:0:
208,320,128351,1,0,0:0:0:0:
248,340,128436,1,0,0:0:0:0:
292,332,128521,1,0,0:0:0:0:
348,348,128606,2,0,P|364:292|360:196,1,148.750001418591
276,80,128947,5,0,0:0:0:0:
228,104,129032,1,0,0:0:0:0:
176,100,129118,1,0,0:0:0:0:
132,72,129203,1,0,0:0:0:0:
144,20,129288,2,0,P|184:88|164:164,1,148.750001418591
96,248,129629,5,0,0:0:0:0:
124,284,129714,1,0,0:0:0:0:
168,292,129799,1,0,0:0:0:0:
212,280,129885,1,0,0:0:0:0:
256,244,129970,2,0,B|312:192|312:192|384:176,1,148.750001418591
400,280,130311,5,0,0:0:0:0:
364,232,130396,1,0,0:0:0:0:
336,180,130481,1,0,0:0:0:0:
308,128,130566,1,0,0:0:0:0:
280,76,130652,2,0,P|216:80|188:100,1,74.3750007092953
124,208,130822,2,0,L|220:152,1,74.3750007092953
252,180,130993,2,0,P|320:148|344:156,1,95.6250036478044
392,136,131334,2,0,P|320:112|264:132,1,118.999996368408
176,268,131674,5,0,0:0:0:0:
212,92,131845,1,0,0:0:0:0:
112,156,132015,1,0,0:0:0:0:
292,160,132186,1,0,0:0:0:0:
200,84,132356,1,0,0:0:0:0:
260,252,132527,1,0,0:0:0:0:
384,48,132697,1,0,0:0:0:0:
420,136,132868,1,0,0:0:0:0:
388,224,133038,1,0,0:0:0:0:
484,216,133209,1,0,0:0:0:0:
420,136,133379,6,0,L|296:100,1,118.999996368408
208,168,133720,1,0,0:0:0:0:
148,300,133890,1,0,0:0:0:0:
160,120,134061,2,0,P|92:88|36:96,1,118.999996368408
128,224,134402,1,0,0:0:0:0:
256,68,134572,1,0,0:0:0:0:
284,244,134743,2,0,L|300:304,1,59.4999981842042
336,156,134913,2,0,L|400:148,1,59.4999981842042
244,160,135084,2,0,P|148:132|100:144,1,118.999996368408
204,296,135424,5,0,0:0:0:0:
368,224,135595,1,0,0:0:0:0:
340,24,135765,1,0,0:0:0:0:
216,200,135936,1,0,0:0:0:0:
292,168,136106,1,0,0:0:0:0:
224,116,136277,1,0,0:0:0:0:
212,280,136447,2,0,P|288:272|324:240,1,118.999996368408
172,56,136788,2,0,P|88:88|64:136,1,118.999996368408
136,276,137129,2,0,L|152:144,1,118.999996368408
32,136,137470,1,0,0:0:0:0:
296,276,137640,1,0,0:0:0:0:
112,188,137811,2,0,L|128:56,1,118.999996368408
352,144,138152,5,0,0:0:0:0:
188,316,138322,1,0,0:0:0:0:
80,104,138493,2,0,P|148:60|208:64,1,118.999996368408
276,212,138834,1,0,0:0:0:0:
412,64,139004,1,0,0:0:0:0:
448,300,139174,1,0,0:0:0:0:
316,32,139345,1,0,0:0:0:0:
208,336,139515,2,0,P|128:344|84:320,1,118.999996368408
208,64,139856,2,0,P|252:128|236:204,1,118.999996368408
168,252,140197,5,0,0:0:0:0:
268,75,140368,1,0,0:0:0:0:
442,176,140538,1,0,0:0:0:0:
341,351,140709,1,0,0:0:0:0:
248,200,140879,1,0,0:0:0:0:
312,268,141049,1,0,0:0:0:0:
220,284,141220,2,0,P|136:300|80:300,1,118.999996368408
164,200,141561,1,0,0:0:0:0:
204,64,141731,1,0,0:0:0:0:
120,108,141902,2,0,P|124:224|152:272,1,118.999996368408
304,212,142243,5,0,0:0:0:0:
132,320,142413,1,0,0:0:0:0:
304,212,142584,1,0,0:0:0:0:
400,332,142754,1,0,0:0:0:0:
252,148,142924,1,0,0:0:0:0:
124,272,143095,1,0,0:0:0:0:
312,92,143265,1,0,0:0:0:0:
72,100,143436,1,0,0:0:0:0:
196,228,143606,1,0,0:0:0:0:
356,52,143777,1,0,0:0:0:0:
188,116,143947,6,0,P|200:184|248:232,1,118.999996368408
400,164,144288,1,0,0:0:0:0:
400,164,144459,1,0,0:0:0:0:
188,116,144629,2,0,P|200:184|248:232,1,118.999996368408
344,264,144970,2,0,P|408:268|460:304,1,118.999996368408
168,260,145311,2,0,P|104:264|52:300,1,118.999996368408
264,172,145652,2,0,P|304:116|312:52,1,118.999996368408
148,136,145993,2,0,P|141:204|166:263,1,118.999996368408
324,316,146334,5,0,0:0:0:0:
372,236,146504,1,0,0:0:0:0:
256,100,146674,1,0,0:0:0:0:
192,172,146845,1,0,0:0:0:0:
428,156,147015,2,0,P|448:88|432:32,1,118.999996368408
184,208,147356,2,0,P|164:276|180:332,1,118.999996368408
340,152,147697,1,0,0:0:0:0:
104,116,147868,1,0,0:0:0:0:
276,72,148038,1,0,0:0:0:0:
152,204,148209,1,0,0:0:0:0:
372,56,148379,6,0,P|392:164|376:204,1,118.999996368408
376,312,148720,2,0,P|304:328|248:308,1,118.999996368408
148,148,149061,1,0,0:0:0:0:
216,244,149231,1,0,0:0:0:0:
356,96,149402,1,0,0:0:0:0:
116,248,149572,1,0,0:0:0:0:
184,332,149743,2,0,P|256:328|308:288,1,118.999996368408
72,220,150084,2,0,P|152:256|204:248,1,118.999996368408
296,120,150424,5,0,0:0:0:0:
360,248,150595,1,0,0:0:0:0:
220,232,150765,1,0,0:0:0:0:
400,76,150936,1,0,0:0:0:0:
244,332,151106,1,0,0:0:0:0:
40,112,151277,1,0,0:0:0:0:
400,76,151447,1,0,0:0:0:0:
136,160,151618,1,0,0:0:0:0:
320,12,151788,5,0,0:0:0:0:
248,176,151959,1,0,0:0:0:0:
228,36,152129,1,0,0:0:0:0:
200,128,152299,1,0,0:0:0:0:
236,216,152470,1,0,0:0:0:0:
324,252,152640,1,0,0:0:0:0:
404,200,152811,1,0,0:0:0:0:
