osu file format v14

[General]
AudioFilename: ga.mp3
AudioLeadIn: 0
PreviewTime: -1
Countdown: 1
SampleSet: Normal
StackLeniency: 0.7
Mode: 0
LetterboxInBreaks: 1
WidescreenStoryboard: 1

[Editor]
DistanceSpacing: 1.5
BeatDivisor: 4
GridSize: 4
TimelineZoom: 4.499999

[Metadata]
Title:Ghost Assassin (Hourglass Bonusmix)
TitleUnicode:Ghost Assassin (Hourglass Bonusmix)
Artist:Maduk ft. Veela
ArtistUnicode:Maduk ft. Veela
Creator:YoU_kno
Version:Yuristar
Source:
Tags:drum and bass dnb veela ar10 jump training practice
BeatmapID:780279
BeatmapSetID:325133

[Difficulty]
HPDrainRate:7
CircleSize:4
OverallDifficulty:7.8
ApproachRate:9.2
SliderMultiplier:1.8
SliderTickRate:1

[Events]
//Background and Video events
0,0,"11475663866_e214f6e03e_o.jpg",0,0
//Break Periods
2,87385,103150
//Storyboard Layer 0 (Background)
//Storyboard Layer 1 (Fail)
//Storyboard Layer 2 (Pass)
//Storyboard Layer 3 (Foreground)
//Storyboard Sound Samples

[TimingPoints]
84,340.909090909091,4,1,0,75,1,0
184,-133.333333333333,4,1,0,75,0,0
34174,-133.333333333333,4,1,0,75,0,0
38265,-100,4,1,0,75,0,0
40993,-100,4,1,0,75,0,1
43379,-55.5555555555556,4,1,0,75,0,1
43720,-83.3333333333333,4,1,0,75,0,1
65538,-133.333333333333,4,1,0,75,0,0
65879,-71.4285714285714,4,1,0,75,0,0
66220,-86.9565217391304,4,1,0,75,0,0
76447,-74.0740740740741,4,1,0,75,0,0
108834,-58.8235294117647,4,1,0,75,0,0
109515,-80,4,1,0,75,0,0
130993,-125,4,1,0,75,0,0
131334,-66.6666666666667,4,1,0,75,0,1
139515,-62.5,4,1,0,75,0,1

[HitObjects]
256,192,21902,12,0,22754,0:0:0:0:
32,136,22924,6,0,B|84:156|128:128|128:128|160:144|160:144|204:124|248:144,1,202.500007724762
356,68,23606,2,0,L|384:152,1,67.5000025749208
292,184,23947,2,0,L|320:268,1,67.5000025749208
408,280,24288,1,0,0:0:0:0:
448,188,24459,1,0,0:0:0:0:
364,132,24629,2,0,B|308:196|212:140|212:140|188:148|180:176|180:176|223:219|200:252|200:252|216:288,1,337.500012874604
112,284,25652,1,0,0:0:0:0:
112,284,25993,2,0,B|76:240|78:206|78:206|28:240,2,135.000005149842
196,224,26845,1,0,0:0:0:0:
196,224,27015,2,0,P|168:184|180:144,1,67.5000025749208
244,96,27356,2,0,B|224:72|192:72|192:72|224:172|328:120|328:120|372:152,1,270.000010299683
300,296,28379,1,0,0:0:0:0:
300,296,28720,2,0,P|256:232|192:220,1,135.000005149842
28,320,29402,1,0,0:0:0:0:
112,264,29572,1,0,0:0:0:0:
36,196,29743,2,0,L|24:108,1,67.5000025749208
116,56,30084,2,0,B|168:100|168:140|168:140|168:100|240:64,1,202.500007724762
348,236,30936,1,0,0:0:0:0:
348,236,31106,2,0,P|320:184|320:152,1,67.5000025749208
372,52,31447,2,0,P|400:104|400:136,1,67.5000025749208
264,116,31788,2,0,P|224:80|188:72,1,67.5000025749208
176,172,32129,2,0,L|112:236,2,67.5000025749208
256,280,32811,2,0,P|292:180|208:244,1,270.000010299683
364,272,33834,1,0,0:0:0:0:
392,112,34174,2,0,P|312:164|224:116,1,202.500007724762
168,204,34856,2,0,P|200:232|240:240,1,67.5000025749208
324,232,35197,2,0,L|344:148,1,67.5000025749208
428,120,35538,2,0,B|428:80|428:80|452:68|452:68|472:88|472:88|456:128|468:172|468:172|436:212|452:240|452:240|436:264,1,270.000010299683
300,332,36561,2,0,L|304:244,1,67.5000025749208
200,316,36902,2,0,L|208:160,1,135.000005149842
304,52,37584,2,0,P|304:120|316:140,1,67.5000025749208
368,236,37924,2,0,L|424:172,1,67.5000025749208
412,72,38265,1,0,0:0:0:0:
412,72,38606,5,0,0:0:0:0:
56,136,38947,1,0,0:0:0:0:
456,228,39288,1,0,0:0:0:0:
28,332,39629,1,0,0:0:0:0:
308,104,39970,1,0,0:0:0:0:
184,344,40311,1,0,0:0:0:0:
224,24,40652,1,0,0:0:0:0:
328,272,40993,5,0,0:0:0:0:
396,156,41163,1,0,0:0:0:0:
260,152,41334,1,0,0:0:0:0:
404,260,41504,1,0,0:0:0:0:
312,44,41674,1,0,0:0:0:0:
152,284,41845,1,0,0:0:0:0:
172,72,42015,1,0,0:0:0:0:
264,228,42186,1,0,0:0:0:0:
104,132,42356,5,0,0:0:0:0:
146,147,42441,1,0,0:0:0:0:
190,145,42526,1,0,0:0:0:0:
248,112,42612,5,0,0:0:0:0:
291,102,42697,1,0,0:0:0:0:
335,111,42782,1,0,0:0:0:0:
384,144,42868,5,0,0:0:0:0:
353,174,42953,1,0,0:0:0:0:
358,217,43038,1,0,0:0:0:0:
395,239,43123,1,0,0:0:0:0:
435,223,43208,1,0,0:0:0:0:
447,182,43294,1,0,0:0:0:0:
472,104,43379,6,0,P|384:124|296:96,1,161.999995056153
160,60,43720,2,0,P|160:120|104:184,1,107.999996704102
68,288,44061,2,0,L|204:328,1,107.999996704102
376,248,44402,1,0,0:0:0:0:
160,172,44572,1,0,0:0:0:0:
332,44,44743,1,0,0:0:0:0:
211,279,44913,1,0,0:0:0:0:
132,80,45084,1,0,0:0:0:0:
324,176,45254,1,0,0:0:0:0:
112,280,45424,2,0,P|164:244|164:172,1,107.999996704102
116,76,45765,2,0,L|208:144,1,107.999996704102
400,52,46106,1,0,0:0:0:0:
380,268,46277,1,0,0:0:0:0:
208,144,46447,2,0,L|64:184,1,107.999996704102
200,332,46788,1,0,0:0:0:0:
324,48,46959,1,0,0:0:0:0:
200,332,47129,5,0,0:0:0:0:
240,208,47299,1,0,0:0:0:0:
184,92,47470,1,0,0:0:0:0:
64,48,47640,1,0,0:0:0:0:
12,168,47811,2,0,P|108:176|128:136,1,107.999996704102
296,68,48152,2,0,P|246:51|200:76,1,107.999996704102
68,312,48493,1,0,0:0:0:0:
60,96,48663,1,0,0:0:0:0:
180,208,48834,2,0,L|332:240,1,107.999996704102
444,192,49174,1,0,0:0:0:0:
316,324,49345,1,0,0:0:0:0:
228,128,49515,1,0,0:0:0:0:
452,232,49686,1,0,0:0:0:0:
392,140,49856,2,0,L|280:172,1,107.999996704102
140,308,50197,1,0,0:0:0:0:
272,136,50368,1,0,0:0:0:0:
56,128,50538,6,0,P|76:104|112:96,1,53.9999983520508
216,88,50709,2,0,P|194:110|158:115,1,53.9999983520508
112,172,50879,2,0,P|160:144|232:152,1,107.999996704102
372,132,51220,1,0,0:0:0:0:
320,308,51390,1,0,0:0:0:0:
141,262,51561,1,0,0:0:0:0:
236,68,51731,1,0,0:0:0:0:
44,108,51902,6,0,P|84:100|120:112,1,53.9999983520508
212,164,52072,2,0,P|256:164|292:144,1,53.9999983520508
408,108,52243,2,0,L|452:232,1,107.999996704102
288,324,52584,1,0,0:0:0:0:
292,108,52754,1,0,0:0:0:0:
400,228,52924,1,0,0:0:0:0:
440,36,53095,1,0,0:0:0:0:
300,156,53265,1,0,0:0:0:0:
192,32,53436,1,0,0:0:0:0:
352,8,53606,1,0,0:0:0:0:
236,192,53777,1,0,0:0:0:0:
396,164,53947,6,0,P|376:252|332:280,1,107.999996704102
276,332,54288,2,0,L|136:348,1,107.999996704102
36,60,54629,2,0,L|56:180,1,107.999996704102
296,288,54970,2,0,L|276:168,1,107.999996704102
164,64,55311,2,0,L|184:184,1,107.999996704102
424,292,55652,2,0,L|404:172,1,107.999996704102
114,89,55993,5,0,0:0:0:0:
309,358,56163,1,0,0:0:0:0:
309,25,56334,1,0,0:0:0:0:
114,294,56504,1,0,0:0:0:0:
300,184,56674,1,0,0:0:0:0:
164,60,56845,1,0,0:0:0:0:
120,236,57015,1,0,0:0:0:0:
300,184,57186,1,0,0:0:0:0:
180,132,57356,2,0,L|224:20,1,107.999996704102
80,196,57697,1,0,0:0:0:0:
216,264,57868,1,0,0:0:0:0:
196,116,58038,2,0,P|146:76|83:62,1,107.999996704102
132,280,58379,2,0,P|192:300|256:292,1,107.999996704102
404,164,58720,5,0,0:0:0:0:
208,80,58890,1,0,0:0:0:0:
132,280,59061,1,0,0:0:0:0:
300,144,59231,1,0,0:0:0:0:
84,152,59402,1,0,0:0:0:0:
256,284,59572,1,0,0:0:0:0:
92,292,59743,2,0,L|112:172,1,107.999996704102
228,76,60084,5,0,0:0:0:0:
304,224,60254,1,0,0:0:0:0:
300,48,60424,2,0,L|172:72,1,107.999996704102
88,192,60765,1,0,0:0:0:0:
224,280,60936,1,0,0:0:0:0:
192,120,61106,1,0,0:0:0:0:
128,292,61277,1,0,0:0:0:0:
341,273,61447,2,0,P|373:263|391:240,1,53.9999983520508
398,161,61618,2,0,P|365:170|347:193,1,53.9999983520508
276,260,61788,2,0,P|212:296|156:284,1,107.999996704102
88,192,62129,1,0,0:0:0:0:
220,320,62299,2,0,L|232:260,1,53.9999983520508
284,192,62470,6,0,P|352:192|388:172,1,107.999996704102
456,28,62811,1,0,0:0:0:0:
452,212,62981,1,0,0:0:0:0:
284,72,63152,1,0,0:0:0:0:
236,292,63322,1,0,0:0:0:0:
120,108,63493,2,0,L|156:240,1,107.999996704102
280,40,63834,1,0,0:0:0:0:
392,224,64004,1,0,0:0:0:0:
476,60,64174,2,0,P|428:124|360:96,1,161.999995056153
328,80,64515,2,0,P|264:100|232:184,1,161.999995056153
200,192,64856,1,0,0:0:0:0:
171,200,64941,1,0,0:0:0:0:
142,200,65026,1,0,0:0:0:0:
114,190,65111,1,0,0:0:0:0:
76,172,65197,1,0,0:0:0:0:
88,205,65282,1,0,0:0:0:0:
88,241,65367,1,0,0:0:0:0:
75,274,65452,1,0,0:0:0:0:
72,336,65538,6,0,P|132:316|192:320,1,101.250003862381
236,336,65879,2,0,P|324:348|388:288,1,125.999996154785
408,220,66220,1,0,0:0:0:0:
432,64,66390,1,0,0:0:0:0:
192,180,66561,1,0,0:0:0:0:
220,332,66731,1,0,0:0:0:0:
392,64,66902,2,0,L|364:184,1,103.500001974106
248,308,67243,2,0,L|224:207,1,103.500001974106
276,116,67584,6,0,P|344:108|384:80,1,103.500001974106
328,204,67924,2,0,P|320:272|296:304,1,103.500001974106
180,268,68265,1,0,0:0:0:0:
236,124,68436,1,0,0:0:0:0:
68,44,68606,1,0,0:0:0:0:
192,172,68777,1,0,0:0:0:0:
364,200,68947,1,0,0:0:0:0:
480,112,69118,1,0,0:0:0:0:
356,40,69288,1,0,0:0:0:0:
400,244,69459,1,0,0:0:0:0:
480,112,69629,6,0,B|420:136|420:136|360:128,1,103.500001974106
328,112,69885,1,0,0:0:0:0:
280,92,69970,2,0,L|148:112,1,103.500001974106
104,196,70311,1,0,0:0:0:0:
76,296,70481,1,0,0:0:0:0:
224,248,70652,1,0,0:0:0:0:
248,148,70822,1,0,0:0:0:0:
172,284,70993,2,0,P|276:296|312:276,1,103.500001974106
408,140,71334,2,0,P|304:128|268:148,1,103.500001974106
68,272,71674,2,0,P|172:284|208:264,1,103.500001974106
304,128,72015,2,0,P|200:116|164:136,1,103.500001974106
144,312,72356,5,0,0:0:0:0:
256,284,72527,1,0,0:0:0:0:
296,176,72697,2,0,P|257:107|249:185,1,207.000003948212
396,268,73209,1,0,0:0:0:0:
244,248,73379,2,0,P|192:176|188:128,1,103.500001974106
352,36,73720,2,0,B|344:96|344:96|300:144,1,103.500001974106
420,272,74061,2,0,B|400:208|400:208|344:176,1,103.500001974106
248,88,74402,5,0,0:0:0:0:
160,196,74572,1,0,0:0:0:0:
304,216,74743,2,0,P|288:296|232:324,1,103.500001974106
160,196,75084,2,0,L|24:212,1,103.500001974106
224,88,75424,2,0,L|368:72,1,103.500001974106
152,320,75765,2,0,L|16:336,1,103.500001974106
216,212,76105,2,0,L|360:196,1,103.500001974106
152,320,76447,2,0,P|172:256|160:196,1,121.500000463486
100,72,76788,1,0,0:0:0:0:
248,180,76959,1,0,0:0:0:0:
424,136,77129,1,0,0:0:0:0:
309,279,77299,1,0,0:0:0:0:
104,296,77470,2,0,L|160:176,1,121.500000463486
268,264,77811,5,0,0:0:0:0:
384,304,77981,2,0,P|420:272|432:240,1,60.7500002317429
480,188,78152,2,0,P|420:152|396:104,1,121.500000463486
224,48,78493,1,0,0:0:0:0:
184,252,78663,2,0,L|174:191,1,60.7500002317429
220,140,78834,2,0,P|248:204|296:216,1,121.500000463486
428,60,79174,6,0,B|400:128|312:124|312:124|352:160,1,182.250000695229
384,196,79515,2,0,P|396:268|308:240,1,182.250000695229
252,192,79856,2,0,P|184:200|156:232,1,60.7500002317429
140,256,80027,2,0,P|136:212|116:184,1,60.7500002317429
80,136,80197,2,0,P|156:112|192:72,1,121.500000463486
300,44,80538,1,0,0:0:0:0:
420,180,80709,1,0,0:0:0:0:
392,60,80879,2,0,B|360:112|316:128|316:128|320:196|308:224|308:224|272:264,1,243.000000926971
124,228,81390,5,0,0:0:0:0:
244,320,81561,2,0,L|200:196,1,121.500000463486
244,136,81902,2,0,B|280:136|332:120|332:120|312:156|328:172,1,121.500000463486
416,304,82243,2,0,P|392:232|396:180,1,121.500000463486
340,40,82584,1,0,0:0:0:0:
272,184,82754,1,0,0:0:0:0:
200,56,82924,2,0,P|124:48|52:60,1,121.500000463486
56,172,83265,6,0,B|100:232|88:296|88:296|116:268|160:256,1,182.250000695229
172,328,83606,2,0,B|280:284|208:148|208:148|168:212,1,243.000000926971
104,260,84118,1,0,0:0:0:0:
124,116,84288,2,0,P|152:188|204:200,1,121.500000463486
368,164,84629,2,0,P|320:272|304:176,1,243.000000926971
232,120,85140,1,0,0:0:0:0:
320,36,85311,1,0,0:0:0:0:
204,8,85481,1,0,0:0:0:0:
312,156,85652,2,0,L|204:88,1,121.500000463486
392,100,85993,2,0,P|392:188|416:224,1,121.500000463486
264,196,86334,2,0,P|260:264|208:308,1,121.500000463486
100,224,86674,1,0,0:0:0:0:
124,80,86845,1,0,0:0:0:0:
244,164,87015,2,0,B|288:112|288:112|340:164,1,121.500000463486
72,96,103720,6,0,P|116:124|204:112,1,112.5
440,36,104061,2,0,P|393:60|360:142,1,112.5
232,360,104402,2,0,P|251:311|224:227,1,112.5
172,40,104743,2,0,L|140:176,1,112.5
360,332,105084,2,0,L|392:195,1,112.5
104,60,105424,2,0,L|108:199,1,112.5
428,312,105765,2,0,L|423:172,1,112.5
416,32,106106,2,0,P|336:72|292:72,1,112.5
92,44,106447,5,0,0:0:0:0:
176,256,106618,1,0,0:0:0:0:
216,92,106788,1,0,0:0:0:0:
40,312,106959,1,0,0:0:0:0:
112,136,107129,1,0,0:0:0:0:
204,276,107299,1,0,0:0:0:0:
316,80,107470,1,0,0:0:0:0:
424,212,107640,1,0,0:0:0:0:
304,332,107811,5,0,0:0:0:0:
279,308,107896,1,0,0:0:0:0:
248,292,107981,1,0,0:0:0:0:
214,290,108066,1,0,0:0:0:0:
181,297,108151,1,0,0:0:0:0:
147,304,108237,1,0,0:0:0:0:
114,300,108322,1,0,0:0:0:0:
72,284,108407,5,0,0:0:0:0:
127,247,108492,1,0,0:0:0:0:
165,193,108577,1,0,0:0:0:0:
180,129,108662,1,0,0:0:0:0:
172,64,108747,1,0,0:0:0:0:
140,12,108834,6,0,P|176:88|276:88,1,153.000002918243
448,104,109174,1,0,0:0:0:0:
284,268,109345,1,0,0:0:0:0:
332,44,109515,2,0,P|360:104|328:192,1,112.5
320,316,109856,1,0,0:0:0:0:
208,240,110027,1,0,0:0:0:0:
88,300,110197,2,0,L|56:156,1,112.5
128,36,110538,2,0,P|172:56|192:96,1,56.25
228,128,110709,2,0,P|232:176|208:213,1,56.25
200,260,110879,6,0,P|140:328|84:336,1,112.5
188,140,111220,1,0,0:0:0:0:
72,208,111390,1,0,0:0:0:0:
188,292,111561,2,0,P|276:288|328:252,1,112.5
460,120,111902,2,0,P|400:96|324:100,1,112.5
160,212,112243,1,0,0:0:0:0:
212,312,112413,1,0,0:0:0:0:
384,224,112584,1,0,0:0:0:0:
404,112,112754,1,0,0:0:0:0:
220,240,112924,6,0,L|300:348,1,112.5
312,108,113265,1,0,0:0:0:0:
92,164,113436,1,0,0:0:0:0:
204,40,113606,1,0,0:0:0:0:
248,168,113777,1,0,0:0:0:0:
324,16,113947,1,0,0:0:0:0:
272,212,114118,1,0,0:0:0:0:
116,52,114288,2,0,B|124:116|124:116|88:208,1,112.5
76,288,114629,6,0,P|172:292|224:264,1,112.5
352,324,114970,2,0,P|376:224|360:172,1,112.5
344,156,115226,1,0,0:0:0:0:
296,108,115311,2,0,P|204:120|160:112,1,112.5
68,240,115652,2,0,P|144:224|192:236,1,112.5
296,352,115993,1,0,0:0:0:0:
424,104,116163,1,0,0:0:0:0:
296,352,116334,1,0,0:0:0:0:
328,208,116504,1,0,0:0:0:0:
212,120,116674,1,0,0:0:0:0:
76,172,116845,1,0,0:0:0:0:
116,312,117015,6,0,P|188:248|192:204,1,112.5
284,124,117356,2,0,P|304:68|320:124,1,112.5
364,228,117697,2,0,P|344:284|328:228,1,112.5
68,212,118038,1,0,0:0:0:0:
256,172,118209,1,0,0:0:0:0:
68,212,118379,1,0,0:0:0:0:
168,348,118549,1,0,0:0:0:0:
284,112,118720,1,0,0:0:0:0:
184,248,118890,1,0,0:0:0:0:
72,12,119061,1,0,0:0:0:0:
172,148,119231,1,0,0:0:0:0:
300,40,119402,6,0,P|360:96|376:160,1,112.5
248,180,119743,2,0,B|196:148|196:148|120:168,1,112.5
88,256,120084,1,0,0:0:0:0:
244,324,120254,1,0,0:0:0:0:
208,160,120424,1,0,0:0:0:0:
272,316,120595,1,0,0:0:0:0:
428,256,120765,6,0,L|452:136,1,112.5
452,76,121021,1,0,0:0:0:0:
424,16,121106,2,0,P|360:32|292:32,1,112.5
156,100,121447,1,0,0:0:0:0:
80,264,121618,1,0,0:0:0:0:
212,84,121788,2,0,P|276:104|320:156,1,112.5
408,300,122129,1,0,0:0:0:0:
340,120,122299,1,0,0:0:0:0:
232,320,122470,1,0,0:0:0:0:
152,172,122640,1,0,0:0:0:0:
72,280,122811,6,0,P|156:272|184:248,1,112.5
224,152,123152,2,0,P|296:192|298:248,1,112.5
184,344,123493,1,0,0:0:0:0:
76,308,123663,1,0,0:0:0:0:
84,196,123834,1,0,0:0:0:0:
276,188,124004,1,0,0:0:0:0:
120,252,124174,1,0,0:0:0:0:
8,128,124345,1,0,0:0:0:0:
172,28,124515,2,0,L|292:68,1,112.5
424,188,124856,6,0,P|328:208|308:248,1,112.5
316,280,125197,2,0,P|356:228|344:172,2,112.5
240,196,125709,1,0,0:0:0:0:
176,328,125879,2,0,L|52:304,1,112.5
196,56,126220,1,0,0:0:0:0:
152,240,126390,1,0,0:0:0:0:
292,64,126561,2,0,L|320:180,1,112.5
120,100,126902,1,0,0:0:0:0:
120,100,127072,1,0,0:0:0:0:
344,88,127243,2,0,L|372:224,1,112.5
212,176,127584,1,0,0:0:0:0:
288,312,127754,1,0,0:0:0:0:
96,248,127924,2,0,B|84:196|84:196|108:164|108:164|124:140|120:108|120:108|156:100,1,168.75
172,104,128265,1,0,0:0:0:0:
188,134,128350,1,0,0:0:0:0:
204,164,128435,1,0,0:0:0:0:
220,194,128520,1,0,0:0:0:0:
248,228,128606,1,0,0:0:0:0:
240,173,128691,1,0,0:0:0:0:
267,125,128776,1,0,0:0:0:0:
318,102,128861,1,0,0:0:0:0:
371,115,128946,1,0,0:0:0:0:
424,144,128947,2,0,L|424:204,1,56.25
320,244,129118,2,0,P|284:248|260:264,3,56.25
180,328,129459,2,0,L|184:248,1,56.25
72,280,129629,2,0,L|80:204,1,56.25
180,180,129799,2,0,L|184:112,1,56.25
72,116,129970,2,0,L|72:48,3,56.25
136,212,130311,2,0,P|157:247|187:264,1,56.25
236,309,130481,2,0,P|276:318|309:309,1,56.25
404,316,130652,2,0,P|376:288|368:252,1,56.25
356,192,130822,2,0,P|356:152|375:121,1,56.25
452,72,130993,6,0,B|440:28|440:28|384:64,1,108
368,104,131334,2,0,P|332:152|236:172,1,135.000005149842
60,168,131674,1,0,0:0:0:0:
272,80,131845,1,0,0:0:0:0:
104,36,132015,2,0,P|168:88|176:168,1,135.000005149842
288,332,132356,1,0,0:0:0:0:
444,112,132527,1,0,0:0:0:0:
176,96,132697,1,0,0:0:0:0:
428,280,132868,1,0,0:0:0:0:
272,16,133038,6,0,P|184:28|140:52,1,135.000005149842
76,340,133379,2,0,L|112:204,1,135.000005149842
424,48,133720,2,0,L|388:184,1,135.000005149842
256,332,134061,1,0,0:0:0:0:
148,40,134231,1,0,0:0:0:0:
112,240,134402,1,0,0:0:0:0:
252,96,134572,1,0,0:0:0:0:
420,208,134743,1,0,0:0:0:0:
236,12,134913,1,0,0:0:0:0:
224,284,135084,6,0,P|272:224|288:160,1,135.000005149842
292,100,135339,1,0,0:0:0:0:
316,36,135424,2,0,P|404:84|412:136,1,135.000005149842
376,240,135765,2,0,P|304:264|204:244,1,135.000005149842
80,44,136106,1,0,0:0:0:0:
324,160,136277,1,0,0:0:0:0:
116,256,136447,1,0,0:0:0:0:
188,68,136618,1,0,0:0:0:0:
176,324,136788,2,0,P|248:256|240:192,1,135.000005149842
68,84,137129,2,0,L|200:128,1,135.000005149842
392,76,137470,5,0,0:0:0:0:
452,268,137640,1,0,0:0:0:0:
252,236,137811,1,0,0:0:0:0:
436,156,137981,1,0,0:0:0:0:
214,296,138151,1,0,0:0:0:0:
186,33,138322,1,0,0:0:0:0:
356,144,138493,6,0,P|336:224|296:272,1,135.000005149842
104,152,138834,2,0,B|168:204|168:204|244:180,1,135.000005149842
412,156,139174,2,0,B|348:104|348:104|272:128,1,135.000005149842
160,224,139515,2,0,B|200:268|236:264|236:264|260:216|304:220,1,144
376,176,139856,1,0,0:0:0:0:
428,280,140027,1,0,0:0:0:0:
272,332,140197,2,0,B|236:296|236:296|240:260|240:260|200:252|176:200,1,144
288,36,140538,5,0,0:0:0:0:
128,328,140709,1,0,0:0:0:0:
39,109,140879,1,0,0:0:0:0:
404,309,141050,1,0,0:0:0:0:
196,184,141220,2,0,B|168:256|168:256|248:256,1,144
148,56,141561,1,0,0:0:0:0:
64,284,141731,1,0,0:0:0:0:
352,292,141902,2,0,P|444:264|472:208,1,144
340,108,142243,5,0,0:0:0:0:
148,260,142413,1,0,0:0:0:0:
288,8,142584,1,0,0:0:0:0:
184,348,142754,1,0,0:0:0:0:
92,120,142924,2,0,L|240:156,1,144
344,340,143265,1,0,0:0:0:0:
380,128,143436,1,0,0:0:0:0:
164,144,143606,1,0,0:0:0:0:
344,260,143777,1,0,0:0:0:0:
288,28,143947,6,0,P|288:112|252:160,1,144
88,300,144288,1,0,0:0:0:0:
12,96,144459,1,0,0:0:0:0:
296,128,144629,1,0,0:0:0:0:
92,204,144799,1,0,0:0:0:0:
208,20,144970,2,0,B|220:88|220:88|212:100|208:120|208:120|216:168,1,144
176,212,145226,1,0,0:0:0:0:
140,264,145311,2,0,P|176:340|252:308,1,144
400,312,145652,5,0,0:0:0:0:
440,132,145822,1,0,0:0:0:0:
184,168,145993,2,0,B|132:168|112:148|112:148|80:124|16:144,1,144
232,24,146334,1,0,0:0:0:0:
132,292,146504,1,0,0:0:0:0:
376,92,146674,2,0,P|356:168|396:232,1,144
300,32,147015,5,0,0:0:0:0:
248,168,147186,1,0,0:0:0:0:
264,312,147356,1,0,0:0:0:0:
128,144,147527,1,0,0:0:0:0:
392,260,147697,1,0,0:0:0:0:
76,220,147868,1,0,0:0:0:0:
284,88,148038,1,0,0:0:0:0:
112,72,148209,1,0,0:0:0:0:
240,184,148379,6,0,P|328:208|400:184,1,144
476,56,148720,2,0,P|388:32|316:56,1,144
148,148,149061,1,0,0:0:0:0:
80,304,149231,1,0,0:0:0:0:
360,232,149402,1,0,0:0:0:0:
428,76,149572,1,0,0:0:0:0:
64,48,149743,6,0,P|28:116|48:196,1,144
384,336,150084,2,0,P|416:268|400:188,1,144
264,104,150424,1,0,0:0:0:0:
64,312,150595,1,0,0:0:0:0:
108,28,150765,1,0,0:0:0:0:
228,292,150936,1,0,0:0:0:0:
436,92,151106,1,0,0:0:0:0:
56,184,151277,1,0,0:0:0:0:
452,256,151447,1,0,0:0:0:0:
216,88,151618,5,0,0:0:0:0:
320,276,151788,1,0,0:0:0:0:
472,120,151959,1,0,0:0:0:0:
232,220,152129,1,0,0:0:0:0:
312,160,152299,1,0,0:0:0:0:
272,68,152470,1,0,0:0:0:0:
172,72,152640,1,0,0:0:0:0:
136,168,152811,1,0,0:0:0:0:
