osu file format v12

[General]
AudioFilename: Maduk feat. Veela - Ghost Assassin.mp3
AudioLeadIn: 2000
PreviewTime: 21924
Countdown: 0
SampleSet: None
StackLeniency: 0.7
Mode: 0
LetterboxInBreaks: 1

[Editor]
DistanceSpacing: 1
BeatDivisor: 4
GridSize: 8

[Metadata]
Title:Ghost Assassin
TitleUnicode:Ghost Assassin
Artist:Maduk feat. Veela
ArtistUnicode:Maduk feat. Veela
Creator:Slum
Version:Easy
Source:
Tags:
BeatmapID:226767
BeatmapSetID:81774

[Difficulty]
HPDrainRate:0
CircleSize:2
OverallDifficulty:0
ApproachRate:6
SliderMultiplier:0.7
SliderTickRate:1

[Events]
//Background and Video events
0,0,"bg.jpg",0,0
//Break Periods
2,65418,75419
2,87578,94510
2,153033,164056
//Storyboard Layer 0 (Background)
//Storyboard Layer 1 (Fail)
//Storyboard Layer 2 (Pass)
//Storyboard Layer 3 (Foreground)
//Storyboard Sound Samples
//Background Colour Transformations
3,100,163,162,255

[TimingPoints]
106,340.909090909091,4,3,0,100,1,0
106,-100,4,2,0,50,0,0
21924,-80,4,3,0,50,0,0
76469,-86.9565217391304,4,3,0,50,0,1
87378,-86.9565217391304,4,3,0,50,0,0
95560,-100,4,2,0,50,0,0
102378,-80,4,2,0,50,0,0
103742,-80,4,3,0,60,0,0
106469,-80,4,3,0,75,0,0
107833,-80,4,3,0,90,0,0
109196,-80,4,3,0,100,0,0
174651,-80,4,3,0,100,0,1
196469,-80,4,2,0,5,0,0

[Colours]
Combo1 : 73,188,134
Combo2 : 215,0,107
Combo3 : 69,126,160
Combo4 : 227,157,28

[HitObjects]
387,179,106,2,0,P|257:51|107:187,1,420
256,304,5560,6,0,B|374:293|368:184|368:184,1,175
256,192,6924,1,0,0:0:0:0:
256,192,7265,1,0,0:0:0:0:
256,192,7606,12,0,9651,0:0:0:0:
256,96,11015,6,0,L|176:96,1,70
120,96,11696,2,0,P|80:184|120:296,1,210
184,288,13060,1,0,0:0:0:0:
256,288,13401,2,0,P|376:192|224:112,1,350
160,64,16469,6,0,L|160:152,1,70
160,192,17151,2,0,P|160:288|288:288,1,210
256,240,18515,1,0,0:0:0:0:
256,168,18856,2,0,P|368:120|320:272,1,350
64,56,21924,6,0,L|64:176,2,87.5
152,56,22946,1,0,0:0:0:0:
240,56,23287,2,0,P|264:168|128:136,1,262.5
64,208,24651,2,0,P|56:248|72:304,1,87.5
152,296,25333,1,0,0:0:0:0:
240,296,25674,1,0,0:0:0:0:
328,296,26015,6,0,B|416:272|416:272|392:192,1,175
304,192,27037,1,0,0:0:0:0:
216,192,27378,2,0,B|192:112|192:112|280:88,1,175
368,64,28401,1,0,0:0:0:0:
392,152,28742,6,0,B|424:240|392:336|392:336|304:336,1,262.5
256,272,30106,1,0,0:0:0:0:
256,184,30446,1,0,0:0:0:0:
256,96,30787,1,0,0:0:0:0:
88,48,31469,6,0,B|48:144|48:144|80:232,1,175
104,296,32492,1,0,0:0:0:0:
168,232,32833,2,0,P|165:188|144:144,2,87.5
328,312,34196,6,0,B|352:256|400:224|400:224|400:144,1,175
400,80,35219,1,0,0:0:0:0:
321,119,35560,2,0,P|264:167|184:113,1,175
120,64,36583,1,0,0:0:0:0:
80,144,36924,6,0,B|56:208|56:208|104:312,1,175
192,304,37946,1,0,0:0:0:0:
168,216,38287,1,0,0:0:0:0:
144,128,38628,2,0,P|240:144|264:232,1,175
352,208,39651,6,0,L|448:208,1,87.5
424,120,40333,2,0,L|328:120,1,87.5
256,80,41015,1,0,0:0:0:0:
256,80,41356,1,0,0:0:0:0:
176,120,41696,2,0,B|128:128|128:128|72:128,2,87.5
200,208,42719,2,0,L|142:236,2,43.75
256,280,43401,1,0,0:0:0:0:
312,208,43742,6,0,L|312:112,1,87.5
256,48,44424,1,0,0:0:0:0:
256,48,44765,1,0,0:0:0:0:
168,72,45106,2,0,P|120:80|64:64,2,87.5
232,136,46128,1,0,0:0:0:0:
160,192,46469,6,0,L|64:192,1,87.5
96,280,47151,2,0,L|48:280,2,43.75
184,280,47833,1,0,0:0:0:0:
272,280,48174,1,0,0:0:0:0:
360,280,48515,2,0,B|384:272|384:272|424:280|424:280|464:280,1,87.5
440,192,49196,6,0,L|408:80,1,87.5
336,64,49878,1,0,0:0:0:0:
256,104,50219,2,0,P|284:139|325:154,2,87.5
176,64,51242,1,0,0:0:0:0:
88,64,51583,1,0,0:0:0:0:
88,152,51924,6,0,B|80:192|80:192|88:240,1,87.5
176,216,52606,2,0,B|179:254|179:254|171:302,1,87.5
256,328,53287,1,0,0:0:0:0:
256,328,53628,2,0,B|272:248|272:248|256:200|272:152,1,175
328,88,54651,6,0,B|448:96|448:96|456:144,1,175
464,240,55674,2,0,L|472:344,2,87.5
376,224,56696,1,0,0:0:0:0:
344,304,57037,1,0,0:0:0:0:
256,320,57378,6,0,B|256:256|232:192|232:192|256:128|256:56,1,262.5
168,48,58742,1,0,0:0:0:0:
56,184,59424,2,0,B|77:167|77:167|98:133|98:133|128:104,1,87.5
200,128,60106,6,0,B|224:152|194:178|194:178|160:224|128:320,1,175
216,328,61128,1,0,0:0:0:0:
216,328,61469,2,0,P|296:288|280:208,1,175
248,136,62492,1,0,0:0:0:0:
320,80,62833,6,0,P|384:88|432:64,1,87.5
432,168,63515,1,0,0:0:0:0:
440,256,63856,1,0,0:0:0:0:
384,320,64196,1,0,0:0:0:0:
292,333,64537,2,0,B|291:259|349:235|349:235|353:206|328:184,1,175
256,104,76469,5,0,0:0:0:0:
256,280,77151,1,0,0:0:0:0:
120,192,77833,5,0,0:0:0:0:
120,192,78003,2,0,L|160:192|216:192,2,80.5000015354157
176,88,79196,2,0,P|263:63|345:99,1,161.000003070831
256,232,80560,5,0,0:0:0:0:
256,232,80731,2,0,L|256:336,2,80.5000015354157
327,84,81924,2,0,P|263:63|176:88,1,161.000003070831
304,192,83287,6,0,L|416:192,2,80.5000015354157
224,192,84310,1,0,0:0:0:0:
189,264,84651,2,0,P|145:192|194:115,1,161.000003070831,0|0,0:0|0:0,2:0:0:0:
329,83,86015,6,0,P|421:133|350:256,1,241.500004606247,0|0,0:0|0:0,2:0:0:0:
316,204,87378,1,0,0:0:0:0:
328,72,95560,5,0,0:0:0:0:
184,72,96242,1,0,0:0:0:0:
256,192,96924,6,0,B|320:176|384:192|384:192|424:232,1,175
320,272,98287,2,0,P|240:296|184:264,1,140
72,192,99651,5,0,0:0:0:0:
216,192,100333,1,0,0:0:0:0:
352,152,101015,2,0,P|400:192|352:232,1,140
256,336,102378,6,0,L|160:336,1,87.5
112,264,103060,1,0,0:0:0:0:
56,192,103401,1,0,0:0:0:0:
56,104,103742,2,0,L|160:104,1,87.5
184,184,104424,2,0,L|280:184,1,87.5
328,112,105106,5,0,0:0:0:0:
416,112,105446,1,0,0:0:0:0:
424,200,105787,2,0,B|432:216|432:216|440:264|440:264|432:304,2,87.5
336,200,106810,2,0,B|328:216|328:216|320:264|320:264|328:304,2,87.5
288,128,107833,5,0,0:0:0:0:
208,96,108174,1,0,0:0:0:0:
120,96,108515,1,0,0:0:0:0:
48,144,108856,1,0,0:0:0:0:
120,192,109196,6,0,B|144:216|184:216|184:216|208:320,1,175
296,320,110219,2,0,L|392:320,2,87.5
280,232,111242,2,0,P|265:193|256:128,1,87.5
240,64,111924,1,0,0:0:0:0:
240,64,112265,1,0,0:0:0:0:
328,80,112606,6,0,P|384:96|448:88,1,87.5
432,184,113287,1,0,0:0:0:0:
456,272,113628,1,0,0:0:0:0:
368,248,113969,2,0,P|336:272|264:280,1,87.5
200,288,114651,1,0,0:0:0:0:
112,272,114992,1,0,0:0:0:0:
168,200,115333,5,0,0:0:0:0:
104,136,115674,2,0,P|80:96|64:40,2,87.5
192,112,116696,2,0,P|256:184|232:264,1,175
408,192,118060,6,0,B|366:171|366:171|312:112,1,87.5
416,96,118742,1,0,0:0:0:0:
336,56,119083,1,0,0:0:0:0:
256,96,119424,1,0,0:0:0:0:
256,272,120106,2,0,B|264:248|264:248|248:200|248:200|256:168,1,87.5
160,192,120787,5,0,0:0:0:0:
72,192,121128,1,0,0:0:0:0:
72,192,121469,2,0,B|56:152|72:112|72:112|136:112|192:72,1,175
248,72,122492,1,0,0:0:0:0:
336,56,122833,2,0,P|408:48|456:64,1,87.5
432,136,123515,6,0,P|440:184|432:224,1,87.5
376,288,124196,2,0,L|384:336,2,43.75
344,208,124878,2,0,B|304:200|280:232|280:232|296:280|264:320,2,131.25
336,120,126242,5,0,0:0:0:0:
264,64,126583,2,0,L|152:64,1,87.5
104,120,127265,1,0,0:0:0:0:
104,120,127606,2,0,B|72:144|72:144|56:232,2,87.5
160,192,128628,1,0,0:0:0:0:
248,192,128969,6,0,L|248:280,1,87.5
336,264,129651,2,0,L|336:168,1,87.5
424,168,130333,1,0,0:0:0:0:
368,96,130674,1,0,0:0:0:0:
368,96,131015,2,0,B|329:87|329:87|309:66|309:66|266:39,2,87.5
344,184,132037,2,0,B|264:200|224:152|224:152|160:136,1,175
96,112,133060,5,0,0:0:0:0:
72,200,133401,2,0,L|48:280,2,43.75
160,224,134083,1,0,0:0:0:0:
160,224,134253,2,0,P|224:272|208:320,1,131.25
304,328,135106,2,0,P|344:296|416:280,1,87.5
456,248,135787,5,0,0:0:0:0:
440,160,136128,2,0,B|424:112|440:64|440:64|384:48,2,131.25
360,192,137492,1,0,0:0:0:0:
280,224,137833,1,0,0:0:0:0:
200,256,138174,6,0,L|128:288,2,43.75
168,176,138856,2,0,B|136:176|104:192|104:192|64:192,1,87.5
96,104,139537,2,0,P|176:56|280:80,1,175
336,96,140560,1,0,0:0:0:0:
336,272,141242,5,0,0:0:0:0:
256,296,141583,2,0,L|256:344,2,43.75
272,208,142265,2,0,P|304:168|360:144,2,87.5
184,232,143287,1,0,0:0:0:0:
128,64,143969,6,0,P|256:104|384:56,2,262.5
256,184,146696,5,0,0:0:0:0:
256,272,147037,1,0,0:0:0:0:
256,272,147208,2,0,P|368:272|384:232,1,131.25
416,192,148060,1,0,0:0:0:0:
416,104,148401,1,0,0:0:0:0:
416,104,148571,2,0,P|344:96|288:136,1,131.25
232,192,149424,5,0,0:0:0:0:
144,192,149765,1,0,0:0:0:0:
56,192,150106,1,0,0:0:0:0:
256,192,150446,12,0,152833,0:0:0:0:
256,64,165106,5,0,0:0:0:0:
376,192,165787,1,0,0:0:0:0:
256,320,166469,1,0,0:0:0:0:
136,192,167151,1,0,0:0:0:0:
312,192,167833,6,0,L|416:192,2,87.5
256,120,168856,1,0,0:0:0:0:
192,56,169196,2,0,L|96:56,1,87.5
104,56,169878,1,0,0:0:0:0:
48,224,170560,6,0,B|96:256|96:256|160:224|232:248,1,175
256,168,171583,1,0,0:0:0:0:
301,241,171924,2,0,B|352:224|416:256|416:256|464:224,1,175
440,136,172946,5,0,0:0:0:0:
368,88,173287,1,0,0:0:0:0:
280,72,173628,1,0,0:0:0:0:
192,72,173969,1,0,0:0:0:0:
112,104,174310,1,8,0:0:0:0:
112,192,174651,6,0,B|169:218|192:240|192:240|280:240,1,175
352,200,175674,1,0,0:0:0:0:
424,144,176015,5,0,0:0:0:0:
440,56,176356,1,0,0:0:0:0:
440,56,176526,2,0,L|336:56,1,87.5
224,56,177378,6,0,B|168:88|96:80|96:80|64:120,1,175
112,192,178401,1,0,0:0:0:0:
200,192,178742,5,0,0:0:0:0:
156,267,179083,1,0,0:0:0:0:
156,267,179253,2,0,B|189:292|208:312|208:312|240:320,1,87.5
360,320,180106,6,0,P|432:304|400:208,1,175
336,192,181128,1,0,0:0:0:0:
256,152,181469,6,0,L|256:48,2,87.5
176,192,182492,1,0,0:0:0:0:
88,192,182833,6,0,P|139:274|218:269,1,175
280,328,183856,1,0,0:0:0:0:
352,280,184196,6,0,P|392:248|416:192,1,87.5
448,136,184878,1,0,0:0:0:0:
448,48,185219,1,0,0:0:0:0:
368,88,185560,6,0,B|296:72|240:104|176:80,1,175
128,248,186924,6,0,L|64:248,2,43.75
168,248,187435,1,0,0:0:0:0:
256,248,187776,1,0,0:0:0:0:
360,328,188287,6,0,P|400:248|360:160,1,175
320,104,189310,1,0,0:0:0:0:
232,104,189651,6,0,L|144:104,1,87.5
168,192,190333,2,0,L|72:192,1,87.5
96,280,191015,6,0,B|144:297|176:320|176:320|214:296|280:272,1,175
328,240,192037,1,0,0:0:0:0:
400,192,192378,5,0,0:0:0:0:
400,192,192549,2,0,L|400:72,2,87.5
280,136,193742,6,0,B|280:88|280:88|240:40,1,87.5
192,120,194424,2,0,B|192:168|192:168|232:216,1,87.5
256,280,195106,5,0,0:0:0:0:
256,280,195276,1,0,0:0:0:0:
344,280,195617,2,0,L|456:280,1,87.5
256,192,196469,12,0,200560,0:0:0:0:
