osu file format v11

[General]
AudioFilename: Maduk feat. Veela - Ghost Assassin (Hourglass Bonusmix).mp3
AudioLeadIn: 3000
PreviewTime: 43644
Countdown: 0
SampleSet: None
StackLeniency: 0.5
Mode: 0
LetterboxInBreaks: 0
StoryFireInFront: 0

[Editor]
Bookmarks: 8,21826,36826,43644,65803,87280,102280,109098,126826,152735,159894,174553,184098,194326,206258,216826,218189,219894
DistanceSpacing: 0.9
BeatDivisor: 4
GridSize: 4

[Metadata]
Title:Ghost Assassin (Hourglass Bonusmix)
TitleUnicode:
Artist:Maduk feat. Veela
ArtistUnicode:
Creator:ampzz
Version:Salvation
Source:Hourglass EP
Tags:liquicity liquid drum and bass funk kriers
BeatmapID:208469
BeatmapSetID:73121

[Difficulty]
HPDrainRate:9
CircleSize:4
OverallDifficulty:8
ApproachRate:9
SliderMultiplier:1.6
SliderTickRate:1

[Events]
//Background and Video events
0,0,"Background.jpg"
//Break Periods
//Storyboard Layer 0 (Background)
//Storyboard Layer 1 (Fail)
//Storyboard Layer 2 (Pass)
//Storyboard Layer 3 (Foreground)
//Storyboard Sound Samples
//Background Colour Transformations
3,100,0,0,0

[TimingPoints]
8,340.909090909091,4,2,0,100,1,0
8,-100,4,2,0,10,0,0
21826,-100,4,2,0,50,0,0
36826,-83.3333333333333,4,2,0,70,0,0
38189,-83.3333333333333,4,2,0,100,0,0
43644,-66.6666666666667,4,1,0,100,0,1
87280,-100,4,2,0,70,0,0
103644,-83.3333333333333,4,2,0,100,0,0
109098,-66.6666666666667,4,1,0,100,0,1
123246,-66.6666666666667,4,1,0,80,0,1
126826,-66.6666666666667,4,1,0,100,0,1
131258,-66.6666666666667,4,1,0,100,0,0
152735,-100,4,2,0,70,0,0
153246,-100,4,2,0,50,0,0
162280,-100,4,2,0,70,0,0
174553,-66.6666666666667,4,1,0,100,0,1
218189,-100,4,2,0,5,0,0

[Colours]
Combo1 : 0,128,255
Combo2 : 5,240,5
Combo3 : 255,255,255
Combo4 : 0,255,255
Combo5 : 192,192,192

[HitObjects]
256,32,8,21,2,0:0:0
92,352,2735,5,8,0:0:0
448,192,4098,5,2,0:0:0
64,192,5462,5,8,0:0:0
420,352,8189,5,2,0:0:0
256,32,9553,21,8,0:0:0
92,352,10917,5,2,0:0:0
448,192,13643,5,8,0:0:0
64,192,15007,5,2,0:0:0
420,352,16371,5,8,0:0:0
256,192,19098,12,0,21485,0:0:0
448,64,21826,5,4,0:0:0
356,40,21996,1,0,0:0:0
384,132,22167,1,0,0:0:0
456,196,22337,1,0,0:0:0
364,228,22508,1,0,0:0:0
268,212,22678,1,0,0:0:0
296,120,22848,6,0,B|212:60|116:60,1,160,0|0,0:0|0:0,0:0:0
56,80,23360,1,0,0:0:0
20,168,23531,1,0,0:0:0
56,256,23701,1,0,0:0:0
140,316,23871,2,0,B|180:268|136:216|180:164,1,160,0|0,0:0|0:0,0:0:0
284,164,24383,1,0,0:0:0
312,264,24553,1,2,0:0:0
396,328,24723,1,0,0:0:0
484,272,24894,1,0,0:0:0
492,168,25064,2,0,B|492:132|444:100|444:100|440:52|412:36,1,160,0|0,0:0|0:0,0:0:0
308,52,25576,6,0,B|276:92|300:160|284:208,1,160,0|2,0:0|0:0,0:0:0
228,296,26087,1,0,0:0:0
136,344,26258,1,0,0:0:0
64,272,26428,1,0,0:0:0
116,180,26598,1,0,0:0:0
216,204,26769,1,0,0:0:0
316,228,26939,1,0,0:0:0
420,212,27110,1,0,0:0:0
472,124,27280,2,0,B|492:92|492:40,1,80,2|0,0:0|0:0,0:0:0
392,24,27621,1,0,0:0:0
300,72,27792,2,0,B|256:80|204:32|144:56,1,160,0|0,0:0|0:0,0:0:0
52,104,28303,5,0,0:0:0
44,208,28473,1,0,0:0:0
100,296,28644,2,0,B|168:324|196:268|252:268,1,160
356,272,29155,1,0,0:0:0
460,252,29326,1,0,0:0:0
472,148,29496,1,0,0:0:0
380,96,29667,1,0,0:0:0
312,176,29837,1,0,0:0:0
312,176,30008,2,0,B|256:176|256:176|216:184|184:168|168:132,1,160,2|0,0:0|0:0,0:0:0
164,40,30519,1,0,0:0:0
128,192,30860,5,0,0:0:0
64,276,31030,1,0,0:0:0
144,344,31201,1,0,0:0:0
224,276,31371,1,2,0:0:0
304,344,31542,1,0,0:0:0
388,284,31712,2,0,B|460:248|492:160,2,160
256,124,32735,1,2,0:0:0
48,128,33076,2,0,B|48:68|96:40,2,80
184,284,33758,6,0,B|216:308|256:316,1,80
360,304,34098,2,0,B|368:232|332:188|292:172,1,160,2|0,0:0|0:0,0:0:0
48,168,34780,1,0,0:0:0
80,268,34951,1,0,0:0:0
168,324,35121,1,0,0:0:0
272,340,35292,1,0,0:0:0
368,300,35462,6,0,B|400:240|472:224|423:146|440:92|440:92|440:80,1,240,2|0,0:0|0:0,0:0:0
344,44,36144,1,0,0:0:0
240,44,36314,1,0,0:0:0
140,68,36485,1,0,0:0:0
56,128,36655,1,0,0:0:0
52,252,36826,6,0,B|52:304|104:324,2,96.0000022888184,2|0|0,0:0|0:0|0:0,0:0:0
176,228,37337,1,0,0:0:0
216,348,37508,1,0,0:0:0
340,336,37678,1,0,0:0:0
376,216,37848,1,0,0:0:0
288,128,38019,1,0,0:0:0
288,128,38189,6,0,B|276:82|304:32,1,96.0000022888184,2|0,0:0|0:0,0:0:0
288,128,38530,2,0,B|333:116|380:144,1,96.0000022888184,2|0,0:0|0:0,0:0:0
288,127,38871,2,0,B|299:173|272:220,1,96.0000022888184,2|0,0:0|0:0,0:0:0
232,308,39212,1,2,0:0:0
128,340,39383,1,0,0:0:0
52,260,39553,5,2,0:0:0
128,180,39723,1,0,0:0:0
236,200,39894,1,2,0:0:0
232,308,40064,1,0,0:0:0
128,340,40235,2,0,B|80:348|32:340,1,96.0000022888184,2|0,0:0|0:0,0:0:0
128,340,40576,2,0,B|152:288|176:256,1,96.0000022888184,2|0,0:0|0:0,0:0:0
256,128,40917,5,8,0:0:0
340,268,41087,1,0,0:0:0
256,128,41258,5,8,0:0:0
412,168,41428,1,0,0:0:0
256,128,41599,5,8,0:0:0
388,32,41769,1,0,0:0:0
256,128,41940,5,8,0:0:0
124,32,42110,1,0,0:0:0
36,168,42281,5,2,0:0:0
32,204,42365,1,0,0:0:0
32,236,42451,1,0,0:0:0
44,268,42536,1,0,0:0:0
60,296,42621,1,2,0:0:0
80,324,42706,1,0,0:0:0
108,344,42792,1,0,0:0:0
140,352,42877,1,0,0:0:0
172,352,42962,1,2,0:0:0
204,348,43047,1,0,0:0:0
236,336,43133,1,0,0:0:0
268,324,43218,1,0,0:0:0
296,304,43303,1,8,0:0:0
468,84,43644,6,0,B|423:34|357:37,1,119.999996423721,4|0,0:0|0:0,0:0:0
216,44,43985,2,0,B|213:110|262:154,1,119.999996423721,8|0,0:0|0:0,0:0:0
404,172,44326,1,0,0:0:0
368,312,44496,2,0,B|308:340|248:312,1,119.999996423721,4|8,0:0|0:0,0:0:0
128,236,44837,2,0,B|173:186|239:189,1,119.999996423721
380,184,45178,1,0,0:0:0
272,276,45348,1,8,0:0:0
404,332,45518,1,0,0:0:0
364,192,45689,1,0,0:0:0
264,296,45859,1,4,0:0:0
228,156,46030,2,0,B|183:106|117:109,1,119.999996423721,8|0,0:0|0:0,0:0:0
228,156,46371,6,0,B|278:111|275:45,1,119.999996423721
392,132,46712,2,0,B|442:177|439:243,1,119.999996423721,8|0,0:0|0:0,0:0:0
288,200,47053,1,0,0:0:0
160,288,47223,1,4,0:0:0
288,200,47394,1,8,0:0:0
136,160,47564,1,0,0:0:0
288,200,47735,5,0,0:0:0
260,48,47905,1,0,0:0:0
392,132,48076,1,8,0:0:0
416,284,48246,2,0,B|368:320|300:320,1,119.999996423721
176,236,48587,2,0,B|228:200|288:200,1,119.999996423721,0|8,0:0|0:0,0:0:0
336,80,48928,1,0,0:0:0
172,112,49098,5,0,0:0:0
168,292,49269,1,0,0:0:0
104,192,49439,1,8,0:0:0
224,188,49610,1,0,0:0:0
168,292,49780,1,0,0:0:0
288,300,49951,1,4,0:0:0
340,192,50121,1,8,0:0:0
276,88,50292,1,0,0:0:0
396,88,50462,5,4,0:0:0
340,192,50633,2,0,B|404:220|408:296,1,119.999996423721,0|8,0:0|0:0,0:0:0
288,300,50973,1,0,0:0:0
200,172,51144,1,0,0:0:0
96,56,51314,1,4,0:0:0
96,56,51400,1,0,0:0:0
96,56,51485,1,8,0:0:0
32,192,51655,1,0,0:0:0
144,152,51826,5,0,0:0:0
120,268,51996,2,0,B|188:280|239:222,1,119.999996423721,0|8,0:0|0:0,0:0:0
348,128,52337,1,0,0:0:0
492,64,52508,1,0,0:0:0
452,216,52678,1,4,0:0:0
312,152,52848,2,0,B|264:100|200:100,1,119.999996423721,8|0,0:0|0:0,0:0:0
52,88,53189,6,0,B|96:40|164:40,1,119.999996423721,4|0,0:0|0:0,0:0:0
316,44,53530,1,8,0:0:0
456,112,53701,1,0,0:0:0
492,264,53871,1,4,0:0:0
364,356,54042,2,0,B|244:356,1,119.999996423721,0|8,0:0|0:0,0:0:0
96,308,54383,1,0,0:0:0
244,264,54553,6,0,B|364:264,1,119.999996423721,4|0,0:0|0:0,0:0:0
256,152,54894,1,8,0:0:0
124,72,55064,1,0,0:0:0
100,228,55235,2,0,B|120:164|172:132,1,119.999996423721,4|4,0:0|0:0,0:0:0
324,108,55576,2,0,B|280:60|216:60,1,119.999996423721,8|0,0:0|0:0,0:0:0
164,168,55917,1,0,0:0:0
228,272,56087,1,4,0:0:0
368,312,56258,1,8,0:0:0
396,144,56428,2,0,B|340:180|304:220,1,119.999996423721
188,308,56769,1,0,0:0:0
188,308,56854,1,0,0:0:0
188,308,56939,1,8,0:0:0
72,204,57110,1,0,0:0:0
104,52,57280,5,4,0:0:0
168,196,57451,1,0,0:0:0
212,48,57621,1,8,0:0:0
268,192,57792,1,0,0:0:0
324,48,57962,2,0,B|360:164,1,119.999996423721,0|4,0:0|0:0,0:0:0
512,128,58303,2,4,B|400:168,1,119.999996423721,8|0,0:0|0:0,0:0:0
428,308,58644,6,0,B|384:192,1,119.999996423721,0|4,0:0|0:0,0:0:0
252,136,58985,1,8,0:0:0
340,264,59155,1,0,0:0:0
220,364,59326,1,0,0:0:0
128,236,59496,1,4,0:0:0
120,196,59581,1,0,0:0:0
115,157,59667,2,0,B|224:100,1,119.999996423721,8|0,0:0|0:0,0:0:0
376,72,60008,5,0,0:0:0
480,188,60178,1,4,0:0:0
324,192,60348,1,8,0:0:0
416,68,60519,1,0,0:0:0
452,220,60689,2,0,B|380:316,1,119.999996423721,0|4,0:0|0:0,0:0:0
236,252,61030,2,0,B|348:204,1,119.999996423721,8|0,0:0|0:0,0:0:0
256,80,61371,2,0,B|136:80,1,119.999996423721,4|4,0:0|0:0,0:0:0
12,176,61712,1,8,0:0:0
164,220,61883,2,4,B|100:320,2,119.999996423721,4|0|4,0:0|0:0|0:0,0:0:0
300,140,62394,2,0,B|356:124|420:144,1,119.999996423721,8|0,0:0|0:0,0:0:0
464,256,62735,5,4,0:0:0
380,340,62905,1,4,0:0:0
276,276,63076,1,8,0:0:0
164,324,63246,1,0,0:0:0
92,228,63417,1,4,0:0:0
88,192,63502,1,0,0:0:0
104,160,63587,1,0,0:0:0
176,20,63758,2,0,B|240:-4|304:16,1,119.999996423721,8|0,0:0|0:0,0:0:0
452,148,64098,5,4,0:0:0
336,316,64269,1,4,0:0:0
132,296,64439,1,8,0:0:0
52,108,64610,1,0,0:0:0
248,48,64780,1,4,0:0:0
400,184,64951,1,4,0:0:0
252,324,65121,1,8,0:0:0
100,184,65292,1,4,0:0:0
100,184,65377,1,4,0:0:0
100,184,65462,6,4,B|128:128|180:84|256:60|348:92,1,239.999992847443
256,192,65973,1,0,0:0:0
200,296,66144,1,0,0:0:0
320,296,66314,1,0,0:0:0
256,192,66485,1,8,0:0:0
256,72,66655,1,4,0:0:0
256,72,66740,1,0,0:0:0
256,72,66826,6,0,B|256:204,1,119.999996423721
364,140,67167,2,0,B|400:196|364:264,1,119.999996423721,8|0,0:0|0:0,0:0:0
148,140,67508,2,0,B|112:196|148:264,1,119.999996423721
196,304,67848,1,4,0:0:0
316,304,68019,1,0,0:0:0
284,324,68104,1,0,0:0:0
256,344,68189,6,0,B|256:92,1,239.999992847443,0|8,0:0|0:0,0:0:0
256,16,68701,5,0,0:0:0
232,52,68871,1,0,0:0:0
260,76,68956,1,0,0:0:0
288,52,69042,1,0,0:0:0
188,84,69212,2,0,B|112:108|108:192,1,119.999996423721,8|0,0:0|0:0,0:0:0
324,84,69553,6,0,B|400:108|404:192,1,119.999996423721,4|0,0:0|0:0,0:0:0
328,164,69894,1,8,0:0:0
468,52,70064,1,0,0:0:0
328,164,70235,2,0,B|332:232|400:240|400:240|408:272,1,119.999996423721
308,320,70576,1,8,0:0:0
256,212,70746,1,0,0:0:0
208,324,70917,6,0,B|112:320|60:236|88:148,1,239.999992847443,4|8,0:0|0:0,0:0:0
256,212,71428,1,0,0:0:0
304,60,71598,2,0,B|400:64|448:156|428:228,1,239.999992847443,0|8,0:0|0:0,0:0:0
428,228,72110,1,0,0:0:0
396,292,72280,5,0,0:0:0
340,160,72451,1,4,0:0:0
340,160,72536,1,0,0:0:0
340,160,72622,1,8,0:0:0
340,160,72792,1,0,0:0:0
256,72,72962,2,0,B|224:132|260:188,1,119.999996423721
264,300,73303,2,0,B|296:240|256:184,1,119.999996423721,8|0,0:0|0:0,0:0:0
188,20,73644,6,0,B|93:23|41:107|66:186,1,239.999992847443,4|8,0:0|0:0,0:0:0
244,164,74155,1,0,0:0:0
304,324,74326,2,0,B|400:320|452:236|424:148,1,239.999992847443,0|8,0:0|0:0,0:0:0
426,157,74837,1,0,0:0:0
292,44,75008,5,4,0:0:0
300,72,75093,1,0,0:0:0
308,100,75178,1,0,0:0:0
264,212,75349,1,8,0:0:0
252,184,75434,1,0,0:0:0
244,164,75519,2,0,B|224:104|160:84,1,119.999996423721
128,200,75860,1,0,0:0:0
180,308,76030,1,8,0:0:0
324,308,76201,1,0,0:0:0
424,204,76371,6,0,B|304:220|292:176|152:204,1,239.999992847443,4|8,0:0|0:0,0:0:0
128,200,76883,1,0,0:0:0
392,132,77053,2,0,B|344:144|272:100|120:132,1,239.999992847443,0|8,0:0|0:0,0:0:0
260,68,77564,1,0,0:0:0
256,188,77735,1,0,0:0:0
256,216,77820,1,0,0:0:0
256,244,77905,2,0,B|256:260|256:260|264:264|264:264|248:264|248:264|264:268|264:268|248:268|248:268|256:272|256:272|256:264|256:264|256:296,1,119.999996423721,0|8,0:0|0:0,0:0:0
356,252,78246,2,0,B|372:312|336:316|308:360,1,119.999996423721
200,355,78587,2,0,B|176:316|140:312|156:252,1,119.999996423721,0|8,0:0|0:0,0:0:0
256,164,78928,1,0,0:0:0
148,116,79098,6,0,B|68:208|68:340,2,239.999992847443,4|8|4,0:0|0:0|0:0,0:0:0
204,224,79951,1,0,0:0:0
204,44,80121,1,8,0:0:0
48,132,80292,1,0,0:0:0
204,224,80462,6,0,B|260:184|328:232,1,119.999996423721
260,272,80803,2,0,B|260:136,1,119.999996423721,8|0,0:0|0:0,0:0:0
316,224,81144,1,0,0:0:0
472,128,81314,1,0,0:0:0
312,44,81485,1,8,0:0:0
316,224,81655,1,0,0:0:0
472,128,81826,6,0,B|480:196|480:196|436:292|368:320,1,239.999992847443,4|8,0:0|0:0,0:0:0
256,176,82337,1,0,0:0:0
204,224,82508,2,0,B|160:160|224:112,1,119.999996423721,0|4,0:0|0:0,0:0:0
256,292,82848,1,8,0:0:0
336,132,83019,1,0,0:0:0
324,312,83189,2,0,B|328:240|256:224,1,119.999996423721,0|4,0:0|0:0,0:0:0
228,224,83445,1,0,0:0:0
204,224,83530,2,0,B|160:160|224:112,1,119.999996423721,8|0,0:0|0:0,0:0:0
256,292,83871,5,0,0:0:0
256,28,84041,1,0,0:0:0
256,292,84212,1,8,0:0:0
256,28,84383,2,0,B|296:96|244:144,1,119.999996423721
200,84,84723,2,0,B|156:140|204:196,1,119.999996423721,0|8,0:0|0:0,0:0:0
220,216,84979,1,0,0:0:0
236,240,85064,1,0,0:0:0
252,264,85150,1,0,0:0:0
272,288,85235,6,0,B|332:344|436:344|496:284,1,239.999992847443,0|8,0:0|0:0,0:0:0
444,252,85746,1,0,0:0:0
420,196,85917,2,0,B|396:128|428:72,1,119.999996423721
324,120,86258,1,8,0:0:0
492,112,86428,1,0,0:0:0
324,120,86598,2,0,B|284:56|220:44,1,119.999996423721,4|0,0:0|0:0,0:0:0
120,84,86939,5,0,0:0:0
104,108,87025,1,0,0:0:0
100,136,87110,1,0,0:0:0
104,164,87195,1,0,0:0:0
112,184,87280,6,0,B|196:320|344:260,1,240,4|0,0:0|0:0,0:0:0
388,236,87962,2,0,B|464:192|464:88,1,160
463,103,88473,1,0,0:0:0
388,124,88644,6,0,B|376:72|424:28,2,80,2|0|0,0:0|0:0|0:0,0:0:0
312,96,89155,2,0,B|324:224|224:312,1,240
148,336,89837,1,0,0:0:0
96,276,90008,6,0,B|67:147|154:52,1,240,2|0,0:0|0:0,0:0:0
180,128,90689,1,0,0:0:0
256,152,90859,1,0,0:0:0
332,132,91030,1,0,0:0:0
360,56,91201,1,0,0:0:0
360,56,91371,6,0,B|416:80|408:152,1,80,2|0,0:0|0:0,0:0:0
476,76,91712,2,0,B|492:156|444:176,1,80
404,200,92053,1,0,0:0:0
256,152,92223,1,0,0:0:0
108,200,92394,1,0,0:0:0
256,236,92564,1,0,0:0:0
384,292,92735,6,0,B|264:344|144:296,1,240,2|0,0:0|0:0,0:0:0
200,236,93416,1,0,0:0:0
192,156,93587,1,0,0:0:0
132,100,93757,1,0,0:0:0
116,180,93928,1,0,0:0:0
192,156,94098,6,0,B|292:168|300:292,1,160,2|0,0:0|0:0,0:0:0
324,336,94610,2,0,B|408:380|484:332,1,160
416,284,95121,1,0,0:0:0
460,220,95292,1,0,0:0:0
440,144,95462,6,0,B|340:132|332:8,1,160,2|0,0:0|0:0,0:0:0
412,20,95973,1,0,0:0:0
336,40,96144,2,0,B|240:56|224:168,1,160
216,224,96655,1,0,0:0:0
288,192,96826,5,2,0:0:0
324,264,96996,1,0,0:0:0
256,308,97167,1,0,0:0:0
256,308,97337,2,0,B|136:312|128:200,1,160
100,156,97848,1,0,0:0:0
112,76,98019,1,0,0:0:0
184,40,98189,6,0,B|208:104|160:136,2,80,2|0|0,0:0|0:0|0:0,0:0:0
264,36,98701,1,0,0:0:0
264,116,98871,2,0,B|344:180|440:96,1,160
448,44,99383,1,0,0:0:0
368,52,99553,2,0,B|336:136|392:216,1,160,2|0,0:0|0:0,0:0:0
460,228,100064,2,0,B|440:328|324:340,1,160
308,268,100576,1,0,0:0:0
300,188,100746,1,0,0:0:0
264,116,100917,6,0,B|216:36|108:44,1,160,2|0,0:0|0:0,0:0:0
130,43,101428,1,0,0:0:0
68,92,101598,1,0,0:0:0
256,352,101939,1,0,0:0:0
176,52,102280,6,0,B|116:112,1,80,2|0,0:0|0:0,0:0:0
200,176,102621,2,0,B|272:104,1,80,0|0,0:0|0:0,0:0:0
344,180,102962,2,0,B|284:240,1,80,2|0,0:0|0:0,0:0:0
368,300,103303,2,0,B|428:240,1,80,0|0,0:0|0:0,0:0:0
476,128,103644,5,2,0:0:0
252,20,103985,1,2,0:0:0
68,188,104326,1,2,0:0:0
256,352,104667,1,2,0:0:0
448,192,105008,1,2,0:0:0
228,76,105348,5,2,0:0:0
144,168,105519,1,0,0:0:0
208,276,105689,2,0,B|255:290|302:276,1,96.0000022888184,2|0,0:0|0:0,0:0:0
392,188,106030,1,2,0:0:0
324,84,106201,1,0,0:0:0
232,192,106371,5,8,0:0:0
356,280,106542,1,0,0:0:0
232,192,106712,5,8,0:0:0
148,324,106883,1,0,0:0:0
232,192,107053,5,8,0:0:0
120,84,107223,1,0,0:0:0
232,192,107394,5,8,0:0:0
336,80,107564,1,0,0:0:0
444,188,107735,5,2,0:0:0
436,220,107820,1,0,0:0:0
420,252,107905,1,0,0:0:0
400,276,107990,1,0,0:0:0
376,300,108076,1,2,0:0:0
348,316,108161,1,0,0:0:0
316,324,108246,1,0,0:0:0
284,328,108331,1,0,0:0:0
252,328,108417,1,2,0:0:0
220,328,108502,1,0,0:0:0
188,328,108587,1,0,0:0:0
156,328,108672,1,0,0:0:0
124,324,108758,1,6,0:0:0
80,56,109098,5,4,0:0:0
56,192,109269,1,0,0:0:0
168,140,109439,1,8,0:0:0
192,236,109610,1,0,0:0:0
120,140,109780,1,4,0:0:0
136,280,109951,1,0,0:0:0
248,228,110121,5,8,0:0:0
272,324,110292,1,0,0:0:0
200,228,110462,1,4,0:0:0
312,176,110633,1,0,0:0:0
336,272,110803,1,8,0:0:0
264,176,110973,1,0,0:0:0
452,288,111144,6,0,B|496:220|496:128,1,119.999996423721,4|0,0:0|0:0,0:0:0
416,212,111485,1,8,0:0:0
380,136,111655,2,0,B|335:204|336:296,2,119.999996423721,0|4|0,0:0|0:0|0:0,0:0:0
416,212,112167,1,8,0:0:0
248,188,112337,2,0,B|164:188|136:120,1,119.999996423721,0|4,0:0|0:0,0:0:0
268,40,112678,1,0,0:0:0
112,24,112848,1,8,0:0:0
16,148,113019,1,0,0:0:0
92,284,113189,6,0,B|216:340,1,119.999996423721,4|0,0:0|0:0,0:0:0
128,196,113530,2,0,B|200:320,1,119.999996423721,8|0,0:0|0:0,0:0:0
256,160,113871,2,0,B|208:288,1,119.999996423721,4|0,0:0|0:0,0:0:0
400,316,114212,1,8,0:0:0
464,148,114383,1,0,0:0:0
464,148,114468,1,0,0:0:0
464,148,114553,6,0,B|372:64|248:40,1,239.999992847443,4|8,0:0|0:0,0:0:0
72,44,115064,2,0,B|16:88|16:156,1,119.999996423721,0|4,0:0|0:0,0:0:0
24,316,115405,1,0,0:0:0
84,160,115576,1,8,0:0:0
164,308,115746,1,0,0:0:0
208,144,115917,2,0,B|256:112|300:116|300:116|352:116,1,119.999996423721,4|0,0:0|0:0,0:0:0
424,268,116258,6,0,B|316:336,1,119.999996423721,8|0,0:0|0:0,0:0:0
380,216,116598,2,0,B|272:284,1,119.999996423721,4|0,0:0|0:0,0:0:0
340,164,116939,2,0,B|232:232,1,119.999996423721,8|0,0:0|0:0,0:0:0
236,72,117280,5,4,0:0:0
108,160,117451,1,0,0:0:0
132,144,117536,1,0,0:0:0
156,128,117621,1,8,0:0:0
284,36,117792,2,0,B|352:36|424:64,1,119.999996423721,0|4,0:0|0:0,0:0:0
484,188,118133,2,0,B|384:188|320:152,1,119.999996423721,0|8,0:0|0:0,0:0:0
252,136,118473,1,0,0:0:0
224,128,118559,1,0,0:0:0
200,112,118644,5,4,0:0:0
68,52,118814,1,0,0:0:0
44,196,118985,2,0,B|60:228|60:228|72:260|72:260|120:276,1,119.999996423721,8|0,0:0|0:0,0:0:0
236,296,119326,1,4,0:0:0
272,300,119411,1,0,0:0:0
308,292,119496,1,0,0:0:0
392,192,119667,2,0,B|520:156,1,119.999996423721,8|0,0:0|0:0,0:0:0
408,56,120008,5,4,0:0:0
268,32,120178,2,0,B|199:12|160:62,1,119.999996423721,0|8,0:0|0:0,0:0:0
200,176,120519,2,0,B|269:195|314:138,1,119.999996423721,0|4,0:0|0:0,0:0:0
216,68,120860,1,0,0:0:0
100,96,121030,1,8,0:0:0
84,104,121115,1,0,0:0:0
72,120,121201,1,0,0:0:0
64,136,121286,1,0,0:0:0
64,152,121371,5,4,0:0:0
116,268,121542,2,0,B|180:280|236:268,1,119.999996423721,0|8,0:0|0:0,0:0:0
184,132,121883,2,0,B|248:120|304:132,1,119.999996423721,0|4,0:0|0:0,0:0:0
440,180,122223,2,0,B|452:244|440:300,1,119.999996423721,0|8,0:0|0:0,0:0:0
304,352,122564,1,0,0:0:0
164,324,122735,5,4,0:0:0
76,212,122905,2,0,B|64:148|76:92,1,119.999996423721,0|8,0:0|0:0,0:0:0
224,132,123246,1,0,0:0:0
356,76,123417,1,4,0:0:0
380,76,123502,1,0,0:0:0
404,76,123587,1,0,0:0:0
428,76,123672,1,0,0:0:0
452,76,123758,1,8,0:0:0
408,192,123928,1,0,0:0:0
452,304,124098,5,4,0:0:0
428,304,124184,1,0,0:0:0
404,304,124269,1,0,0:0:0
380,304,124354,1,0,0:0:0
356,304,124439,1,8,0:0:0
332,188,124610,1,0,0:0:0
264,88,124780,5,4,0:0:0
248,104,124865,1,0,0:0:0
228,120,124951,1,0,0:0:0
212,136,125036,1,0,0:0:0
196,152,125121,1,8,0:0:0
180,168,125206,1,0,0:0:0
164,184,125292,1,0,0:0:0
56,128,125462,5,4,0:0:0
56,128,125633,2,0,B|56:268,1,119.999996423721,0|8,0:0|0:0,0:0:0
144,332,125973,1,0,0:0:0
228,248,126144,1,4,0:0:0
240,232,126229,1,0,0:0:0
252,216,126314,1,0,0:0:0
260,200,126400,1,0,0:0:0
268,184,126485,2,0,B|288:104|252:64,1,119.999996423721,8|0,0:0|0:0,0:0:0
256,68,126826,5,0,0:0:0
372,100,126996,1,0,0:0:0
160,136,127167,1,8,0:0:0
256,68,127337,1,0,0:0:0
372,100,127508,2,0,B|456:200|420:344,1,239.999992847443,0|8,0:0|0:0,0:0:0
392,304,127934,1,0,0:0:0
360,292,128019,1,0,0:0:0
324,292,128104,1,0,0:0:0
288,300,128189,6,0,B|232:340|168:296,1,119.999996423721
108,204,128530,2,0,B|180:168|240:228,1,119.999996423721,8|0,0:0|0:0,0:0:0
256,96,128871,1,0,0:0:0
436,92,129042,1,0,0:0:0
352,252,129212,1,8,0:0:0
348,72,129383,1,0,0:0:0
352,252,129553,5,0,0:0:0
340,272,129638,1,0,0:0:0
324,292,129723,1,0,0:0:0
304,308,129809,1,0,0:0:0
284,324,129894,2,0,B|200:332|184:244,1,119.999996423721,8|0,0:0|0:0,0:0:0
296,208,130235,1,0,0:0:0
304,184,130320,1,0,0:0:0
304,160,130405,1,0,0:0:0
300,136,130490,1,0,0:0:0
292,112,130576,2,0,B|236:48|160:64,1,119.999996423721,8|0,0:0|0:0,0:0:0
68,56,130917,6,0,B|72:220|204:128|216:236,1,239.999992847443,0|8,0:0|0:0,0:0:0
180,44,131428,1,0,0:0:0
212,220,131598,2,0,B|232:308|160:348,1,119.999996423721
300,292,131939,1,8,0:0:0
120,264,132110,1,0,0:0:0
300,292,132280,2,0,B|352:332|424:288,1,119.999996423721
468,344,132621,6,0,B|508:288|456:228,1,119.999996423721,8|0,0:0|0:0,0:0:0
392,212,132962,1,0,0:0:0
472,48,133133,1,0,0:0:0
480,164,133303,1,8,0:0:0
364,28,133473,1,0,0:0:0
292,124,133644,6,0,B|288:288|156:196|144:304,1,239.999992847443,0|8,0:0|0:0,0:0:0
232,348,134155,1,0,0:0:0
164,168,134326,1,0,0:0:0
324,252,134496,1,0,0:0:0
164,168,134667,2,0,B|180:96|92:56,1,119.999996423721,8|0,0:0|0:0,0:0:0
76,244,135008,6,0,B|72:320|140:352,1,119.999996423721
256,220,135348,1,8,0:0:0
384,344,135519,1,0,0:0:0
436,244,135689,2,0,B|440:320|372:352,1,119.999996423721
348,168,136030,2,0,B|332:96|420:56,1,119.999996423721,8|0,0:0|0:0,0:0:0
276,64,136371,6,0,B|204:48|204:48|120:64|60:152,1,239.999992847443,0|8,0:0|0:0,0:0:0
188,164,136883,1,0,0:0:0
104,252,137053,1,0,0:0:0
69,138,137223,1,0,0:0:0
104,252,137394,1,8,0:0:0
224,272,137564,1,0,0:0:0
156,324,137735,6,0,B|204:344|280:328,1,119.999996423721
428,232,138076,1,8,0:0:0
472,344,138246,1,0,0:0:0
352,320,138417,1,0,0:0:0
340,300,138502,1,0,0:0:0
332,276,138587,1,0,0:0:0
332,252,138672,1,0,0:0:0
332,228,138758,1,8,0:0:0
472,344,138928,1,0,0:0:0
332,228,139098,6,0,B|344:144|444:128,1,119.999996423721
428,232,139439,1,8,0:0:0
444,52,139610,1,0,0:0:0
280,128,139780,1,0,0:0:0
332,228,139951,1,0,0:0:0
324,72,140121,1,8,0:0:0
332,228,140292,1,0,0:0:0
220,124,140462,6,0,B|216:184|136:216,1,119.999996423721
108,96,140803,1,8,0:0:0
68,208,140973,1,0,0:0:0
112,320,141144,6,0,B|168:280|232:324,1,119.999996423721
152,204,141485,1,8,0:0:0
108,96,141655,1,0,0:0:0
152,204,141826,6,0,B|272:248|388:200,1,239.999992847443,0|8,0:0|0:0,0:0:0
420,84,142337,1,0,0:0:0
460,200,142508,1,0,0:0:0
424,312,142678,1,0,0:0:0
320,252,142848,1,8,0:0:0
256,84,143019,1,0,0:0:0
204,256,143189,2,0,B|152:292|84:248,1,119.999996423721
256,84,143530,2,0,B|244:128|272:128|256:208,1,119.999996423721,8|0,0:0|0:0,0:0:0
320,252,143871,2,0,B|380:216|448:260,1,119.999996423721
376,312,144212,1,8,0:0:0
256,192,144383,1,0,0:0:0
416,140,144553,6,0,B|496:232|472:260|436:296|488:360,2,239.999992847443,0|8|0,0:0|0:0|0:0,0:0:0
396,260,145405,1,0,0:0:0
340,152,145576,1,8,0:0:0
484,180,145746,1,0,0:0:0
396,260,145917,6,0,B|400:328|468:356,1,119.999996423721
340,152,146258,2,0,B|276:200|300:288,1,119.999996423721,8|0,0:0|0:0,0:0:0
216,168,146598,1,0,0:0:0
340,152,146769,1,0,0:0:0
428,68,146939,1,8,0:0:0
308,72,147110,1,0,0:0:0
216,168,147280,6,0,B|176:92|76:152|40:24,2,239.999992847443,0|8|0,0:0|0:0|0:0,0:0:0
216,48,148133,1,0,0:0:0
216,168,148303,1,8,0:0:0
116,236,148473,1,0,0:0:0
216,168,148644,6,0,B|244:236|320:240,1,119.999996423721
348,280,148900,1,0,0:0:0
404,296,148985,2,0,B|484:280|484:164,1,119.999996423721,8|0,0:0|0:0,0:0:0
448,36,149326,2,0,B|392:84|416:168,1,119.999996423721
348,280,149667,1,8,0:0:0
224,188,149837,1,0,0:0:0
160,332,150008,6,0,B|80:240|152:176|72:104,1,239.999992847443,0|8,0:0|0:0,0:0:0
80,80,150434,1,0,0:0:0
96,56,150519,1,0,0:0:0
124,44,150604,1,0,0:0:0
152,40,150689,2,0,B|212:80|284:32,1,119.999996423721
348,280,151030,1,8,0:0:0
252,208,151201,1,0,0:0:0
324,112,151371,5,0,0:0:0
424,180,151542,1,0,0:0:0
272,280,151712,1,8,0:0:0
208,112,151883,1,0,0:0:0
380,56,152053,1,0,0:0:0
448,224,152223,1,0,0:0:0
208,260,152394,1,8,0:0:0
232,20,152564,1,0,0:0:0
464,40,152735,5,4,0:0:0
496,112,152905,1,0,0:0:0
504,192,153076,1,0,0:0:0
488,272,153246,2,0,B|444:304|376:300|328:272,1,160
304,200,153758,1,0,0:0:0
300,120,153928,1,0,0:0:0
312,40,154098,5,0,0:0:0
244,80,154269,1,0,0:0:0
176,120,154439,1,0,0:0:0
100,140,154610,2,0,B|48:164|32:192|48:240|48:240|72:280,1,160
136,336,155121,5,0,0:0:0
232,320,155292,1,0,0:0:0
240,224,155462,1,0,0:0:0
152,188,155633,1,0,0:0:0
92,260,155803,1,0,0:0:0
172,264,155973,2,0,B|220:260|256:288|294:284|332:268,1,160
412,256,156485,5,0,0:0:0
476,208,156655,1,0,0:0:0
488,128,156826,1,0,0:0:0
416,92,156996,1,0,0:0:0
404,172,157167,1,0,0:0:0
344,224,157337,1,0,0:0:0
264,240,157508,2,0,B|216:240|188:212,2,80
300,168,158019,2,0,B|288:120|248:100,1,80
184,68,158360,2,0,B|136:48|72:84,2,80
184,68,158871,5,0,0:0:0
276,116,159042,1,0,0:0:0
200,188,159212,1,0,0:0:0
104,148,159383,1,0,0:0:0
20,208,159553,2,0,B|32:244|56:260|106:250|106:250|148:288,1,160
236,340,160064,1,0,0:0:0
340,352,160235,1,0,0:0:0
432,304,160405,1,0,0:0:0
476,212,160576,2,0,B|463:183|434:149|434:149|400:121|364:101,1,160
264,88,161087,5,0,0:0:0
164,44,161258,1,0,0:0:0
260,24,161428,1,0,0:0:0
348,192,161769,1,0,0:0:0
274,265,161939,1,0,0:0:0
200,191,162110,1,0,0:0:0
273,117,162280,6,0,B|308:172|312:220|272:268,1,160
192,328,162792,1,0,0:0:0
88,316,162962,1,0,0:0:0
60,216,163133,2,0,B|44:128|136:76,1,160
256,52,163644,5,0,0:0:0
224,124,163814,1,0,0:0:0
264,192,163985,1,0,0:0:0
184,196,164155,2,0,B|184:288|256:340,1,160
296,268,164667,2,0,B|340:308|332:356,1,80
264,192,165008,5,8,0:0:0
344,200,165178,1,0,0:0:0
296,268,165348,1,2,0:0:0
264,192,165519,1,0,0:0:0
312,128,165689,5,8,0:0:0
376,276,165860,1,0,0:0:0
216,260,166030,1,2,0:0:0
144,116,166201,1,0,0:0:0
188,52,166371,5,8,0:0:0
108,48,166542,1,0,0:0:0
64,116,166712,1,2,0:0:0
104,184,166883,2,0,B|132:272|92:352,1,160
176,324,167394,1,2,0:0:0
216,260,167564,1,0,0:0:0
144,116,167735,6,0,B|228:112|288:44,1,160,0|2,0:0|0:0,0:0:0
356,84,168246,1,0,0:0:0
228,180,168417,2,0,B|300:216|344:304,1,160,0|2,0:0|0:0,0:0:0
404,336,168928,1,0,0:0:0
348,180,169098,6,0,B|380:228|444:244,1,80,2|0,0:0|0:0,0:0:0
420,156,169439,2,0,B|472:152|496:116,1,80,2|0,0:0|0:0,0:0:0
424,76,169780,2,0,B|432:32|408:-4,1,80,2|0,0:0|0:0,0:0:0
344,48,170121,1,2,0:0:0
300,116,170292,1,0,0:0:0
160,196,170462,6,0,B|180:112|244:60,1,160,2|2,0:0|0:0,0:0:0
300,116,170973,1,0,0:0:0
140,92,171144,2,0,B|232:144|272:236,2,160,2|2|10,0:0|0:0|0:0,0:0:0
68,132,171996,1,0,0:0:0
136,176,172167,1,8,0:0:0
64,208,172337,1,0,0:0:0
32,52,172508,5,8,0:0:0
180,112,172678,1,0,0:0:0
116,256,172848,1,8,0:0:0
264,316,173019,1,0,0:0:0
332,172,173189,5,8,0:0:0
352,208,173275,1,0,0:0:0
388,228,173360,1,0,0:0:0
428,228,173445,1,0,0:0:0
464,208,173530,1,8,0:0:0
484,172,173615,1,0,0:0:0
476,132,173701,1,0,0:0:0
460,96,173786,1,0,0:0:0
424,80,173871,5,8,0:0:0
332,172,174042,1,0,0:0:0
424,80,174212,1,8,0:0:0
256,248,174553,6,0,B|116:204|96:72,1,239.999992847443,4|4,0:0|0:0,0:0:0
72,200,175064,1,0,0:0:0
144,296,175235,1,0,0:0:0
144,296,175320,1,0,0:0:0
144,296,175405,1,0,0:0:0
144,104,175576,1,8,0:0:0
256,248,175747,1,4,0:0:0
256,136,175917,6,0,B|392:136|472:48,1,239.999992847443,0|8,0:0|0:0,0:0:0
376,264,176428,2,0,B|468:152|472:44,1,239.999992847443
396,96,176939,1,8,0:0:0
332,132,177110,1,0,0:0:0
256,352,177280,6,0,B|216:228|260:104,1,239.999992847443
196,76,177792,1,0,0:0:0
136,112,177962,1,0,0:0:0
160,136,178047,1,0,0:0:0
196,148,178133,1,0,0:0:0
64,120,178303,1,0,0:0:0
184,324,178473,1,0,0:0:0
368,168,178644,6,0,B|320:212|208:208,1,119.999996423721
184,216,178985,1,0,0:0:0
368,168,179155,2,0,B|432:240|400:328,1,119.999996423721
388,344,179496,1,0,0:0:0
468,180,179667,1,0,0:0:0
312,272,179837,1,0,0:0:0
488,300,180008,6,0,B|400:220|264:184,1,239.999992847443
256,308,180519,1,0,0:0:0
256,68,180689,1,0,0:0:0
256,68,180775,1,0,0:0:0
256,68,180860,1,0,0:0:0
200,268,181030,1,0,0:0:0
320,104,181201,1,0,0:0:0
268,236,181371,5,0,0:0:0
208,196,181542,1,0,0:0:0
380,144,181712,1,0,0:0:0
140,176,181883,1,0,0:0:0
324,24,182053,1,0,0:0:0
336,264,182223,1,0,0:0:0
396,92,182394,1,0,0:0:0
156,104,182564,1,0,0:0:0
24,300,182735,6,0,B|112:220|248:184,1,239.999992847443
236,284,183246,1,0,0:0:0
264,44,183417,1,0,0:0:0
264,44,183502,1,0,0:0:0
264,44,183587,1,0,0:0:0
236,284,183758,1,0,0:0:0
264,44,183928,1,0,0:0:0
128,180,184098,6,0,B|180:240|252:152|252:152|308:236|364:172,1,239.999992847443
440,112,184610,1,0,0:0:0
328,292,184780,1,0,0:0:0
180,96,184951,2,0,B|140:44|76:44,1,119.999996423721
28,184,185292,1,0,0:0:0
116,292,185462,6,0,B|140:336|272:368|332:288,2,239.999992847443
92,156,186314,1,0,0:0:0
292,32,186485,1,0,0:0:0
76,64,186655,1,0,0:0:0
420,156,186826,5,0,0:0:0
220,32,186997,1,0,0:0:0
436,64,187167,1,0,0:0:0
256,136,187337,2,0,B|256:192|220:252,1,119.999996423721
256,352,187678,2,0,B|304:300|304:236,1,119.999996423721
256,28,188019,1,0,0:0:0
128,160,188189,6,0,B|128:252|188:288|256:244|256:188|256:188|256:124|324:80|396:120|396:228,1,479.999985694886
324,264,189042,1,0,0:0:0
192,124,189213,1,0,0:0:0
300,40,189383,1,0,0:0:0
432,108,189554,5,0,0:0:0
460,140,189638,1,0,0:0:0
480,176,189723,1,0,0:0:0
440,296,189894,2,0,B|388:332|312:332,1,119.999996423721
184,264,190235,1,0,0:0:0
328,208,190405,1,0,0:0:0
260,68,190576,1,0,0:0:0
116,124,190746,1,0,0:0:0
120,272,190917,6,0,B|160:352|296:352|328:300,1,239.999992847443
404,152,191428,1,0,0:0:0
440,96,191598,2,0,B|496:138|452:202,1,119.999996423721
324,280,191939,1,0,0:0:0
200,136,192110,1,0,0:0:0
392,264,192280,6,0,B|392:336|312:352,1,119.999996423721
280,352,192536,1,0,0:0:0
236,352,192621,2,0,B|164:352|148:272,1,119.999996423721
120,52,192962,1,0,0:0:0
440,216,193133,1,0,0:0:0
108,240,193303,1,0,0:0:0
384,80,193473,1,0,0:0:0
316,336,193644,6,0,B|356:268|304:220,1,119.999996423721
172,56,193984,2,0,B|128:112|176:168,1,119.999996423721
196,188,194240,1,0,0:0:0
224,204,194326,2,0,B|280:168|344:208,1,119.999996423721
500,28,194667,2,0,B|436:56|432:128,1,119.999996423721
364,136,195008,5,0,0:0:0
492,336,195178,1,0,0:0:0
484,216,195348,1,0,0:0:0
388,288,195519,2,0,B|272:344|140:280,1,239.999992847443
176,268,195945,5,0,0:0:0
176,240,196030,1,0,0:0:0
164,212,196115,1,0,0:0:0
140,192,196201,1,0,0:0:0
112,180,196286,1,0,0:0:0
84,172,196371,6,0,B|160:68|336:96,1,239.999992847443
416,116,196883,1,0,0:0:0
360,220,197053,2,0,B|332:276|360:340,1,119.999996423721
464,280,197394,1,0,0:0:0
256,332,197564,1,0,0:0:0
48,276,197735,6,0,B|120:248|120:180,1,119.999996423721
136,120,198076,1,0,0:0:0
108,52,198246,1,0,0:0:0
68,112,198417,5,0,0:0:0
176,64,198587,1,0,0:0:0
256,200,198758,1,0,0:0:0
328,60,198928,1,0,0:0:0
444,112,199098,6,0,B|492:228|432:360,2,239.999992847443
328,60,199951,1,0,0:0:0
340,180,200121,1,0,0:0:0
228,224,200292,1,0,0:0:0
160,124,200462,6,0,B|104:160|96:228,1,119.999996423721
216,32,200803,2,0,B|280:72|264:156,1,119.999996423721
228,224,201144,1,0,0:0:0
328,60,201314,1,0,0:0:0
160,124,201485,1,0,0:0:0
340,180,201655,1,0,0:0:0
160,300,201826,6,0,B|276:352|408:296,2,239.999992847443
100,264,202678,1,0,0:0:0
68,200,202848,1,0,0:0:0
152,40,203019,1,0,0:0:0
136,104,203189,6,0,B|116:168|68:200,1,119.999996423721
228,288,203530,2,0,B|240:220|296:192,1,119.999996423721
176,176,203871,1,0,0:0:0
294,193,204042,1,0,0:0:0
396,256,204212,1,0,0:0:0
396,256,204297,1,0,0:0:0
396,256,204383,1,0,0:0:0
396,256,204468,1,0,0:0:0
396,256,204553,6,0,B|440:140|388:16,1,239.999992847443
336,72,205064,1,0,0:0:0
480,112,205235,1,0,0:0:0
348,180,205405,1,0,0:0:0
352,300,205576,2,0,B|292:332|224:296,1,119.999996423721
108,240,205917,1,0,0:0:0
108,240,206002,1,0,0:0:0
108,240,206087,2,0,B|80:188|100:120|128:48|212:28|324:80,1,359.999989271164
432,204,206939,5,0,0:0:0
368,336,207110,1,0,0:0:0
288,216,207280,2,0,B|288:148|256:96,2,119.999996423721
252,356,207792,1,0,0:0:0
112,324,207962,2,0,B|60:288|56:208,1,119.999996423721
204,208,208303,1,0,0:0:0
328,280,208473,1,0,0:0:0
452,208,208644,6,0,B|452:88,1,119.999996423721
308,84,208985,2,0,B|308:208,1,119.999996423721
228,324,209326,2,0,B|164:344|104:320,2,119.999996423721
352,252,209837,1,0,0:0:0
380,228,209922,1,0,0:0:0
396,196,210008,6,0,B|416:168|424:140|416:108|392:84,1,119.999996423721
264,24,210348,2,0,B|180:4|128:36|132:108|132:108|100:148,1,239.999992847443
92,232,210860,1,0,0:0:0
136,304,211030,2,0,B|196:365|257:365|292:302|292:302|340:285,1,239.999992847443
440,236,211542,1,0,0:0:0
308,128,211712,1,0,0:0:0
448,36,211883,1,0,0:0:0
392,204,212053,5,0,0:0:0
336,40,212223,1,0,0:0:0
488,128,212394,1,0,0:0:0
308,128,212564,2,0,B|188:164|168:312,2,239.999992847443
412,260,213417,1,0,0:0:0
256,344,213587,1,0,0:0:0
100,260,213758,1,0,0:0:0
256,40,213928,1,0,0:0:0
256,64,214013,1,0,0:0:0
256,88,214098,6,0,B|256:148|172:328,1,239.999992847443
20,256,214610,1,0,0:0:0
100,124,214780,1,0,0:0:0
256,200,214951,1,0,0:0:0
396,120,215121,1,0,0:0:0
396,120,215206,1,0,0:0:0
396,120,215292,2,0,B|420:188|472:212,2,119.999996423721
256,36,215803,1,0,0:0:0
128,112,215973,2,0,B|88:192|176:256|176:256|256:272,1,239.999992847443
440,264,216485,2,0,B|480:184|392:120|392:120|312:104,1,239.999992847443
100,92,216996,5,0,0:0:0
16,280,217167,1,0,0:0:0
228,348,217337,1,0,0:0:0
392,252,217508,1,0,0:0:0
324,44,217678,1,0,0:0:0
276,128,217848,1,0,0:0:0
196,200,218019,1,0,0:0:0
256,192,218189,12,0,219894,0:0:0
