osu file format v14

[General]
AudioFilename: Maduk - Gosth Assassin.mp3
AudioLeadIn: 0
PreviewTime: 43720
Countdown: 0
SampleSet: Normal
StackLeniency: 0.7
Mode: 0
LetterboxInBreaks: 1
WidescreenStoryboard: 0

[Editor]
Bookmarks: 19103,39558,65467,87285,98280,103649
DistanceSpacing: 1.5
BeatDivisor: 4
GridSize: 4
TimelineZoom: 2.799999

[Metadata]
Title:Ghost Assassin VIP
TitleUnicode:Ghost Assassin VIP
Artist:Maduk (feat. Veela)
ArtistUnicode:Maduk (feat. Veela)
Creator:CerealeKiller
Version:Insane
Source:
Tags:DnB Drum and bass liquicity Hourglass Starcraft Sarah Kerrigan Pjecoo
BeatmapID:376957
BeatmapSetID:153331

[Difficulty]
HPDrainRate:6
CircleSize:4
OverallDifficulty:6
ApproachRate:9
SliderMultiplier:1.5
SliderTickRate:1

[Events]
//Background and Video events
0,0,"BG gosth assassin.jpg",0,0
//Break Periods
2,88238,96302
//Storyboard Layer 0 (Background)
//Storyboard Layer 1 (Fail)
//Storyboard Layer 2 (Pass)
//Storyboard Layer 3 (Foreground)
//Storyboard Sound Samples

[TimingPoints]
84,340.909090909091,4,1,0,100,1,0
21902,-166.666666666667,4,2,0,50,0,0
40993,-166.666666666667,4,1,0,40,0,0
41334,-166.666666666667,4,1,0,45,0,0
41674,-166.666666666667,4,1,0,50,0,0
42015,-166.666666666667,4,1,0,55,0,0
42356,-83.3333333333333,4,1,0,60,0,0
43379,-83.3333333333333,4,1,0,100,0,0
43720,-83.3333333333333,4,1,0,60,0,1
65538,-133.333333333333,4,2,0,60,0,0
66671,-83.3333333333333,4,1,0,60,0,0
68265,-133.333333333333,4,2,0,60,0,0
69386,-83.3333333333333,4,1,0,60,0,0
70993,-133.333333333333,4,2,0,60,0,0
72356,-83.3333333333333,4,1,0,60,0,0
73720,-133.333333333333,4,2,0,60,0,0
75084,-83.3333333333333,4,1,0,60,0,0
76447,-133.333333333333,4,2,0,60,0,0
77811,-83.3333333333333,4,1,0,60,0,0
79174,-133.333333333333,4,2,0,60,0,0
80538,-83.3333333333333,4,1,0,60,0,0
81902,-133.333333333333,4,2,0,60,0,0
83265,-83.3333333333333,4,1,0,60,0,0
84629,-133.333333333333,4,2,0,60,0,0
85993,-83.3333333333333,4,1,0,60,0,0
87356,-133.333333333333,4,2,0,60,0,0
88648,-100,4,1,0,60,0,0
96830,-133.333333333333,4,2,0,50,0,0
103734,-100,4,1,0,40,0,0
106461,-100,4,1,0,45,0,0
106802,-100,4,1,0,50,0,0
107143,-100,4,1,0,55,0,0
107484,-100,4,1,0,60,0,0
108847,-100,4,1,0,100,0,0
109188,-83.3333333333333,4,1,0,60,0,1
130993,-83.3333333333333,4,1,0,60,0,0

[Colours]
Combo1 : 189,112,241
Combo2 : 113,84,245
Combo3 : 21,67,251

[HitObjects]
256,192,19174,12,0,21561,2:0:0:0:
232,196,21902,5,0,2:0:0:0:
176,124,22072,1,0,2:0:0:0:
200,40,22243,1,0,2:0:0:0:
288,28,22413,2,0,B|378:41|378:41|419:69,2,134.999995880127
208,72,23606,1,0,2:0:0:0:
148,140,23777,1,0,2:0:0:0:
60,120,23947,2,0,P|33:75|24:39,1,89.9999972534181,0|0,2:0|2:0,0:0:0:0:
22,39,24459,1,0,0:0:0:0:
149,97,24629,5,0,0:0:0:0:
229,133,24799,1,0,0:0:0:0:
320,140,24970,1,0,0:0:0:0:
230,133,25140,2,0,P|213:202|218:267,1,134.999995880127
217,265,25993,5,0,0:0:0:0:
290,317,26163,1,0,0:0:0:0:
374,334,26334,1,0,0:0:0:0:
390,247,26504,2,0,P|325:260|290:316,1,134.999995880127
289,316,27186,1,0,0:0:0:0:
408,344,27356,5,0,0:0:0:0:
460,276,27527,1,0,0:0:0:0:
472,188,27697,1,0,0:0:0:0:
421,111,27868,2,0,P|367:68|297:48,1,134.999995880127
176,40,28720,2,0,P|163:126|78:161,1,179.999994506836
28,92,29572,6,0,L|12:36,2,44.999998626709
76,172,30084,1,0,0:0:0:0:
148,224,30254,1,0,0:0:0:0:
240,240,30424,1,0,0:0:0:0:
328,216,30595,2,0,P|394:209|454:237,1,134.999995880127
100,312,31447,5,0,0:0:0:0:
159,241,31618,1,0,0:0:0:0:
188,324,31788,1,0,0:0:0:0:
100,312,31959,2,0,P|59:257|46:190,1,134.999995880127
352,44,32811,5,0,0:0:0:0:
312,124,32981,1,0,0:0:0:0:
224,148,33152,1,0,0:0:0:0:
208,59,33322,2,0,P|272:70|312:127,1,134.999995880127
92,269,34174,6,0,P|51:164|50:84,1,179.999994506836,0|0,0:0|0:0,2:0:0:0:
120,44,35027,1,0,0:0:0:0:
196,92,35197,1,0,0:0:0:0:
284,108,35368,1,0,0:0:0:0:
384,84,35538,6,0,L|396:32,2,44.999998626709
376,172,36049,2,0,P|338:201|279:205,1,89.9999972534181
228,148,36561,6,0,L|238:104,1,44.999998626709
172,220,36902,2,0,L|161:263,2,44.999998626709
128,144,37413,2,0,P|61:137|2:167,1,134.999995880127
2,167,38095,1,0,0:0:0:0:
68,280,38265,5,0,0:0:0:0:
156,296,38436,1,0,0:0:0:0:
244,284,38606,1,0,0:0:0:0:
308,220,38777,2,0,B|336:72,1,134.999995880127
276,16,39459,5,0,0:0:0:0:
248,100,39629,1,0,0:0:0:0:
332,64,39799,1,0,0:0:0:0:
244,40,39970,1,0,0:0:0:0:
300,112,40140,1,0,0:0:0:0:
328,28,40311,1,0,0:0:0:0:
248,68,40481,1,0,0:0:0:0:
308,136,40652,1,0,0:0:0:0:
407,134,40822,1,0,0:0:0:0:
408,224,40993,6,0,L|444:236,1,22.4999993133545
404,300,41163,2,0,L|438:313,1,22.4999993133545
320,320,41334,2,0,L|306:354,1,22.4999993133545
268,252,41504,2,0,L|254:286,1,22.4999993133545
312,184,41674,2,0,L|347:178,1,22.4999993133545
232,176,41845,2,0,L|209:147,1,22.4999993133545
204,80,42015,2,0,L|212:58,1,22.4999993133545
140,136,42186,2,0,L|117:139,1,22.4999993133545
56,204,42356,5,0,0:0:0:0:
60,241,42441,1,0,0:0:0:0:
74,275,42527,1,0,0:0:0:0:
99,303,42612,1,0,0:0:0:0:
132,321,42697,1,0,0:0:0:0:
169,326,42782,1,0,0:0:0:0:
205,318,42868,5,0,0:0:0:0:
238,300,42953,1,0,0:0:0:0:
268,277,43038,1,0,0:0:0:0:
297,254,43123,1,0,0:0:0:0:
329,235,43209,1,0,0:0:0:0:
366,227,43294,1,0,0:0:0:0:
402,235,43379,5,12,0:1:0:0:
402,235,43720,6,0,B|372:271|372:271|331:286,1,89.9999972534181
200,312,44061,1,8,0:0:0:0:
288,208,44231,1,0,0:0:0:0:
312,76,44402,2,0,B|293:35|293:35|255:9,1,89.9999972534181
140,80,44743,1,8,0:0:0:0:
100,208,44913,1,0,0:0:0:0:
224,264,45084,1,0,0:0:0:0:
284,80,45254,1,0,0:0:0:0:
144,216,45424,1,8,0:1:0:0:
336,148,45595,1,0,0:0:0:0:
144,216,45765,2,0,P|102:195|69:165,2,89.9999972534181,0|0|8,0:0|0:0|0:0,0:0:0:0:
304,176,46277,1,0,0:0:0:0:
472,240,46447,6,0,L|440:344,1,89.9999972534181,0|0,0:0|0:0,0:0:0:0:
328,264,46788,1,8,0:0:0:0:
384,144,46959,2,0,B|360:48|360:48|328:32,1,89.9999972534181
224,64,47299,1,0,0:0:0:0:
104,120,47470,1,8,0:0:0:0:
79,252,47640,2,0,L|72:352,2,89.9999972534181
228,116,48152,2,0,P|308:164|332:204,1,89.9999972534181,8|0,0:0|0:0,0:0:0:0:
80,336,48493,2,0,L|94:247,1,89.9999972534181,0|8,0:0|0:0,0:0:0:0:
169,104,48834,1,8,0:0:0:0:
360,72,49004,1,0,0:0:0:0:
384,200,49174,5,0,0:0:0:0:
252,160,49345,1,0,0:1:0:0:
360,72,49515,1,8,0:1:0:0:
384,200,49686,1,0,0:1:0:0:
408,328,49856,2,0,P|460:325|510:297,2,89.9999972534181,0|0|8,0:0|0:0|0:0,0:0:0:0:
172,280,50368,5,0,0:0:0:0:
72,188,50538,1,0,0:0:0:0:
116,60,50709,1,0,0:0:0:0:
252,56,50879,1,8,0:0:0:0:
332,164,51049,2,0,L|348:292,1,89.9999972534181
257,235,51390,2,0,L|245:145,1,89.9999972534181,0|8,0:0|0:0,0:0:0:0:
304,24,51731,1,0,0:0:0:0:
372,224,51902,5,0,0:0:0:0:
232,68,52072,1,0,0:0:0:0:
424,160,52243,1,8,0:0:0:0:
224,152,52413,1,0,0:0:0:0:
412,80,52584,1,0,0:0:0:0:
244,44,52754,2,0,B|188:68|188:68|148:132,1,89.9999972534181,0|8,0:0|0:0,0:0:0:0:
180,204,53095,2,0,B|236:180|236:180|252:156,1,89.9999972534181
184,64,53436,5,0,0:0:0:0:
89,245,53606,1,8,0:0:0:0:
268,320,53777,1,0,0:0:0:0:
393,204,53947,2,0,P|393:71|386:50,1,89.9999972534181,0|8,0:0|0:0,2:0:0:0:
328,16,54288,1,8,0:0:0:0:
224,160,54459,1,0,0:0:0:0:
192,328,54629,6,0,B|148:326|105:308|105:308|76:261|70:187,1,179.999994506836,0|8,0:0|0:0,0:0:0:0:
64,88,55140,1,0,0:0:0:0:
159,183,55311,2,0,B|170:202|176:226|176:226|212:232|236:246,2,89.9999972534181,0|0|8,0:0|0:0|0:0,0:0:0:0:
236,44,55822,1,0,0:0:0:0:
396,101,55993,1,0,0:0:0:0:
253,188,56163,1,0,0:0:0:0:
414,246,56334,1,8,0:0:0:0:
284,284,56504,2,0,B|234:273|234:273|148:291,1,89.9999972534181
140,358,56845,2,0,B|92:343|92:343|22:286,1,89.9999972534181,0|8,0:0|0:0,0:0:0:0:
24,188,57186,1,0,0:0:0:0:
136,80,57356,6,0,P|96:160|64:192,1,89.9999972534181
152,264,57697,2,0,P|222:319|264:335,2,89.9999972534181,8|0|0,0:0|0:0|0:0,0:0:0:0:
96,160,58209,2,0,P|111:117|135:80,1,89.9999972534181,0|8,0:0|0:0,0:0:0:0:
272,64,58549,1,0,0:0:0:0:
352,159,58720,1,0,0:0:0:0:
226,185,58890,1,0,0:0:0:0:
272,64,59061,1,8,0:0:0:0:
352,159,59231,1,0,0:0:0:0:
359,288,59402,2,0,P|386:337|446:368,1,89.9999972534181,0|8,0:0|0:0,0:0:0:0:
277,313,59743,2,0,P|249:263|189:232,1,89.9999972534181,8|0,0:0|0:0,0:0:0:0:
64,220,60084,5,0,0:0:0:0:
52,384,60254,1,8,0:0:0:0:
192,320,60424,1,0,0:0:0:0:
264,204,60595,2,0,P|295:109|293:89,1,89.9999972534181
168,72,60936,1,0,0:0:0:0:
84,176,61106,1,8,0:0:0:0:
128,304,61277,1,0,0:0:0:0:
248,348,61447,2,0,P|343:339|389:311,1,89.9999972534181
408,224,61788,2,0,P|413:179|409:134,1,89.9999972534181,8|0,0:0|0:0,0:0:0:0:
332,260,62129,2,0,P|357:288|442:306,2,89.9999972534181,0|0|8,0:0|0:0|0:0,0:0:0:0:
232,140,62640,1,0,0:0:0:0:
76,84,62811,6,0,P|80:148|100:204,1,89.9999972534181
172,264,63152,1,8,0:0:0:0:
232,140,63322,1,0,0:0:0:0:
86,173,63493,2,0,P|62:211|53:255,2,89.9999972534181,0|0|8,0:0|0:0|0:0,3:0:0:0:
210,98,64004,1,0,0:0:0:0:
365,120,64174,2,0,L|484:165,1,89.9999972534181
304,221,64515,2,0,L|370:334,1,89.9999972534181,8|0,0:0|0:0,0:0:0:0:
192,265,64856,2,0,L|185:362,2,89.9999972534181,0|8|8,0:0|0:0|0:0,0:0:0:0:
439,110,65538,6,0,P|452:192|437:282,1,168.750006437302
360,248,66220,2,0,P|368:194|356:129,1,112.500004291535,0|8,0:0|0:1,0:0:0:0:
136,196,66902,5,0,0:0:0:0:
34,240,67072,1,0,0:0:0:0:
123,311,67243,1,8,0:0:0:0:
136,197,67413,1,0,0:0:0:0:
113,93,67584,2,0,P|69:114|41:152,1,89.9999972534181
34,240,67924,1,8,0:0:0:0:
465,230,68265,6,0,B|432:318|335:322,1,168.750006437302
256,304,68947,2,0,P|300:251|365:248,1,112.500004291535,0|8,0:0|0:1,0:0:0:0:
33,286,69629,5,0,0:0:0:0:
108,196,69799,2,0,P|108:101|71:57,1,89.9999972534181,0|8,0:0|0:0,0:0:0:0:
173,23,70140,1,0,0:0:0:0:
272,64,70311,2,0,P|287:105|317:137,1,89.9999972534181
424,160,70652,1,8,0:0:0:0:
336,340,70993,6,0,P|397:248|462:273,1,168.750006437302
409,322,71674,2,0,L|313:229,1,112.500004291535,0|8,0:0|0:1,0:0:0:0:
89,160,72356,5,0,0:0:0:0:
203,106,72527,1,0,0:0:0:0:
254,220,72697,1,8,0:0:0:0:
144,272,72868,1,0,0:0:0:0:
89,160,73038,2,0,B|106:67|106:67|243:18,1,179.999994506836,0|8,0:0|0:0,0:0:0:0:
408,176,73720,6,0,L|312:328,1,168.750006437302,0|0,2:0|2:0,0:0:0:0:
267,250,74402,2,0,L|328:152,1,112.500004291535,0|8,2:0|2:1,2:0:0:0:
119,73,75084,5,0,0:0:0:0:
106,158,75254,2,0,B|113:205|89:245,1,89.9999972534181,0|8,0:0|0:0,0:0:0:0:
233,203,75595,2,0,B|222:159|184:131,1,89.9999972534181
204,56,75936,2,0,B|251:50|291:74,1,89.9999972534181,0|8,0:0|0:0,0:0:0:0:
352,322,76447,6,0,B|396:277|396:277|389:204|389:204|419:177,1,168.750006437302
300,189,77129,2,0,B|306:246|306:246|266:284,1,112.500004291535,0|8,0:0|0:1,0:0:0:0:
101,91,77811,5,0,0:0:0:0:
228,163,77981,1,0,0:0:0:0:
151,169,78152,2,0,P|161:126|201:92,1,89.9999972534181,8|0,0:0|0:0,0:0:0:0:
77,175,78493,2,0,B|73:138|96:62|146:33|186:17,1,179.999994506836,0|8,0:0|0:0,0:0:0:0:
174,354,79174,6,0,B|128:284|128:284|46:257,1,168.750006437302
83,340,79856,2,0,L|160:248,1,112.500004291535,0|8,0:0|0:1,0:0:0:0:
87,56,80538,5,0,0:0:0:0:
170,198,80709,2,0,B|173:258|122:310,1,89.9999972534181,0|8,0:0|0:0,0:0:0:0:
306,264,81049,2,0,B|357:231|427:249,1,89.9999972534181
331,124,81390,2,0,B|278:97|258:27,1,89.9999972534181,0|8,0:0|0:0,0:0:0:0:
70,77,81902,6,0,P|114:144|139:241,1,168.750006437302
248,346,82584,2,0,P|257:293|256:216,1,112.500004291535,0|8,0:0|0:1,0:0:0:0:
140,64,83265,5,0,0:0:0:0:
140,184,83436,1,0,0:0:0:0:
252,124,83606,1,8,0:0:0:0:
140,64,83777,2,0,P|131:107|104:143,1,89.9999972534181,0|0,2:0|0:3,0:0:0:0:
20,248,84118,2,0,P|2:288|5:332,1,89.9999972534181,0|0,2:0|0:3,0:0:0:0:
393,309,84629,6,0,B|349:306|326:266|305:227|250:225,1,168.750006437302,0|0,0:0|0:0,0:0:0:0:
264,304,85311,2,0,P|311:279|330:202,1,112.500004291535
347,80,85993,5,0,0:0:0:0:
169,166,86163,1,8,0:0:0:0:
349,278,86334,1,0,0:0:0:0:
363,100,86504,1,0,0:0:0:0:
184,188,86674,1,0,0:0:0:0:
348,276,86845,2,0,P|406:240|417:184,1,89.9999972534181,0|8,0:0|0:0,0:0:0:0:
409,207,87356,6,0,L|287:170,1,112.500004291535,4|0,0:0|0:0,0:0:0:0:
284,168,87868,1,0,0:0:0:0:
268,164,88038,1,4,0:0:0:0:
204,99,96902,6,0,P|289:85|328:127,1,112.500004291535
256,168,97413,1,0,0:0:0:0:
271,295,97754,2,0,P|221:320|165:319,1,112.500004291535
93,273,98265,2,0,L|53:97,1,168.750006437302
55,108,98947,1,0,0:0:0:0:
270,364,99629,6,0,P|286:344|296:314,1,56.2500021457673
375,252,99970,2,0,P|309:219|191:310,1,225.000008583069
194,295,100993,2,0,P|208:240|209:184,1,112.500004291535
142,93,101504,1,0,0:0:0:0:
142,93,101674,1,0,0:0:0:0:
276,132,102356,6,0,B|332:130|332:130|422:93,1,112.500004291535
436,40,102868,1,0,0:0:0:0:
194,62,103209,2,0,P|169:130|221:225,1,168.750006437302
401,189,104061,1,0,0:0:0:0:
212,56,104402,1,0,0:0:0:0:
208,280,104743,1,0,0:0:0:0:
213,51,105084,5,0,0:0:0:0:
104,245,105424,1,0,0:0:0:0:
312,245,105765,1,0,0:0:0:0:
212,44,106106,1,0,0:0:0:0:
83,171,106447,5,0,0:0:0:0:
100,280,106618,1,0,0:0:0:0:
204,324,106788,1,0,0:0:0:0:
304,272,106959,1,0,0:0:0:0:
208,212,107129,1,0,0:0:0:0:
236,320,107299,1,0,0:0:0:0:
324,248,107470,1,0,0:0:0:0:
416,184,107640,1,0,0:0:0:0:
456,280,107811,5,0,0:0:0:0:
419,284,107896,1,0,0:0:0:0:
385,276,107981,1,0,0:0:0:0:
354,251,108066,1,0,0:0:0:0:
336,220,108152,1,0,0:0:0:0:
324,186,108237,1,0,0:0:0:0:
310,153,108322,5,0,0:0:0:0:
292,121,108407,1,0,0:0:0:0:
262,97,108493,1,0,0:0:0:0:
227,87,108578,1,0,0:0:0:0:
192,87,108663,1,0,0:0:0:0:
158,101,108748,1,0,0:0:0:0:
134,130,108834,5,12,0:0:0:0:
134,130,109174,6,0,P|198:132|250:93,1,89.9999972534181
365,178,109515,2,0,P|331:232|338:297,1,89.9999972534181,8|0,0:0|0:0,0:0:0:0:
200,351,109856,2,0,P|169:294|110:268,1,89.9999972534181
156,117,110197,1,8,0:0:0:0:
282,71,110368,1,0,0:0:0:0:
400,160,110538,2,0,L|288:240,1,89.9999972534181
192,283,110879,1,8,0:0:0:0:
192,283,111220,1,0,0:0:0:0:
192,283,111561,6,0,B|194:165|312:157,1,179.999994506836,8|0,0:0|0:0,0:0:0:0:
306,266,112072,1,0,0:0:0:0:
384,168,112243,1,8,0:0:0:0:
312,56,112413,1,0,0:0:0:0:
176,80,112584,2,0,P|200:136|264:176,1,89.9999972534181
352,128,112924,5,8,0:0:0:0:
272,240,113095,1,0,0:0:0:0:
216,120,113265,2,0,L|304:56,1,89.9999972534181
325,197,113606,1,8,0:0:0:0:
224,288,113777,1,0,0:0:0:0:
112,208,113947,2,0,L|64:64,1,89.9999972534181,0|8,0:0|0:0,0:0:0:0:
190,186,114288,2,0,P|194:230|138:282,1,89.9999972534181,8|0,0:0|0:0,0:0:0:0:
28,184,114629,5,0,0:0:0:0:
187,113,114799,2,0,L|296:76,1,89.9999972534181,0|8,0:0|0:0,0:0:0:0:
384,152,115140,1,0,0:0:0:0:
392,288,115311,2,0,L|272:304,1,89.9999972534181
192,224,115652,1,8,0:0:0:0:
240,96,115822,1,0,0:0:0:0:
368,72,115993,2,0,P|396:117|394:180,1,89.9999972534181
351,287,116334,5,8,0:0:0:0:
232,232,116504,1,0,0:0:0:0:
304,120,116674,1,0,0:0:0:0:
184,56,116845,1,0,0:0:0:0:
104,168,117015,1,8,0:0:0:0:
128,304,117186,2,0,B|175:290|175:290|238:233,1,89.9999972534181
336,216,117527,2,0,B|366:188|366:188|413:175,1,89.9999972534181,0|8,0:0|0:0,0:0:0:0:
400,312,117868,5,0,0:0:0:0:
272,272,118038,2,0,B|238:262|226:246|226:246|216:213|204:172|204:172|179:142|111:138,1,179.999994506836,0|8,0:0|0:0,0:0:0:0:
48,144,118549,1,0,0:0:0:0:
96,296,118720,1,0,0:0:0:0:
208,184,118890,1,0,0:0:0:0:
172,24,119061,1,8,0:0:0:0:
48,144,119231,1,0,0:0:0:0:
208,184,119402,6,0,P|266:200|355:183,1,89.9999972534181,0|8,0:0|0:0,0:0:0:0:
303,70,119743,1,8,0:0:0:0:
413,152,119913,2,0,P|400:242|375:285,1,89.9999972534181
258,237,120254,2,0,P|209:164|122:166,1,179.999994506836
128,324,120765,2,0,L|189:187,1,89.9999972534181
200,104,121106,1,8,0:0:0:0:
72,56,121277,1,0,0:0:0:0:
72,192,121447,2,0,P|112:248|144:264,1,89.9999972534181
253,300,121788,1,8,0:0:0:0:
428,336,121959,1,0,0:0:0:0:
480,164,122129,1,0,0:0:0:0:
428,336,122299,1,0,0:0:0:0:
312,280,122470,2,0,L|272:168,1,89.9999972534181,8|0,0:0|0:0,0:0:0:0:
168,120,122811,6,0,L|120:224,2,89.9999972534181,0|0|8,0:0|0:0|0:0,0:0:0:0:
280,44,123322,1,0,0:0:0:0:
375,194,123493,1,0,0:0:0:0:
368,40,123663,1,0,0:0:0:0:
287,199,123834,1,8,0:0:0:0:
416,115,124004,1,0,0:0:0:0:
237,123,124174,1,0,0:0:0:0:
375,195,124345,6,0,P|333:187|283:150,1,89.9999972534181,0|8,0:0|0:0,0:0:0:0:
192,72,124686,2,0,P|145:81|90:133,1,89.9999972534181
104,240,125027,1,8,0:0:0:0:
216,320,125197,1,8,0:0:0:0:
336,256,125368,2,0,B|375:226|375:226|408:160,1,89.9999972534181
416,56,125709,2,0,B|366:53|366:53|299:83,1,89.9999972534181,0|8,0:0|0:0,0:0:0:0:
272,192,126049,5,0,0:0:0:0:
136,216,126220,1,0,0:0:0:0:
184,88,126390,1,0,0:0:0:0:
272,192,126561,1,8,0:0:0:0:
352,304,126731,1,0,0:0:0:0:
447,208,126902,2,0,P|406:180|385:144,1,89.9999972534181
272,80,127243,5,8,0:0:0:0:
144,112,127413,1,0,0:0:0:0:
72,224,127584,2,0,P|88:288|120:328,1,89.9999972534181
232,336,127924,1,8,0:0:0:0:
368,312,128095,2,0,P|389:272|396:228,1,89.9999972534181
288,115,128436,2,0,P|269:155|264:200,1,89.9999972534181,0|8,0:0|0:0,0:0:0:0:
328,288,128777,5,0,0:0:0:0:
200,256,128947,1,0,0:0:0:0:
136,136,129118,2,0,P|174:80|219:56,1,89.9999972534181,0|8,0:0|0:0,0:0:0:0:
320,104,129459,1,0,0:0:0:0:
280,232,129629,2,0,P|217:191|192:152,1,89.9999972534181
128,72,129970,5,8,0:0:0:0:
160,200,130140,1,0,0:0:0:0:
280,256,130311,2,0,B|298:252|321:235|321:235|353:228|367:220,1,89.9999972534181
384,88,130652,1,8,0:0:0:0:
248,88,130822,2,0,P|200:112|128:120,1,89.9999972534181,0|0,0:0|0:0,0:0:0:0:
52,64,131163,1,0,0:0:0:0:
52,64,131334,1,0,0:0:0:0:
52,64,131504,1,0,0:0:0:0:
408,304,132015,5,0,0:0:0:0:
408,304,132186,1,0,0:0:0:0:
408,304,132356,1,0,0:0:0:0:
128,216,133038,5,0,0:0:0:0:
388,64,133379,1,0,0:0:0:0:
316,168,133549,1,0,0:0:0:0:
192,140,133720,1,0,0:0:0:0:
185,136,134061,1,0,0:0:0:0:
450,287,134231,1,0,0:0:0:0:
48,192,134743,5,0,0:0:0:0:
104,68,134913,1,0,0:0:0:0:
48,192,135084,1,0,0:0:0:0:
48,192,135765,5,0,0:0:0:0:
320,320,136106,1,0,0:0:0:0:
396,208,136277,1,0,0:0:0:0:
384,76,136447,1,0,0:0:0:0:
160,24,136788,1,0,0:0:0:0:
64,328,136959,1,0,0:0:0:0:
84,328,137470,5,0,0:0:0:0:
208,300,137640,1,0,0:0:0:0:
332,272,137811,1,0,0:0:0:0:
220,44,138152,5,0,0:0:0:0:
220,44,138493,1,0,0:0:0:0:
288,288,138834,1,0,0:0:0:0:
412,304,139004,1,0,0:0:0:0:
480,200,139174,1,0,0:0:0:0:
384,36,139515,1,0,0:0:0:0:
58,79,139686,1,0,0:0:0:0:
96,280,140197,5,0,0:0:0:0:
196,204,140368,1,0,0:0:0:0:
80,156,140538,1,0,0:0:0:0:
240,348,141220,5,0,0:0:0:0:
168,152,141561,1,0,0:0:0:0:
92,52,141731,1,0,0:0:0:0:
188,136,141902,1,0,0:0:0:0:
344,332,142243,1,0,0:0:0:0:
476,76,142413,1,0,0:0:0:0:
192,117,142924,5,0,0:0:0:0:
124,224,143095,1,0,0:0:0:0:
136,348,143265,1,0,0:0:0:0:
279,53,143947,5,0,0:0:0:0:
160,276,144288,1,0,0:0:0:0:
64,352,144459,1,0,0:0:0:0:
52,228,144629,1,0,0:0:0:0:
272,56,144970,1,0,0:0:0:0:
387,331,145140,1,0,0:0:0:0:
376,48,145652,5,0,0:0:0:0:
300,148,145822,1,0,0:0:0:0:
280,272,145993,1,0,0:0:0:0:
48,104,146674,5,0,0:0:0:0:
360,92,147015,1,0,0:0:0:0:
256,164,147186,1,0,0:0:0:0:
152,92,147356,1,0,0:0:0:0:
448,24,147697,1,0,0:0:0:0:
388,316,147868,1,0,0:0:0:0:
314,88,148379,5,0,0:0:0:0:
200,40,148549,1,0,0:0:0:0:
72,44,148720,1,0,0:0:0:0:
137,312,149402,5,0,0:0:0:0:
371,223,149743,1,0,0:0:0:0:
341,105,149913,1,0,0:0:0:0:
241,186,150084,1,0,0:0:0:0:
472,147,150424,1,0,0:0:0:0:
89,168,150595,1,0,0:0:0:0:
96,192,151106,5,0,0:0:0:0:
256,336,151277,1,0,0:0:0:0:
416,192,151447,1,0,0:0:0:0:
416,192,152129,5,0,0:0:0:0:
120,304,152470,1,0,0:0:0:0:
120,304,152640,1,0,0:0:0:0:
