osu file format v14

[General]
AudioFilename: Maduk - Gosth Assassin.mp3
AudioLeadIn: 0
PreviewTime: 43720
Countdown: 0
SampleSet: Normal
StackLeniency: 0.7
Mode: 0
LetterboxInBreaks: 1
WidescreenStoryboard: 1

[Editor]
Bookmarks: 1448,19174,45085,67926,76449,83267,88721,111221
DistanceSpacing: 1.1
BeatDivisor: 4
GridSize: 4
TimelineZoom: 2.1

[Metadata]
Title:Ghost Assassin VIP
TitleUnicode:Ghost Assassin VIP
Artist:Maduk (feat. Veela)
ArtistUnicode:Maduk (feat. Veela)
Creator:CerealeKiller
Version:Hard
Source:
Tags:DnB Drum and bass liquicity Hourglass Starcraft Sarah Kerrigan Pjecoo
BeatmapID:397310
BeatmapSetID:153331

[Difficulty]
HPDrainRate:4
CircleSize:4
OverallDifficulty:6
ApproachRate:8
SliderMultiplier:1.5
SliderTickRate:1

[Events]
//Background and Video events
0,0,"BG gosth assassin.jpg",0,0
//Break Periods
2,88578,96152
//Storyboard Layer 0 (Background)
//Storyboard Layer 1 (Fail)
//Storyboard Layer 2 (Pass)
//Storyboard Layer 3 (Foreground)
//Storyboard Sound Samples

[TimingPoints]
84,340.909090909091,4,2,0,100,1,0
21916,-133.333333333333,4,2,0,60,0,0
39288,-133.333333333333,4,1,0,30,0,0
39629,-133.333333333333,4,1,0,32,0,0
39970,-133.333333333333,4,1,0,34,0,0
40311,-133.333333333333,4,1,0,36,0,0
40652,-133.333333333333,4,1,0,38,0,0
40993,-95.2380952380951,4,1,0,40,0,0
41334,-95.2380952380951,4,1,0,45,0,0
41674,-95.2380952380951,4,1,0,50,0,0
42015,-95.2380952380951,4,1,0,55,0,0
42356,-95.2380952380951,4,1,0,60,0,0
43379,-95.2380952380951,4,1,0,100,0,0
43720,-95.2380952380951,4,1,0,60,0,1
65197,-95.2380952380951,4,1,0,60,0,0
65538,-133.333333333333,4,2,0,60,0,0
66902,-133.333333333333,4,1,0,60,0,0
87356,-133.333333333333,4,2,0,60,0,0
103720,-95.2380952380952,4,1,0,40,0,0
106788,-95.2380952380951,4,1,0,45,0,0
107129,-95.2380952380951,4,1,0,50,0,0
107470,-95.2380952380951,4,1,0,55,0,0
107811,-95.2380952380951,4,1,0,60,0,0
108834,-95.2380952380951,4,1,0,100,0,0
109856,-95.2380952380951,4,1,0,60,0,1
131674,-95.2380952380951,4,1,0,60,0,0

[Colours]
Combo1 : 189,112,241
Combo2 : 113,84,245
Combo3 : 21,67,251

[HitObjects]
256,192,19174,12,4,21561,0:0:0:0:
200,92,21902,5,0,0:0:0:0:
144,48,22072,1,0,0:0:0:0:
76,72,22243,1,0,0:0:0:0:
68,144,22413,1,0,0:0:0:0:
292,168,22924,2,0,P|280:118|135:114,1,225.000008583069
116,184,23777,1,0,0:0:0:0:
108,256,23947,2,0,P|89:309|37:337,1,112.500004291535
28,256,24459,1,0,0:0:0:0:
64,192,24629,5,0,0:0:0:0:
136,188,24799,1,0,0:0:0:0:
184,244,24969,1,0,0:0:0:0:
236,296,25140,6,0,P|321:321|401:261,1,168.750006437302
172,108,25993,5,0,0:0:0:0:
172,108,26163,1,0,0:0:0:0:
172,108,26334,1,0,0:0:0:0:
172,108,26504,2,0,P|183:191|145:274,1,168.750006437302
96,316,27186,1,0,0:0:0:0:
64,248,27356,6,0,P|60:219|44:187,1,56.2500021457673
137,215,27697,2,0,P|140:243|156:275,1,56.2500021457673
345,307,28379,5,0,0:0:0:0:
345,307,28720,2,0,B|330:231|282:213|282:213|265:163|289:99,1,225.000008583069
420,228,29743,2,0,P|408:256|324:312,1,112.500004291535
272,312,30254,5,0,0:0:0:0:
200,304,30424,1,0,0:0:0:0:
136,272,30595,1,0,0:0:0:0:
208,64,31106,2,0,L|215:192,1,112.500004291535
228,248,31618,5,0,0:0:0:0:
256,316,31788,1,0,0:0:0:0:
324,348,31959,2,0,P|367:326|336:220,1,168.750006437302
200,216,32811,5,0,0:0:0:0:
128,224,32981,1,0,0:0:0:0:
60,200,33152,1,0,0:0:0:0:
24,136,33322,1,0,0:0:0:0:
232,64,33834,5,0,0:0:0:0:
232,64,34174,2,0,B|217:153|287:242,1,168.750006437302
324,276,34856,2,0,P|343:295|360:324,1,56.2500021457673
432,316,35197,2,0,P|445:291|452:264,1,56.2500021457673
452,192,35538,5,0,0:0:0:0:
420,124,35709,1,0,0:0:0:0:
360,84,35879,1,0,0:0:0:0:
292,112,36049,2,0,P|231:159|124:160,1,168.750006437302
141,165,36902,6,0,L|154:219,1,56.2500021457673
215,165,37243,2,0,L|202:110,1,56.2500021457673
202,110,37924,1,0,0:0:0:0:
202,110,38265,6,0,L|194:166,1,56.2500021457673,0|2,0:0|0:0,0:0:0:0:
288,84,38606,2,0,L|280:140,1,56.2500021457673,0|2,0:0|0:0,0:0:0:0:
368,112,38947,2,0,L|376:56,1,56.2500021457673,0|2,0:0|0:0,0:0:0:0:
452,96,39288,2,0,L|460:40,1,56.2500021457673,0|2,0:0|0:0,0:0:0:0:
459,40,39629,1,0,0:0:0:0:
444,184,39970,1,0,0:0:0:0:
384,224,40140,1,0,0:0:0:0:
316,248,40311,6,0,P|288:256|261:253,1,56.2500021457673,2|0,0:0|0:0,0:0:0:0:
204,208,40652,2,0,P|176:205|149:213,1,56.2500021457673,2|0,0:0|0:0,0:0:0:0:
78,166,40993,6,0,L|104:80,1,78.7499975967408,2|0,0:0|0:0,0:0:0:0:
184,179,41334,2,0,L|216:272,1,78.7499975967408,2|0,0:0|0:0,0:0:0:0:
275,134,41674,2,0,L|304:48,1,78.7499975967408,2|0,0:0|0:0,0:0:0:0:
376,136,42015,2,0,L|408:232,1,78.7499975967408,2|0,0:0|0:0,0:0:0:0:
320,308,42356,6,0,L|268:324,1,39.3749987983704,2|0,0:0|0:0,0:0:0:0:
268,248,42527,2,0,L|216:232,1,39.3749987983704,2|0,0:0|0:0,0:0:0:0:
212,308,42697,2,2,L|160:324,1,39.3749987983704
160,248,42868,2,0,L|108:232,1,39.3749987983704,2|0,0:0|0:0,0:0:0:0:
188,160,43038,6,0,L|225:171,3,39.3749987983704,2|2|2|2,0:0|0:0|0:0|0:0,0:0:0:0:
249,179,43379,1,12,0:0:0:0:
364,312,43720,6,0,B|384:236,1,78.7499975967408
376,136,44061,1,8,0:0:0:0:
376,136,44231,1,0,0:0:0:0:
292,196,44402,2,0,B|272:272,1,78.7499975967408
160,300,44743,2,0,P|131:272|126:234,1,78.7499975967408,8|0,0:0|0:0,0:0:0:0:
175,164,45084,2,0,P|202:190|207:228,1,78.7499975967408
126,234,45424,1,8,0:0:0:0:
48,198,45595,2,0,P|67:117|55:93,1,78.7499975967408
139,48,45936,2,8,L|249:29,1,78.7499975967408,0|8,0:0|0:0,0:0:0:0:
459,156,46447,6,0,P|431:231|405:255,1,78.7499975967408
352,272,46788,1,8,0:0:0:0:
256,272,46959,1,0,0:0:0:0:
176,224,47129,2,0,P|156:192|149:151,1,78.7499975967408
232,160,47470,2,0,P|244:122|244:83,1,78.7499975967408,8|0,0:0|0:0,0:0:0:0:
332,112,47811,2,0,P|403:148|429:185,2,78.7499975967408,0|0|8,0:0|0:0|0:0,0:0:0:0:
232,160,48322,2,0,P|160:123|134:86,1,78.7499975967408
84,84,48663,1,8,0:0:0:0:
24,144,48834,1,8,0:0:0:0:
56,224,49004,1,0,0:0:0:0:
140,212,49174,5,0,0:0:0:0:
208,160,49345,2,0,P|248:156|296:184,1,78.7499975967408,0|8,0:0|0:0,0:0:0:0:
320,252,49686,1,0,0:0:0:0:
380,312,49856,1,0,0:0:0:0:
464,288,50027,2,0,L|424:184,1,78.7499975967408,0|8,0:0|0:0,0:0:0:0:
404,150,50368,5,0,0:0:0:0:
349,96,50538,1,0,0:0:0:0:
286,55,50709,1,0,0:0:0:0:
213,35,50879,1,8,0:0:0:0:
137,33,51049,1,0,0:0:0:0:
64,56,51220,2,0,P|96:96|140:106,1,78.7499975967408,0|0,0:0|0:0,0:0:0:0:
180,160,51561,2,0,P|215:176|236:209,1,78.7499975967408,8|0,0:0|0:0,0:0:0:0:
261,291,51902,5,0,0:0:0:0:
333,235,52072,1,0,0:0:0:0:
315,158,52243,2,0,P|261:202|249:240,1,78.7499975967408,8|0,0:0|0:0,0:0:0:0:
261,291,52584,1,0,0:0:0:0:
346,321,52754,1,0,0:0:0:0:
420,270,52924,1,8,0:0:0:0:
401,184,53095,1,0,0:0:0:0:
315,158,53265,2,0,P|261:202|249:240,1,78.7499975967408
219,278,53606,1,8,0:0:0:0:
158,327,53777,2,0,P|113:339|70:322,1,78.7499975967408
116,266,54118,2,8,L|116:162,1,78.7499975967408,8|8,0:0|0:0,0:0:0:0:
301,140,54629,6,0,P|346:132|410:160,1,78.7499975967408,0|0,0:0|0:0,0:0:0:0:
338,213,54970,1,8,0:0:0:0:
285,268,55140,1,0,0:0:0:0:
242,334,55311,2,0,P|216:304|204:267,1,78.7499975967408,0|0,0:0|0:0,0:0:0:0:
249,203,55652,2,0,P|236:165|211:136,1,78.7499975967408,8|0,0:0|0:0,0:0:0:0:
170,66,55993,2,0,P|82:50|32:21,2,78.7499975967408,0|0|8,0:0|0:0|0:0,0:0:0:0:
260,65,56504,2,0,P|340:102|380:143,1,78.7499975967408
398,148,56845,2,0,P|335:210|282:234,1,78.7499975967408,0|8,0:0|0:0,0:0:0:0:
176,256,57356,5,0,0:0:0:0:
128,176,57527,1,0,0:0:0:0:
176,256,57697,2,0,L|224:136,1,78.7499975967408,8|0,0:0|0:0,0:0:0:0:
176,256,58038,2,0,P|296:216|376:256,1,157.499995193482,0|8,0:0|0:0,0:0:0:0:
360,288,58549,1,0,0:0:0:0:
268,286,58720,2,0,L|242:176,1,78.7499975967408
266,128,59061,1,8,0:0:0:0:
340,84,59231,2,0,B|375:63|416:71,1,78.7499975967408
280,32,59572,2,0,L|192:8,1,78.7499975967408,8|8,0:0|0:0,0:0:0:0:
133,239,60084,5,0,0:0:0:0:
85,319,60254,1,0,0:0:0:0:
133,239,60424,1,8,0:0:0:0:
199,187,60595,1,0,0:0:0:0:
279,215,60765,2,0,P|343:231|391:215,1,78.7499975967408
424,272,61106,2,0,P|424:192|392:160,1,78.7499975967408,8|0,0:0|0:0,0:0:0:0:
364,133,61447,2,0,P|343:99|340:61,1,78.7499975967408
424,72,61788,1,8,0:0:0:0:
363,133,61959,2,0,P|331:155|292:160,1,78.7499975967408
198,138,62299,2,0,L|249:250,1,78.7499975967408,0|8,0:0|0:0,0:0:0:0:
290,291,62640,5,0,0:0:0:0:
324,200,62811,2,0,P|285:113|290:82,1,78.7499975967408
195,87,63152,2,0,P|139:163|109:174,1,78.7499975967408,8|0,0:0|0:0,0:0:0:0:
149,248,63493,2,0,P|242:257|267:278,2,78.7499975967408,0|0|8,0:0|0:0|0:0,0:0:0:0:
87,305,64004,1,0,0:0:0:0:
150,249,64174,2,0,P|104:168|96:136,1,78.7499975967408
136,96,64515,1,8,0:0:0:0:
228,56,64686,2,0,P|264:43|301:12,1,78.7499975967408
396,48,65027,2,0,P|399:86|421:129,1,78.7499975967408
134,103,65538,6,0,B|150:41|233:24|287:63|295:124|295:124|287:200|324:241,1,337.500012874604,0|8,0:0|0:1,0:0:0:0:
168,264,66902,5,0,0:0:0:0:
243,216,67072,1,0,0:0:0:0:
248,308,67243,1,8,0:0:0:0:
167,263,67413,1,0,0:0:0:0:
119,197,67584,2,0,P|90:129|106:48,1,112.500004291535,0|8,0:0|0:0,0:0:0:0:
252,40,68265,6,0,B|343:73|300:157|342:183|398:199|398:199|442:260|397:327,1,337.500012874604,0|8,2:0|2:1,2:0:0:0:
187,323,69629,5,0,0:0:0:0:
152,244,69799,1,0,0:0:0:0:
224,184,69970,2,0,L|238:239,1,56.2500021457673,8|0,0:0|0:0,0:0:0:0:
137,165,70311,2,0,P|200:101|250:108,1,112.500004291535,0|8,0:0|0:0,0:0:0:0:
444,258,70993,6,0,B|439:314|383:342|340:330|310:296|300:263|308:235|336:214|336:204|336:204|341:151|309:131|296:105,1,337.500012874604,0|8,2:0|2:1,2:0:0:0:
211,205,72356,5,0,0:0:0:0:
101,193,72527,1,0,0:0:0:0:
165,103,72697,1,0,0:0:0:0:
211,206,72868,2,0,B|227:231|253:242,1,56.2500021457673,0|0,0:0|0:0,0:0:0:0:
326,170,73209,2,0,B|353:181|381:175,1,56.2500021457673,0|8,0:0|0:0,2:0:0:0:
402,318,73720,6,0,B|285:283|242:172|242:172|179:205|84:211,1,337.500012874604,0|8,2:0|0:0,2:0:0:0:
331,140,75084,6,0,B|337:179|381:211,1,56.2500021457673
336,286,75424,1,8,0:0:0:0:
242,327,75595,1,0,0:0:0:0:
151,276,75765,2,0,P|113:234|61:215,1,112.500004291535,0|8,0:0|0:0,0:0:0:0:
103,66,76447,6,0,B|171:69|149:149|164:182|213:215|270:202|270:202|301:261|353:259,1,337.500012874604,0|8,2:0|0:0,2:0:0:0:
220,194,77811,5,0,0:0:0:0:
204,110,77981,2,0,L|140:70,1,56.2500021457673,0|8,0:0|0:0,0:0:0:0:
96,144,78322,2,0,L|93:219,1,56.2500021457673,0|0,0:0|0:0,0:0:0:0:
171,222,78663,2,0,L|237:186,1,56.2500021457673,0|8,0:0|0:0,0:0:0:0:
252,46,79174,6,0,B|308:86|396:97|467:97|467:97|453:140|520:179|451:230,1,337.500012874604,0|8,1:0|0:0,2:0:0:0:
168,240,80538,5,0,0:0:0:0:
242,263,80709,2,0,B|251:231|226:175,1,56.2500021457673,0|8,0:0|0:0,0:0:0:0:
150,160,81049,2,0,B|117:168|103:190,1,56.2500021457673
106,293,81390,2,0,B|129:316|155:317,1,56.2500021457673,0|8,0:0|0:0,0:0:0:0:
168,240,81902,6,0,B|248:170|319:204|369:216|369:216|426:171|470:168|512:176,1,337.500012874604,0|8,2:0|0:0,2:0:0:0:
189,68,83265,6,0,L|213:124,1,56.2500021457673
224,200,83606,1,0,0:0:0:0:
152,236,83777,1,0,0:0:0:0:
163,153,83947,2,0,P|212:123|268:136,1,112.500004291535
301,242,84629,6,0,P|254:364|208:238,1,337.500012874604,0|8,2:0|0:0,2:0:0:0:
288,152,85993,6,0,P|315:148|340:134,2,56.2500021457673,0|0|8,0:0|0:0|0:0,0:0:0:0:
285,73,86504,2,0,P|286:45|297:19,1,56.2500021457673,0|0,0:0|0:0,2:0:0:0:
369,52,86845,2,0,P|393:66|411:88,1,56.2500021457673,0|0,0:0|0:0,0:0:0:0:
370,319,87356,6,0,P|388:255|394:191,1,112.500004291535,0|0,2:0|2:0,2:0:0:0:
339,130,87868,1,0,2:0:0:0:
243,172,88038,2,0,P|228:225|220:281,1,112.500004291535,0|0,0:0|0:0,2:0:0:0:
256,56,96902,6,0,B|231:103|280:126|252:177,1,112.500004291535
257,165,97413,1,0,0:0:0:0:
81,256,97754,2,0,P|113:304|185:320,1,112.500004291535
163,239,98265,2,0,B|211:183|251:159|331:143,1,168.750006437302
302,149,98947,1,0,0:0:0:0:
432,202,99629,6,0,P|389:185|337:190,1,56.2500021457673
434,202,99970,2,0,B|410:148|340:92|283:60|216:66,1,225.000008583069
112,304,100993,2,0,P|176:272|216:216,1,112.500004291535
202,241,101504,1,0,0:0:0:0:
202,241,101674,1,0,0:0:0:0:
256,88,102356,6,0,P|309:107|346:153,1,112.500004291535
256,288,102868,2,0,P|203:269|165:222,1,112.500004291535
112,88,103720,5,0,0:0:0:0:
157,258,104061,1,0,0:0:0:0:
284,133,104402,1,0,0:0:0:0:
335,306,104743,1,0,0:0:0:0:
454,201,105084,5,0,0:0:0:0:
284,133,105424,1,0,0:0:0:0:
153,267,105765,1,0,0:0:0:0:
335,306,106106,1,0,0:0:0:0:
344,200,106447,6,0,L|424:240,1,78.7499975967408
296,264,106788,2,0,L|328:344,1,78.7499975967408
216,264,107129,2,0,L|186:338,1,78.7499975967408
168,200,107470,2,0,L|97:236,1,78.7499975967408
104,88,107811,6,0,L|136:44,1,39.3749987983704
172,124,107981,2,0,L|212:129,1,39.3749987983704
204,52,108152,2,0,L|236:8,1,39.3749987983704
272,88,108322,2,0,L|312:93,1,39.3749987983704
372,148,108493,2,0,L|412:153,3,39.3749987983704
348,152,108834,5,12,0:0:0:0:
200,248,109174,6,0,P|177:215|145:192,1,78.7499975967408
116,112,109515,2,0,P|150:93|177:64,1,78.7499975967408
253,99,109856,6,0,L|362:137,1,78.7499975967408
398,165,110197,1,0,0:0:0:0:
462,218,110368,1,0,0:0:0:0:
398,165,110538,2,0,P|320:160|272:184,1,78.7499975967408
276,236,110879,1,8,0:0:0:0:
312,316,111049,1,0,0:0:0:0:
392,348,111220,1,8,0:0:0:0:
276,236,111561,2,0,B|237:221|219:180|219:180|206:143|163:125,1,157.499995193482,8|0,0:0|0:0,0:0:0:0:
77,135,112072,5,0,0:0:0:0:
94,232,112243,1,8,0:0:0:0:
168,286,112413,2,0,P|212:320|264:342,2,78.7499975967408
122,205,112924,2,0,P|114:166|115:127,1,78.7499975967408,8|0,0:0|0:0,0:0:0:0:
209,120,113265,2,0,P|297:136|337:120,1,78.7499975967408
374,124,113606,1,8,0:0:0:0:
319,44,113777,1,0,0:0:0:0:
283,137,113947,2,0,L|291:249,1,78.7499975967408,0|8,0:0|0:0,0:0:0:0:
288,215,114288,5,8,0:0:0:0:
288,215,114459,2,0,B|230:268|175:245|175:245|151:203|126:181|103:178|29:191,1,236.249992790222,0|8,0:0|0:0,0:0:0:0:
78,268,115140,1,0,0:0:0:0:
162,316,115311,2,0,P|226:236|234:204,1,78.7499975967408
263,189,115652,1,8,0:0:0:0:
287,105,115822,1,0,0:0:0:0:
221,34,115993,2,0,P|185:111|176:168,1,78.7499975967408
177,188,116334,5,8,0:0:0:0:
216,260,116504,1,0,0:0:0:0:
297,303,116674,1,0,0:0:0:0:
384,295,116845,1,0,0:0:0:0:
448,244,117015,1,8,0:0:0:0:
443,159,117186,2,0,P|392:88|368:80,1,78.7499975967408
340,152,117527,2,0,P|275:151|219:127,1,78.7499975967408,0|8,0:0|0:0,0:0:0:0:
208,64,117868,5,0,0:0:0:0:
282,86,118038,2,0,P|284:163|241:234,1,157.499995193482,0|8,0:0|0:0,0:0:0:0:
160,261,118549,1,0,0:0:0:0:
176,174,118720,1,0,0:0:0:0:
244,232,118890,2,0,P|280:261|319:280,2,78.7499975967408,0|8|0,0:0|0:0|0:0,0:0:0:0:
176,174,119402,2,0,P|144:128|136:104,1,78.7499975967408,0|8,0:0|0:0,0:0:0:0:
128,28,119743,1,8,0:0:0:0:
212,68,119913,1,0,0:0:0:0:
308,72,120084,1,0,0:0:0:0:
396,52,120254,6,0,B|415:105|395:158|395:158|420:201|415:232,1,157.499995193482
417,318,120765,2,0,P|335:291|291:306,1,78.7499975967408
255,306,121106,1,8,0:0:0:0:
180,262,121277,1,0,0:0:0:0:
124,197,121447,2,0,P|109:154|109:103,1,78.7499975967408
152,48,121788,5,8,0:0:0:0:
239,85,121959,1,0,0:0:0:0:
193,160,122129,1,0,0:0:0:0:
270,208,122299,1,0,0:0:0:0:
192,270,122470,2,0,B|142:299|90:298|75:288,1,78.7499975967408,8|0,0:0|0:0,0:0:0:0:
49,241,122811,2,0,B|45:175|142:173|116:77,1,157.499995193482,0|8,0:0|0:0,0:0:0:0:
87,32,123322,5,0,0:0:0:0:
41,108,123493,2,0,P|82:147|104:159,1,78.7499975967408
186,153,123834,1,8,0:0:0:0:
273,153,124004,2,0,P|306:174|332:202,2,78.7499975967408
188,127,124515,2,0,B|171:178|219:226,1,78.7499975967408,8|0,0:0|0:0,0:0:0:0:
264,264,124856,1,0,0:0:0:0:
346,309,125027,1,8,0:0:0:0:
347,214,125197,1,8,0:0:0:0:
261,265,125368,2,0,P|207:283|157:280,1,78.7499975967408,0|0,0:0|0:0,2:0:0:0:
100,260,125709,2,0,B|50:247|-8:289,1,78.7499975967408,0|8,0:0|0:0,2:0:0:0:
47,352,126049,5,0,0:0:0:0:
133,340,126220,2,0,P|168:312|184:272,1,78.7499975967408
208,200,126561,1,8,0:0:0:0:
250,125,126731,1,0,0:0:0:0:
313,65,126902,2,0,P|333:98|336:136,1,78.7499975967408
308,215,127243,1,8,0:0:0:0:
359,281,127413,1,0,0:0:0:0:
419,217,127584,2,0,L|439:129,1,78.7499975967408
403,50,127924,1,8,0:0:0:0:
352,128,128095,2,0,B|345:182|272:200,1,78.7499975967408
213,184,128436,2,0,B|220:130|293:112,1,78.7499975967408,0|8,0:0|0:0,0:0:0:0:
352,128,128777,5,0,0:0:0:0:
394,201,128947,2,0,L|431:270,2,78.7499975967408,0|0|8,0:0|0:0|0:0,0:0:0:0:
352,128,129459,1,0,0:0:0:0:
287,70,129629,2,0,P|251:46|178:53,1,78.7499975967408
139,54,129970,1,8,0:0:0:0:
74,105,130140,1,0,0:0:0:0:
46,182,130311,1,0,0:0:0:0:
70,262,130481,1,0,0:0:0:0:
146,313,130652,1,8,0:0:0:0:
234,320,130822,2,0,L|324:310,1,78.7499975967408
352,224,131163,2,0,B|240:237,1,78.7499975967408,8|8,0:0|0:0,0:0:0:0:
376,88,132015,5,0,0:0:0:0:
376,88,132186,1,0,0:0:0:0:
376,88,132356,1,0,0:0:0:0:
137,312,133038,1,0,0:0:0:0:
83,149,133379,5,0,0:0:0:0:
101,43,133549,1,0,0:0:0:0:
186,110,133720,1,0,0:0:0:0:
308,276,134061,1,0,0:0:0:0:
385,351,134231,1,0,0:0:0:0:
419,148,134743,1,0,0:0:0:0:
387,52,134913,1,0,0:0:0:0:
296,16,135084,1,0,0:0:0:0:
136,304,135765,5,0,0:0:0:0:
136,304,136106,1,0,0:0:0:0:
104,208,136277,1,0,0:0:0:0:
74,108,136447,1,0,0:0:0:0:
266,72,136788,1,0,0:0:0:0:
376,49,136959,1,0,0:0:0:0:
442,251,137470,1,0,0:0:0:0:
385,334,137640,1,0,0:0:0:0:
288,336,137811,1,0,0:0:0:0:
78,49,138493,5,0,0:0:0:0:
325,107,138834,1,0,0:0:0:0:
437,75,139004,1,0,0:0:0:0:
325,107,139174,1,0,0:0:0:0:
172,205,139515,1,0,0:0:0:0:
112,288,139686,1,0,0:0:0:0:
312,288,140197,1,0,0:0:0:0:
344,198,140368,1,0,0:0:0:0:
377,108,140538,1,0,0:0:0:0:
440,336,141220,5,0,0:0:0:0:
448,168,141561,1,0,0:0:0:0:
373,100,141731,1,0,0:0:0:0:
277,88,141902,1,0,0:0:0:0:
140,282,142243,1,0,0:0:0:0:
252,263,142413,1,0,0:0:0:0:
373,100,142924,1,0,0:0:0:0:
456,24,143095,1,0,0:0:0:0:
373,100,143265,1,0,0:0:0:0:
248,323,143947,5,0,0:0:0:0:
80,52,144288,1,0,0:0:0:0:
165,93,144459,1,0,0:0:0:0:
177,186,144629,1,0,0:0:0:0:
310,90,144970,1,0,0:0:0:0:
395,66,145140,1,0,0:0:0:0:
448,310,145652,1,0,0:0:0:0:
448,310,145822,1,0,0:0:0:0:
448,310,145993,1,0,0:0:0:0:
189,322,146674,5,0,0:0:0:0:
68,58,147015,1,0,0:0:0:0:
108,154,147186,1,0,0:0:0:0:
148,242,147356,1,0,0:0:0:0:
296,328,147697,1,0,0:0:0:0:
344,240,147868,1,0,0:0:0:0:
424,64,148379,1,0,0:0:0:0:
328,64,148549,1,0,0:0:0:0:
232,64,148720,1,0,0:0:0:0:
256,336,149402,5,0,0:0:0:0:
208,120,149743,1,0,0:0:0:0:
304,176,149913,1,0,0:0:0:0:
208,232,150084,1,0,0:0:0:0:
61,38,150424,1,0,0:0:0:0:
135,112,150595,1,0,0:0:0:0:
190,336,151106,1,0,0:0:0:0:
261,262,151277,1,0,0:0:0:0:
271,152,151447,1,0,0:0:0:0:
456,64,151788,5,0,0:0:0:0:
216,98,152129,1,0,0:0:0:0:
72,315,152470,1,0,0:0:0:0:
72,315,152640,1,0,0:0:0:0:
