osu file format v8

[General]
AudioFilename: YOSHI SCARLET ZONE.mp3
AudioLeadIn: 0
PreviewTime: 29150
Countdown: 0
SampleSet: Soft
StackLeniency: 0.7
Mode: 0
LetterboxInBreaks: 1

[Editor]
Bookmarks: 29155,64060,75701,88792
DistanceSpacing: 0.899999976158142
BeatDivisor: 6
GridSize: 16

[Metadata]
Title:Yoshi Scarlet Zone
Artist:MadraDot
Creator:DjUmywalka
Version:Hyper
Source:Youtube
Tags:touhou madradot yoshi scarlet flandre remilia nintendo

[Difficulty]
HPDrainRate:7
CircleSize:5
OverallDifficulty:8
ApproachRate:8
SliderMultiplier:1.5
SliderTickRate:2

[Events]
//Background and Video events
0,0,"yoshi.jpg"
Video,0,"YOSHI'S SCARLET ZONE.avi"
//Break Periods
2,86259,88218
//Storyboard Layer 0 (Background)
//Storyboard Layer 1 (Fail)
//Storyboard Layer 2 (Pass)
//Storyboard Layer 3 (Foreground)
//Storyboard Sound Samples
//Background Colour Transformations
3,100,163,162,255

[TimingPoints]
4424,363.636363636364,4,2,0,100,1,0
7333,-200,4,2,0,100,0,0
8060,363.636363636364,4,2,0,100,1,0

[Colours]
Combo1 : 227,0,0
Combo2 : 0,236,0

[HitObjects]
88,80,4605,1,2
128,80,4695,1,2
176,80,4786,1,2
216,80,4877,1,2
256,80,4968,1,2
144,176,5150,2,2,B|192:176,1,37.5
176,248,5423,2,2,B|224:248,1,37.5
216,328,5695,2,2,B|264:328,2,37.5
320,192,6059,6,0,B|384:192,3,37.5,4|0|0|0
320,192,6423,2,0,B|320:232,1,37.5
288,192,6605,2,0,B|288:232,1,37.5
248,192,6786,2,0,B|248:232,1,37.5
208,192,6968,2,0,B|208:232,1,37.5
208,232,7150,2,0,B|144:232,3,37.5
256,168,7514,6,2,B|256:256,2,75
216,160,8331,1,0
256,136,8422,1,0
296,160,8513,1,2
176,304,8968,6,0,B|232:304,3,37.5
152,256,9331,6,2,B|208:256,3,37.5
136,208,9695,6,0,B|192:208,3,37.5
120,152,10059,6,2,B|176:152,3,37.5
104,112,10422,5,0
128,88,10513,1,0
160,72,10604,1,0
192,64,10695,1,0
224,64,10786,1,2
256,72,10877,1,0
288,88,10968,1,0
312,112,11059,1,0
328,136,11150,1,0
368,216,11331,1,2
352,304,11513,1,2
320,320,11604,1,0
288,312,11695,1,0
256,192,11877,1,6
256,192,12240,12,2,12968
256,192,13331,5,4
256,192,13695,12,2,14422
136,120,14786,5,4
160,96,14877,1,0
192,80,14968,1,0
224,72,15059,1,0
256,72,15150,1,2
288,80,15240,1,0
312,96,15331,1,0
368,200,15513,1,0
360,232,15604,1,0
344,264,15695,1,0
312,280,15786,1,0
280,280,15877,1,2
192,248,16059,1,0
96,168,16240,6,0,L|64:136,3,37.5
152,168,16604,2,0,L|184:136,3,37.5,2|0|0|0
152,216,16968,2,0,L|184:248,3,37.5
96,216,17331,2,2,L|64:248,3,37.5
96,216,17695,1,4
184,56,18059,5,0
256,56,18240,1,2
352,168,18604,1,0
272,168,18786,1,2
152,256,19150,1,0
224,256,19331,1,2
352,328,19695,1,0
272,328,19877,1,2
256,176,20240,1,2
112,136,20604,5,0
128,104,20695,1,0
152,80,20786,1,0
184,64,20877,1,0
224,56,20968,1,2
264,56,21059,1,0
296,64,21150,1,0
352,104,21331,1,0
368,128,21422,1,0
376,160,21513,1,0
376,192,21604,1,0
360,224,21695,1,2
256,192,21877,5,0
200,120,22059,6,0,B|152:72,3,37.5
304,128,22422,6,0,B|344:80,3,37.5,2|0|0|0
304,240,22786,6,0,B|344:280,3,37.5
200,240,23150,6,0,B|168:272,3,37.5,2|0|0|0
200,240,23513,1,4
96,56,23877,6,0,B|56:88|96:136,1,75,0|2
152,152,24241,2,2,B|232:48|360:120,1,225
392,192,24968,2,0,B|432:232|392:272,1,75,0|2
344,304,25331,2,0,B|320:352|256:328,1,75,0|2
208,192,25695,2,0,B|288:192,3,75,0|2|0|2
328,192,26422,6,0,B|376:192,4,37.5,0|0|0|0|2
256,248,26968,1,2
184,192,27150,2,0,B|136:192,4,37.5,0|0|0|0|2
256,136,27695,1,2
256,192,27877,12,4,28968
256,192,29331,5,0
168,192,29513,1,0
80,192,29695,1,2
80,104,29877,1,0
168,104,30059,1,0
200,104,30150,1,2
288,104,30331,1,2
424,104,30604,1,2
256,192,30786,5,0
344,192,30968,1,0
432,192,31150,1,2
432,280,31331,1,0
344,280,31513,1,0
312,280,31604,1,2
224,280,31786,1,2
88,280,32059,1,2
144,192,32241,5,0
184,128,32422,1,0
256,104,32604,1,2
328,128,32786,1,0
360,192,32968,1,0
320,256,33150,1,0
296,280,33241,1,0
272,256,33331,1,2
256,104,33513,5,0
360,160,33695,1,0
360,280,33877,1,0
256,344,34059,1,2
152,288,34241,1,0
152,168,34422,1,0
256,208,34604,2,2,B|192:176,4,37.5
256,208,35150,5,4
328,152,35331,1,0
256,96,35513,1,2
184,152,35695,1,0
136,72,35877,1,0
120,104,35968,1,2
64,176,36150,1,2
128,296,36422,1,2
256,208,36604,5,0
184,264,36786,1,0
256,320,36968,1,2
328,264,37150,1,0
400,320,37331,1,0
424,296,37422,1,2
464,216,37604,1,2
400,96,37877,1,2
256,88,38059,5,0
160,192,38240,1,0
256,296,38422,1,2
352,192,38604,1,0
256,192,38786,1,0
256,72,38968,1,0
240,96,39059,1,0
272,96,39150,1,2
256,192,39331,12,4,40604
256,192,40968,6,0,B|168:192,3,75,0|0|2|0
184,344,41695,1,2
32,192,41968,1,2
184,32,42240,1,2
256,192,42422,6,0,B|360:192,3,75,0|0|2|0
328,344,43150,1,0
480,192,43422,1,2
336,40,43695,1,2
272,176,43877,6,2,B|336:120|256:56,2,112.5
248,216,44604,2,2,B|184:264|256:336,2,112.5
256,192,45331,12,4,46422
256,192,46604,5,0
160,264,46786,6,0,B|96:264|112:184,3,75,0|0|2|0
152,136,47513,1,0
256,48,47786,1,2
384,96,48059,1,2
400,184,48240,6,0,B|424:232|344:256,3,75,0|0|2|0
296,296,48968,1,0
168,240,49240,1,2
168,104,49513,1,2
256,168,49695,2,0,B|256:32,2,112.5,0|2|0
256,232,50422,2,0,B|256:360,2,112.5,0|2|0
256,192,51150,12,4,52240
104,96,52604,5,2
328,96,53150,1,0
360,104,53240,1,0
384,128,53331,1,2
416,200,53513,1,2
224,320,54059,5,0
160,280,54240,1,2
112,136,54604,1,0
136,112,54695,1,0
168,104,54786,1,2
240,104,54968,1,0
264,120,55059,1,2
384,264,55513,5,0
312,296,55695,1,2
184,216,56059,1,0
160,192,56150,1,0
160,160,56240,1,2
256,192,56422,1,2
272,72,56968,1,0
336,104,57150,1,2
328,224,57513,1,2
128,80,57877,5,0
176,136,58059,1,2
224,80,58240,1,2
272,136,58422,1,4
272,136,58786,1,2
400,320,59331,5,0
352,264,59513,1,2
296,320,59695,1,2
248,264,59877,1,2
248,264,60240,1,2
256,40,60786,5,0
216,104,60968,1,2
296,104,61150,1,2
256,168,61331,1,2
88,312,61877,5,0
128,248,62059,1,2
392,248,62604,1,0
432,312,62786,1,2
256,64,63513,1,2
136,88,64241,6,0,B|152:32|208:56,2,75,4|0|0
88,144,64786,2,0,B|72:208|144:208,1,75,2|2
144,184,65059,2,2,B|176:144,2,37.5
144,224,65331,2,2,B|168:264|232:224,2,75
224,192,65877,1,0
288,192,66059,1,2
360,192,66241,2,0,B|424:208|424:136,1,75,2|2
400,136,66514,2,2,B|360:104,2,37.5
440,136,66786,2,2,B|480:112|440:48,2,75
440,208,67331,5,0
392,264,67513,1,2
320,296,67695,1,0
248,280,67877,1,0
304,232,68059,1,0
272,208,68150,1,0
256,168,68240,1,2
192,208,68422,1,0
176,136,68604,1,2
216,80,68786,1,0
136,80,68968,1,2
80,128,69150,1,0
104,200,69331,1,2
136,88,70059,5,4
152,160,70240,1,0
168,232,70422,2,2,B|192:328,2,75
192,160,70968,2,0,B|224:128,1,37.5,0|2
256,40,71331,1,2
256,112,71513,5,0
256,184,71695,1,2
256,256,71877,2,0,B|312:176,2,75,0|2|0
256,328,72422,2,0,B|216:296,1,37.5,0|2
336,280,72786,1,0
392,224,72968,1,0
416,152,73150,1,2
376,88,73331,1,0
304,56,73513,1,2
224,64,73695,1,0
160,104,73877,1,0
144,136,73968,1,0
136,168,74059,1,2
176,232,74241,1,0
256,192,74422,12,4,75150
96,64,75877,6,0,B|56:104|96:152,3,75,0|2|0|2
120,192,76604,2,0,B|136:208|160:208,1,37.5,0|2
224,216,76877,2,2,B|304:200|288:120,1,112.5
368,136,77331,2,0,B|416:120|424:176,3,75,0|2|0|2
416,240,78059,2,0,B|416:272|368:280,1,37.5,0|2
336,312,78331,2,2,B|272:352|216:280,1,112.5
168,256,78786,1,0
112,160,79059,1,2
184,56,79331,1,2
256,32,79513,1,0
368,48,79786,1,2
464,104,80059,1,2
440,176,80240,2,2,B|373:241|248:368|184:168,1,300
128,80,81331,5,0
184,32,81513,1,2
248,64,81695,2,0,B|288:40|328:72,3,75,4|2|0|2
376,96,82422,2,0,B|424:112|392:168,1,75,0|2
344,208,82786,2,0,B|320:248|272:224,2,75,0|2|0
312,280,83331,1,2
240,248,83513,1,0
208,176,83695,1,2
256,128,83877,2,2,B|264:56|360:56,2,112.5
256,200,84604,1,0
144,200,84877,1,2
88,104,85150,1,2
152,72,85331,1,0
256,72,85604,1,2
368,72,85877,1,2
432,112,86059,1,4
256,72,88968,6,0,B|304:72,3,37.5,4|0|0|0
328,80,89331,1,2
344,104,89422,1,0
360,136,89513,1,0
352,168,89604,1,0
336,192,89695,1,2
304,208,89786,1,0
272,216,89877,1,0
240,200,89968,1,0
216,176,90059,2,0,B|200:136,2,37.5,2|0|0
120,176,90423,6,0,B|104:136,3,37.5
104,104,90786,1,2
120,72,90877,1,0
144,48,90968,1,0
176,32,91059,1,0
208,32,91150,1,2
248,40,91241,1,0
280,56,91332,1,0
304,80,91422,1,0
312,112,91513,1,2
256,232,91877,5,0
192,192,92059,1,0
192,160,92150,1,0
192,128,92241,1,2
264,120,92422,1,0
264,160,92513,1,0
264,200,92604,1,2
336,192,92786,1,0
336,160,92877,1,0
336,128,92968,1,2
328,96,93059,1,0
296,80,93150,1,0
264,72,93241,1,0
232,72,93331,1,2
176,104,93513,1,0
144,160,93695,1,2
144,224,93877,1,0
192,272,94059,1,2
248,312,94241,2,0,B|296:312,1,37.5,2|2
320,312,94422,1,0
352,304,94513,2,0,B|384:272,1,37.5,0|2
336,208,94786,6,0,B|288:232,3,37.5,4|0|0|0
264,208,95150,2,0,B|224:176,3,37.5,2|0|0|0
232,144,95513,2,0,B|248:104,3,37.5
272,88,95877,2,0,B|312:64,3,37.5,2|0|0|0
328,64,96241,1,0
360,72,96331,1,0
384,88,96422,1,0
408,112,96513,1,0
416,144,96604,2,0,B|416:184,3,37.5,2|0|0|0
400,208,96968,2,0,B|360:232,3,37.5
336,240,97331,2,0,B|288:240,4,37.5,2|0|0|0|0
224,96,97877,5,0
144,128,98059,1,2
96,200,98241,1,0
120,288,98422,1,0
200,328,98604,1,0
232,336,98695,1,0
264,328,98786,1,2
360,264,98968,1,0
328,176,99150,2,0,B|304:128,3,37.5,2|0|0|0
328,176,99513,2,0,B|304:216,3,37.5,2|0|0|0
328,176,99877,2,0,B|384:184,3,37.5,2|0|0|0
328,176,100241,1,4
192,128,100604,5,0
88,272,100877,1,2
264,312,101150,1,2
448,152,101513,5,0
360,64,101695,1,2
304,168,101877,1,0
384,256,102059,1,0
200,256,102331,1,2
176,80,102604,1,2
416,56,102968,5,0
352,160,103150,1,2
240,192,103331,1,2
240,112,103513,1,6
