osu file format v8

[General]
AudioFilename: YOSHI SCARLET ZONE.mp3
AudioLeadIn: 0
PreviewTime: 29152
Countdown: 0
SampleSet: Normal
StackLeniency: 0.6
Mode: 0
LetterboxInBreaks: 1

[Editor]
Bookmarks: 64061,88788
DistanceSpacing: 0.699999988079071
BeatDivisor: 6
GridSize: 8

[Metadata]
Title:Yoshi Scarlet Zone
Artist:MadraDot
Creator:DjUmywalka
Version:Extra
Source:Youtube
Tags:touhou madradot yoshi scarlet flandre remilia nintendo

[Difficulty]
HPDrainRate:6
CircleSize:5
OverallDifficulty:8
ApproachRate:8
SliderMultiplier:1.9
SliderTickRate:0.5

[Events]
//Background and Video events
0,0,"yoshi.jpg"
Video,0,"YOSHI'S SCARLET ZONE.avi"
//Break Periods
2,52806,63493
2,87716,88220
//Storyboard Layer 0 (Background)
//Storyboard Layer 1 (Fail)
//Storyboard Layer 2 (Pass)
//Storyboard Layer 3 (Foreground)
//Storyboard Sound Samples
//Background Colour Transformations
3,100,163,162,255

[TimingPoints]
4425,363.636363636364,4,1,0,59,1,0
87243,-100,4,1,0,0,0,0
88788,-100,4,1,0,58,0,1

[Colours]
Combo1 : 9,255,9
Combo2 : 255,255,128
Combo3 : 128,255,255
Combo4 : 255,255,255
Combo5 : 255,128,255

[HitObjects]
32,64,4607,1,0
64,96,4697,1,0
96,128,4788,1,0
128,160,4879,1,0
160,192,4970,1,0
224,128,5152,1,0
256,96,5243,1,0
320,32,5425,1,0
352,64,5516,1,0
384,96,5607,1,0
416,128,5697,2,0,B|416:192,3,47.5
448,128,6061,5,4
480,144,6152,1,0
496,176,6243,1,0
480,208,6334,1,0
448,224,6425,2,0,B|448:272,3,47.5,8|0|0|0
416,224,6788,1,0
384,240,6879,1,0
368,272,6970,1,0
384,304,7061,1,0
416,320,7152,2,0,B|480:320,3,47.5,8|0|0|0
384,336,7516,5,0
352,352,7607,1,0
320,336,7697,1,0
288,320,7788,1,0
256,304,7879,1,8
224,320,7970,1,0
192,336,8061,1,0
160,352,8152,1,0
128,336,8243,2,0,B|64:336,3,47.5,0|0|0|0
80,304,8607,2,0,B|80:192,1,95,8|0
48,144,8970,5,0
64,112,9061,1,0
96,96,9152,1,0
128,112,9243,1,0
144,144,9334,1,8
176,160,9425,2,0,B|176:224,2,47.5
208,144,9697,1,0
224,112,9788,1,0
256,96,9879,1,0
288,112,9970,1,0
304,144,10061,1,8
336,160,10152,2,0,B|336:224,2,47.5
368,144,10425,5,0
384,112,10516,1,0
416,96,10606,1,0
448,112,10697,1,0
464,144,10788,2,0,B|464:240,1,95,8|0
400,224,11152,2,0,B|400:336,2,95,0|0|8
400,224,11606,1,0
400,224,11788,1,0
352,208,11879,5,4
320,192,11970,1,0
288,192,12061,1,0
256,208,12152,1,0
224,224,12243,1,8
192,224,12334,1,0
160,224,12425,1,0
128,208,12516,1,0
96,208,12606,2,0,B|32:208,3,47.5
48,176,12970,2,0,B|112:176,3,47.5,8|0|0|0
64,144,13334,5,0
80,112,13425,1,0
112,96,13516,1,0
144,112,13606,1,0
160,144,13697,1,8
192,160,13788,1,0
224,144,13879,1,0
240,112,13970,1,0
272,96,14061,2,0,C|336:96,3,47.5,0|0|0|0
320,128,14425,2,0,B|272:128,3,47.5,8|0|0|0
304,160,14788,5,0
336,176,14879,1,0
352,208,14970,1,0
336,240,15061,1,0
304,256,15152,1,8
272,240,15243,1,0
256,208,15334,1,0
256,208,15516,5,0
224,192,15606,1,0
192,208,15697,1,0
176,240,15788,1,0
192,272,15879,1,8
224,288,15970,1,0
256,272,16061,1,0
256,272,16243,5,0
288,256,16334,1,0
320,272,16425,1,0
336,304,16516,1,0
368,320,16606,1,8
400,304,16697,1,0
416,272,16788,1,0
400,240,16879,1,0
368,224,16970,1,0
336,208,17061,1,0
320,176,17152,1,0
336,144,17243,1,0
368,128,17334,1,8
384,96,17425,1,0
368,64,17516,1,0
336,48,17606,1,0
304,64,17697,5,4
240,96,17879,1,2
112,144,18243,1,2
240,192,18606,1,2
112,240,18970,1,2
240,288,19334,1,2
112,336,19697,1,2
240,288,20061,1,2
304,320,20243,1,0
368,288,20425,1,2
432,320,20606,5,0
464,304,20697,1,0
480,272,20788,1,0
464,240,20879,1,0
432,224,20970,1,8
400,208,21061,1,0
384,176,21152,1,0
384,112,21334,1,0
368,80,21425,1,0
336,64,21516,1,0
304,80,21606,1,0
288,112,21697,2,0,B|160:112,1,95,8|0
144,64,22061,5,0
112,80,22152,1,0
96,112,22243,1,0
112,144,22334,1,0
144,160,22425,1,8
160,192,22516,1,0
144,224,22607,1,0
112,240,22697,1,0
96,272,22788,1,0
112,304,22879,1,0
144,320,22970,1,0
176,304,23061,1,0
192,272,23152,1,8
224,256,23243,1,0
256,272,23334,1,0
272,304,23425,1,0
304,320,23516,5,0
368,288,23697,1,2
368,160,24061,1,2
240,160,24425,1,2
240,32,24788,1,2
112,32,25152,1,2
112,160,25516,1,2
240,160,25879,1,2
240,224,26061,1,0
240,288,26243,1,2
304,320,26425,5,0
336,304,26516,1,0
368,288,26607,1,0
336,272,26697,1,0
304,256,26788,1,8
336,240,26879,1,0
368,224,26970,1,0
368,160,27152,1,0
336,144,27243,1,0
304,128,27334,1,0
336,112,27425,1,0
368,96,27516,2,0,B|480:96,1,95,8|0
256,192,27879,12,4,28970
48,64,29334,6,0,B|48:128,3,47.5
80,128,29697,2,2,B|192:128,1,95,0|0
224,80,30061,1,2
224,80,30152,1,2
288,112,30334,2,2,B|336:192|288:256,1,142.5
224,240,30788,5,0
192,224,30879,1,0
160,224,30970,1,0
128,240,31061,1,0
112,272,31152,1,2
144,336,31334,1,2
208,304,31516,1,0
208,304,31607,1,2
272,336,31788,2,2,B|416:336,1,142.5
464,288,32243,5,0
416,240,32425,1,0
464,192,32607,1,2
416,144,32788,1,0
464,96,32970,1,0
416,48,33152,1,0
384,64,33243,1,0
368,96,33334,1,2
320,144,33516,2,0,B|208:144,2,95
336,208,34061,2,2,B|448:208,1,95
472,256,34425,2,2,B|376:352|280:240,1,190
256,224,34970,1,0
192,192,35152,5,4
160,192,35243,1,0
128,208,35334,1,0
96,192,35425,1,0
64,192,35516,1,2
48,128,35697,1,0
64,64,35879,2,2,B|128:64,1,47.5
128,128,36152,2,2,B|272:128,1,142.5
336,112,36607,6,0,B|336:64,4,47.5,0|0|0|0|2
400,128,37152,1,0
464,144,37334,2,2,B|464:208,1,47.5
400,208,37606,2,2,B|368:288|416:352,1,142.5
336,336,38061,5,0
272,304,38243,1,0
208,272,38425,1,2
144,304,38606,1,0
80,336,38788,1,0
144,304,38970,1,0
112,288,39061,1,0
80,272,39152,1,2
80,208,39334,1,0
80,144,39516,5,4
96,112,39606,1,0
128,96,39697,1,0
160,112,39788,1,0
176,144,39879,1,0
208,160,39970,1,0
240,144,40061,1,0
256,112,40152,1,0
288,96,40243,1,0
320,112,40334,1,0
336,144,40425,1,0
368,160,40516,1,0
400,144,40606,1,0
416,112,40697,1,0
448,96,40788,1,0
480,112,40879,1,0
496,144,40970,6,0,B|464:192|512:256,1,95,4|2
432,256,41334,2,0,B|448:304|416:352,1,95,0|2
368,304,41697,2,2,B|224:304,2,142.5
336,240,42425,5,0
336,240,42606,1,2
272,256,42788,1,0
272,256,42970,1,2
208,240,43152,2,2,B|128:224|64:304,2,142.5
208,176,43879,6,0,B|272:208|352:144,2,142.5
176,112,44606,2,2,B|96:80|16:144,2,142.5
192,48,45334,6,2,B|304:48,1,95
304,64,45606,1,0
320,80,45697,2,2,B|448:80,1,95
432,96,45970,1,0
448,112,46061,2,2,B|448:160,3,47.5
448,192,46425,2,2,B|448:320,1,95
400,336,46788,5,0
336,320,46970,1,2
272,304,47152,1,0
208,288,47334,1,2
144,272,47516,2,2,B|16:368,2,142.5
96,224,48243,5,0
48,176,48425,1,2
48,112,48606,1,0
96,64,48788,1,2
160,64,48970,2,2,B|304:64,2,142.5
128,128,49697,2,0,B|48:128|32:32,2,142.5
160,64,50425,2,2,B|240:64|256:176,2,142.5
256,192,51152,12,4,52606
64,80,64243,6,0,B|48:144,3,47.5
80,144,64606,2,0,B|176:144,1,95,0|2
208,80,64970,1,2
208,80,65061,1,2
240,144,65243,2,2,B|272:224|192:288,1,142.5
144,256,65697,2,0,B|64:256,3,47.5
80,288,66061,2,0,B|112:336|176:320,1,95,0|2
224,288,66425,1,2
224,288,66516,1,2
256,224,66697,2,2,B|320:256|320:336|256:352,1,142.5
352,352,67152,5,0
416,320,67334,1,0
448,304,67425,1,0
480,288,67516,1,2
432,240,67697,1,0
400,224,67788,1,0
368,208,67879,1,2
400,160,68061,1,0
432,144,68152,1,0
464,128,68243,1,2
448,64,68425,1,0
384,48,68606,1,0
320,64,68788,1,0
256,48,68970,1,2
192,64,69152,1,0
128,48,69334,2,2,B|128:112,3,47.5
96,112,69697,2,2,B|64:176|80:224,1,95
48,272,70061,5,0
80,288,70152,1,0
112,288,70243,1,0
144,272,70334,1,0
144,240,70425,2,2,B|256:240,1,95
304,224,70788,2,2,B|368:288|304:368,2,142.5
368,208,71516,1,0
400,192,71606,1,0
416,160,71697,1,0
400,128,71788,1,0
368,112,71879,2,2,B|256:112,1,95
208,80,72243,2,2,B|144:144|208:224,2,142.5
144,48,72970,5,0
80,80,73152,1,0
48,96,73243,1,0
16,112,73334,1,2
32,176,73516,1,0
48,208,73606,1,0
64,240,73697,1,2
128,208,73879,1,0
160,192,73970,1,0
192,176,74061,1,2
208,208,74152,1,0
224,240,74243,1,0
256,304,74425,5,0
288,320,74516,1,0
320,336,74606,1,0
352,320,74697,1,0
384,304,74788,1,0
416,320,74879,1,0
448,336,74970,1,0
480,320,75061,1,0
480,288,75152,1,0
480,256,75243,1,0
448,240,75334,1,0
416,224,75425,1,0
384,208,75516,1,0
352,224,75606,1,0
320,240,75697,1,0
288,224,75788,1,0
256,208,75879,6,0,B|144:208,1,95,4|2
128,144,76243,2,0,B|240:144,1,95,0|2
240,80,76606,1,0
304,48,76788,1,0
304,48,76879,1,2
368,80,77061,1,0
368,80,77152,1,2
432,48,77334,6,0,B|432:160,1,95,0|2
368,160,77697,2,0,B|368:256,1,95,0|2
432,288,78061,1,0
368,320,78243,1,0
368,320,78334,1,2
304,288,78516,1,0
304,288,78606,1,2
240,320,78788,5,0
176,288,78970,1,0
176,288,79061,1,2
112,320,79243,1,0
112,320,79334,1,2
48,288,79516,1,0
80,224,79697,1,2
144,256,79879,1,0
80,224,80061,1,2
48,288,80243,2,2,B|16:192|64:48|192:32,2,285
112,320,81516,1,0
112,256,81697,6,0,B|224:256,1,95,0|2
208,320,82061,2,0,B|336:320,1,95,0|2
320,256,82425,2,2,B|368:256,2,47.5
256,240,82788,1,0
304,192,82970,1,2
240,176,83152,6,0,B|128:144,1,95,0|2
160,80,83516,2,0,B|256:112,1,95,0|2
320,128,83879,2,2,B|368:144,2,47.5
336,64,84243,2,0,B|432:96,1,95,0|2
432,160,84606,6,2,B|448:224|416:320,2,142.5,2|2|2
368,192,85334,2,2,B|208:192,2,142.5
256,192,86061,12,4,87516
64,96,88970,5,0
96,80,89061,1,0
128,64,89152,1,0
160,80,89243,1,0
192,96,89334,1,0
224,80,89425,1,0
256,64,89516,1,0
288,80,89606,1,0
320,96,89697,1,0
352,80,89788,1,0
384,64,89879,1,0
448,96,90061,2,2,B|448:208,1,95
384,224,90425,5,0
352,208,90516,1,0
320,192,90606,1,0
288,208,90697,1,0
256,224,90788,1,0
224,208,90879,1,0
192,192,90970,1,0
160,208,91061,1,0
128,224,91152,1,0
96,208,91243,1,0
64,192,91334,1,0
48,256,91516,2,2,B|48:352,1,95
112,352,91879,5,0
176,320,92061,1,0
192,288,92152,1,0
208,256,92243,1,2
272,288,92425,1,0
304,304,92516,1,0
336,320,92606,1,2
384,272,92788,1,0
400,240,92879,1,0
416,208,92970,1,2
384,144,93152,1,0
320,160,93334,5,0
288,160,93425,1,0
256,160,93516,1,0
224,160,93606,1,0
192,160,93697,1,0
160,160,93788,1,0
128,160,93879,1,0
96,160,93970,1,0
64,160,94061,2,0,B|16:160,2,47.5
48,96,94425,2,2,B|144:96,1,95
192,48,94788,5,0
224,48,94879,1,0
256,64,94970,1,0
288,80,95061,1,0
320,96,95152,2,2,B|400:96,2,47.5
320,160,95516,1,0
384,176,95697,1,2
336,224,95879,1,0
400,240,96061,1,2
352,288,96243,6,0,B|432:320,2,47.5
320,272,96516,1,0
288,288,96606,2,0,B|240:304,2,47.5
240,240,96970,1,0
176,272,97152,1,2
176,208,97334,1,0
112,240,97516,1,2
176,208,97697,6,0,B|176:144,2,47.5
208,192,97970,1,0
240,208,98061,2,0,B|240:272,2,47.5
272,192,98334,1,0
304,208,98425,2,0,B|304:144,2,47.5
336,192,98697,1,0
368,208,98788,2,0,B|368:272,2,47.5
432,176,99152,5,0
432,144,99243,1,0
416,112,99334,1,0
384,96,99425,1,0
352,96,99516,1,0
320,112,99606,1,0
320,144,99697,1,0
320,176,99788,1,0
304,208,99879,1,0
272,208,99970,1,0
240,176,100061,1,0
240,144,100152,1,0
240,112,100243,1,0
208,96,100334,1,0
176,96,100425,1,0
144,112,100516,1,0
144,144,100606,6,2,B|144:304,2,142.5
256,208,101516,1,2
256,208,101697,1,2
256,208,101879,1,2
320,176,102061,2,2,B|464:176,2,142.5
256,48,102970,1,2
192,64,103152,1,2
128,80,103334,1,2
64,96,103516,1,6
