osu file format v14

[General]
AudioFilename: Madeon - Pop Culture (live mashup) [pleer.com].mp3
AudioLeadIn: 0
PreviewTime: -1
Countdown: 1
SampleSet: Normal
StackLeniency: 0.7
Mode: 0
LetterboxInBreaks: 1
WidescreenStoryboard: 0

[Editor]
Bookmarks: 13596,28956,44316,59676,67356,82716,105756,113436,121116,136476,144156,151836,167196,182556
DistanceSpacing: 1.4
BeatDivisor: 4
GridSize: 4
TimelineZoom: 1.3

[Metadata]
Title:Pop Culture
TitleUnicode:Pop Culture
Artist:Madeon
ArtistUnicode:Madeon
Creator:Reiji-RJ
Version:Pop Collab
Source:
Tags:EvilElvis IceBeam TicClick tomhet65 Kyubey YellowManul Alphabeat Boyfriend Fascination Bag Raiders Shooting Stars Black Eyed Peas Gotta Feeling Britney Spears Baby One More Time Capsule Can I Have A Word Chromeo Momma's Boy Coldplay Viva La Vida Daft Punk Aerodynamic Around World Deadmau5 Raise Your Weapon Right This Second Ellie Goulding Starry Eyed ELO Mr. Blue Sky Girls Aloud Biology Gorillaz Dare Gossip Heavy Cross Fred Falke Remix Gwen Stefani What You Waitin For Jacques Lu Cont Mix Housse de Racket Oh Yeah Justice DVNO Phantom Part II Katy Perry One Of Ke$ha Take It Off Kylie Minogue Wow Lady Gaga Alejandro Linkin Park Crawling Madonna Hung Up Martin Solveig ft. Dragonette Boys Michael Jackson Billie Jean Nero Me and You One Republic All Right Moves Danger One-T Magic Key Ratatat Shempi Solange I Decided Freemasons Stardust Music Sounds Better With You Buggles Video Killed The Radio Star Killers Losing Touch Who Baba O'Riley SebastiAn Yelle Que Veux Tu
BeatmapID:724117
BeatmapSetID:326066

[Difficulty]
HPDrainRate:7
CircleSize:4
OverallDifficulty:7
ApproachRate:8
SliderMultiplier:1.6
SliderTickRate:1

[Events]
//Background and Video events
0,0,"bg.jpg",0,0
//Break Periods
2,105951,112201
//Storyboard Layer 0 (Background)
//Storyboard Layer 1 (Fail)
//Storyboard Layer 2 (Pass)
//Storyboard Layer 3 (Foreground)
//Storyboard Sound Samples

[TimingPoints]
2071,480,4,2,1,5,1,0
5911,-133.333333333333,4,2,2,40,0,0
11671,-133.333333333333,4,2,1,20,0,0
12631,-133.333333333333,4,2,1,50,0,0
13111,-133.333333333333,4,2,1,55,0,0
13591,-76.9230769230769,4,2,1,60,0,1
13711,-76.9230769230769,4,2,1,60,0,0
14311,-133.333333333333,4,2,1,60,0,0
15031,-100,4,2,1,60,0,0
20551,-200,4,2,1,50,0,0
20791,-200,4,2,1,60,0,0
21271,-76.9230769230769,4,2,1,60,0,0
21991,-133.333333333333,4,2,1,60,0,0
22711,-100,4,2,1,60,0,0
28951,-76.9230769230769,4,2,1,70,0,0
29911,-200,4,2,1,70,0,0
30871,-76.9230769230769,4,2,1,70,0,0
31591,-100,4,2,1,70,0,0
32071,-100,4,2,1,50,0,0
32191,-100,4,2,1,70,0,0
32791,-76.9230769230769,4,2,1,70,0,0
33751,-200,4,2,1,70,0,0
34831,-200,4,2,1,20,0,0
35071,-200,4,2,1,80,0,0
35311,-200,4,2,1,20,0,0
35551,-200,4,2,1,40,0,0
35791,-200,4,2,1,70,0,0
36151,-200,4,2,1,100,0,0
36631,-76.9230769230769,4,2,1,70,0,0
37591,-200,4,2,1,70,0,0
38551,-76.9230769230769,4,2,1,70,0,0
39271,-100,4,2,1,70,0,0
40471,-200,4,2,1,100,0,1
42271,-200,4,2,1,10,0,0
42391,-166.666666666667,4,2,1,50,0,0
42871,-142.857142857143,4,2,1,60,0,0
43351,-125,4,2,1,70,0,0
43831,-111.111111111111,4,2,1,80,0,0
44311,-100,4,1,1,60,0,1
44431,-100,4,1,1,60,0,0
50071,-80,4,1,1,60,0,0
51991,-100,4,1,1,50,0,0
59431,-100,4,2,1,20,0,0
60151,-100,4,2,1,30,0,0
67351,-100,4,2,0,35,0,0
75031,-83.3333333333333,4,2,0,50,0,0
79111,-83.3333333333333,4,2,0,45,0,0
79351,-83.3333333333333,4,2,0,60,0,0
79591,-83.3333333333333,4,2,0,45,0,0
79831,-83.3333333333333,4,2,0,80,0,0
79951,-83.3333333333333,4,2,0,60,0,0
80191,-83.3333333333333,4,2,0,80,0,0
80311,-83.3333333333333,4,2,0,60,0,0
80551,-83.3333333333333,4,2,0,30,0,0
80671,-83.3333333333333,4,2,0,50,0,0
82711,-100,4,2,1,60,0,1
82831,-100,4,2,1,60,0,0
83311,-142.857142857143,4,2,1,70,0,0
84031,-100,4,2,1,60,0,0
85951,-80,4,2,1,70,0,0
86491,-100,4,2,1,60,0,0
90991,-142.857142857143,4,2,1,70,0,0
91711,-100,4,2,1,60,0,0
93631,-83.3333333333333,4,2,1,70,0,0
94171,-100,4,2,1,60,0,0
96391,-100,4,2,1,30,0,0
98071,-100,4,2,1,60,0,1
98191,-100,4,2,1,60,0,0
98671,-142.857142857143,4,2,1,70,0,0
99391,-100,4,2,1,60,0,0
113311,-79.9999999999999,4,2,1,70,0,0
113551,-79.9999999999999,4,2,1,50,0,0
113791,-125,4,2,1,40,0,0
116431,-125,4,2,1,40,0,0
116531,-125,4,2,1,20,0,0
116671,-125,4,2,1,40,0,0
117151,-125,4,2,1,30,0,0
120031,-125,4,2,1,20,0,0
120271,-125,4,2,1,30,0,0
121111,-125,4,2,2,40,0,0
136351,-100,4,2,3,50,0,0
136591,-100,4,2,2,40,0,0
138271,-100,4,2,3,40,0,0
138511,-100,4,2,2,40,0,0
140191,-100,4,2,3,30,0,0
140431,-100,4,2,2,40,0,0
142111,-100,4,2,3,40,0,0
142351,-100,4,2,2,40,0,0
143071,-100,4,2,3,20,0,0
143311,-125,4,2,2,40,0,0
143851,-125,4,2,1,40,0,0
144151,-133.333333333333,4,2,1,40,0,0
147991,-133.333333333333,4,1,1,30,0,0
148951,-133.333333333333,4,1,1,35,0,0
149911,-133.333333333333,4,1,1,50,0,0
150871,-133.333333333333,4,2,1,55,0,0
151831,-83.3333333333333,4,1,2,70,0,1
155311,-83.3333333333333,4,1,2,40,0,1
155551,-83.3333333333333,4,1,2,70,0,1
159151,-83.3333333333333,4,1,2,50,0,1
159391,-83.3333333333333,4,1,2,70,0,1
182551,-100,4,2,1,50,0,0

[Colours]
Combo1 : 17,254,176
Combo2 : 173,255,95
Combo3 : 255,88,100
Combo4 : 255,94,55

[HitObjects]
256,192,2071,12,0,3991,0:0:0:0:
256,192,4051,12,0,4951,0:0:0:0:
256,192,5011,12,6,5911,0:0:0:0:
116,172,6391,5,8,0:0:0:0:
172,332,7351,1,8,0:0:0:0:
340,332,8311,1,8,0:0:0:0:
396,172,9271,1,8,0:0:0:0:
256,76,10231,1,8,0:0:0:0:
256,192,11191,1,8,0:0:0:0:
256,192,11671,1,2,0:0:0:0:
256,192,12631,6,0,L|196:200,1,60.0000022888184,4|4,1:3|0:0,0:0:0:0:
256,316,13111,2,0,L|317:307,1,60.0000022888184,4|4,1:3|0:0,0:0:0:0:
508,208,13591,6,0,P|436:136|328:128,1,207.999990478516,4|8,1:0|1:2,0:0:0:0:
88,208,14311,6,0,L|104:336,1,120.000004577637,4|0,0:0|0:0,0:0:0:0:
102,327,15031,1,8,1:2:0:0:
216,344,15271,1,2,0:0:0:0:
216,344,15391,1,0,0:0:0:0:
216,344,15511,6,0,B|256:320|256:320|368:340,1,160,4|8,1:0|1:2,0:0:0:0:
480,356,16231,1,0,1:0:0:0:
484,360,16711,1,2,0:0:0:0:
440,260,16951,2,0,P|420:208|428:144,1,120,12|0,0:0|0:0,0:0:0:0:
420,128,17431,6,0,P|388:203|304:243,1,160,4|8,1:0|1:2,0:0:0:0:
212,272,18151,1,0,1:0:0:0:
196,276,18271,1,0,0:0:0:0:
180,280,18391,2,0,L|172:200,1,80,2|0,0:0|0:0,0:0:0:0:
48,272,18871,2,0,L|56:352,1,80,8|0,1:2|0:0,0:0:0:0:
160,368,19351,5,0,1:0:0:0:
296,360,19591,1,2,0:0:0:0:
432,348,19831,1,8,1:2:0:0:
160,368,20071,1,4,1:0:0:0:
160,368,20551,1,6,0:0:0:0:
72,320,20791,6,0,P|60:288|60:260,1,60,8|0,1:2|0:0,0:0:0:0:
48,248,21271,6,0,P|148:244|224:172,1,207.999990478516,4|8,1:0|1:2,0:0:0:0:
328,40,21991,6,0,L|208:32,1,120.000004577637,4|2,0:0|0:3,0:0:0:0:
76,24,22711,1,8,1:2:0:0:
220,40,22951,1,2,0:0:0:0:
220,40,23071,1,0,0:0:0:0:
220,40,23191,6,0,B|236:92|236:92|216:196,1,160,4|8,1:0|1:2,0:0:0:0:
192,308,23911,1,0,1:0:0:0:
196,312,24391,1,2,0:0:0:0:
304,344,24631,2,0,B|384:320|340:352|424:324,1,120,12|0,0:0|0:0,0:0:0:0:
432,336,25111,6,0,P|460:272|444:180,1,160,4|8,1:0|1:2,0:0:0:0:
372,96,25831,1,0,1:0:0:0:
372,96,26071,2,0,L|288:112,1,80,2|0,0:0|0:0,0:0:0:0:
446,185,26551,2,0,L|528:164,1,80,8|0,1:2|0:0,0:0:0:0:
336,208,27031,5,4,1:0:0:0:
252,124,27271,1,2,0:0:0:0:
224,240,27511,1,8,1:2:0:0:
140,152,27751,1,4,1:0:0:0:
140,152,28231,1,6,0:0:0:0:
29,190,28471,6,0,P|5:154|1:114,1,80,8|2,0:0|0:0,0:0:0:0:
0,118,28831,1,0,0:0:0:0:
0,118,28951,6,0,B|129:136|58:53|218:80,1,207.999990478516,4|10,1:0|1:2,0:0:0:0:
279,86,29671,1,2,3:0:0:0:
462,123,29911,6,0,L|467:192,1,60,4|0,0:0|0:0,0:0:0:0:
481,207,30391,1,10,1:2:0:0:
455,298,30631,1,2,0:0:0:0:
463,311,30751,1,2,0:0:0:0:
471,325,30871,6,0,L|235:357,1,207.999990478516,4|8,1:0|1:2,0:0:0:0:
8,221,31591,6,0,L|166:201,1,160,4|4,1:0|0:0,0:0:0:0:
104,297,32311,2,0,L|10:309,1,80,8|8,1:2|0:0,0:0:0:0:
191,105,32791,6,0,P|253:163|226:282,1,207.999990478516,4|8,1:0|1:2,0:0:0:0:
171,338,33511,1,2,3:0:0:0:
0,96,33751,6,0,L|7:32,1,60,4|0,0:0|0:0,0:0:0:0:
28,21,34231,1,8,1:2:0:0:
79,118,34471,1,2,0:0:0:0:
76,133,34591,1,2,0:0:0:0:
72,148,34711,6,0,L|63:204,1,40,2|0,0:0|0:0,0:0:0:0:
117,249,35191,2,0,L|126:305,1,40,2|0,0:0|0:0,0:0:0:0:
180,345,35671,2,0,L|171:401,1,40,2|0,0:0|0:0,0:0:0:0:
238,78,36151,5,4,0:0:0:0:
238,78,36631,6,0,P|287:53|416:135,1,207.999990478516,4|8,1:0|1:2,0:0:0:0:
429,202,37351,1,2,3:0:0:0:
145,115,37591,6,0,L|135:47,1,60,4|0,0:0|0:0,0:0:0:0:
164,37,38071,1,8,1:2:0:0:
237,166,38311,1,2,0:0:0:0:
230,180,38431,1,2,0:0:0:0:
222,194,38551,6,0,P|173:219|44:137,1,207.999990478516,4|8,1:0|1:2,0:0:0:0:
8,358,39271,6,0,P|32:315|139:304,1,160,4|4,1:0|0:0,0:0:0:0:
191,366,39991,1,8,1:2:0:0:
191,366,40231,1,8,0:0:0:0:
491,149,40471,6,0,B|309:116|386:242|194:200,1,300,4|0,1:0|0:0,1:0:0:0:
213,231,42391,6,0,L|222:282,1,47.9999985351563,0|0,1:0|1:0,0:0:0:0:
118,171,42871,2,0,L|109:243,1,55.9999982910157,2|0,1:2|1:0,0:0:0:0:
209,78,43351,2,0,L|223:150,1,64,0|0,1:0|1:0,0:0:0:0:
120,19,43831,2,0,L|107:93,1,71.9999978027344,2|0,1:2|1:0,0:0:0:0:
444,280,44311,5,4,0:0:0:0:
444,280,44791,1,8,0:2:0:0:
240,336,45031,2,0,P|220:276|232:176,1,160,4|0,0:0|2:0,0:0:0:0:
340,132,45751,2,0,P|384:124|428:84,1,80,8|0,0:2|2:0,0:0:0:0:
236,72,46231,2,0,P|164:44|88:72,1,160,4|8,0:0|0:2,0:0:0:0:
64,104,46831,1,0,2:0:0:0:
68,128,46951,1,0,0:0:0:0:
72,152,47071,1,0,2:0:0:0:
76,176,47191,1,2,2:0:0:0:
176,304,47431,1,0,0:0:0:0:
24,260,47671,1,8,0:2:0:0:
168,208,47911,1,0,2:0:0:0:
80,336,48151,5,4,0:0:0:0:
80,336,48631,1,8,0:2:0:0:
264,252,48871,2,0,B|312:224|312:224|424:252,1,160,4|0,0:0|0:0,0:0:0:0:
480,168,49591,2,0,L|392:148,1,80,8|0,0:2|2:0,2:0:0:0:
144,28,50071,6,0,P|92:116|148:196,1,200,4|8,0:0|0:2,0:0:0:0:
224,296,50791,1,4,0:0:0:0:
220,324,50911,1,0,2:0:0:0:
216,352,51031,1,2,2:0:0:0:
352,240,51271,1,0,0:0:0:0:
356,212,51391,1,0,2:0:0:0:
360,184,51511,1,8,0:2:0:0:
468,88,51751,1,0,2:0:0:0:
192,48,51991,6,0,P|108:36|40:80,1,160,4|8,0:0|0:2,0:0:0:0:
72,264,52711,2,0,P|156:276|224:232,1,160,4|0,0:0|2:0,0:0:0:0:
296,140,53431,1,8,0:2:0:0:
384,148,53671,1,0,2:0:0:0:
472,164,53911,2,0,B|444:204|468:240|468:240|436:272|452:320,1,160,4|0,0:0|0:0,0:0:0:0:
416,332,54511,1,0,2:0:0:0:
392,336,54631,1,0,0:0:0:0:
372,340,54751,1,0,2:0:0:0:
352,344,54871,1,2,2:0:0:0:
188,280,55111,2,0,L|204:372,2,80,0|8|0,0:0|0:2|2:0,0:0:0:0:
256,192,55831,5,4,0:0:0:0:
256,192,55951,12,2,59671,0:0:0:0:
92,180,60151,5,0,0:0:0:0:
204,156,60391,1,2,0:0:0:0:
311,191,60631,2,0,P|350:195|389:188,1,80,0|2,0:0|0:0,0:0:0:0:
472,92,61111,1,0,0:0:0:0:
472,92,61351,2,0,P|480:171|507:246,1,160
446,351,62071,6,0,P|412:332|389:300,1,80,0|2,0:0|0:0,0:0:0:0:
292,319,62551,2,0,P|311:285|316:244,1,80,0|2,0:0|0:0,0:0:0:0:
192,168,63031,1,0,0:0:0:0:
191,168,63271,2,0,P|114:151|49:105,1,160
24,244,63991,6,0,L|28:328,1,80,0|2,0:0|0:0,0:0:0:0:
136,348,64471,2,0,L|136:264,1,80,0|2,0:0|0:0,0:0:0:0:
240,188,64951,1,0,0:0:0:0:
240,188,65191,2,0,P|318:173|397:179,1,160
492,132,65911,5,0,0:0:0:0:
472,28,66151,1,2,0:0:0:0:
368,12,66391,1,0,0:0:0:0:
319,104,66631,2,0,P|240:107|161:96,1,160,0|2,0:0|0:0,0:0:0:0:
359,248,67351,5,4,1:2:0:0:
295,296,67831,1,2,1:2:0:0:
245,233,68311,1,0,1:0:0:0:
308,184,68791,1,2,1:2:0:0:
377,309,69271,5,0,1:2:0:0:
290,266,69751,1,2,1:2:0:0:
343,186,70231,1,0,1:0:0:0:
432,221,70711,1,2,1:2:0:0:
339,306,71191,5,6,1:2:0:0:
321,195,71671,1,2,1:2:0:0:
418,148,72151,1,0,1:0:0:0:
441,257,72631,1,2,1:2:0:0:
306,224,73111,1,2,1:2:0:0:
400,115,73591,1,0,1:0:0:0:
512,202,74071,2,0,P|465:202|423:206,1,80,0|2,1:0|0:0,0:0:0:0:
432,204,74431,1,2,0:0:0:0:
432,204,74551,1,0,1:0:0:0:
356,208,74791,1,0,0:0:0:0:
93,308,75031,6,0,L|189:357,1,95.9999970703126,4|2,1:0|0:2,0:0:0:0:
112,201,75511,2,0,L|14:253,1,95.9999970703126,8|2,1:3|0:2,0:0:0:0:
203,255,75991,2,0,L|179:146,1,95.9999970703126,2|2,1:3|0:0,0:0:0:0:
164,80,76471,1,0,1:0:0:0:
206,70,76591,1,2,0:0:0:0:
248,60,76711,1,0,1:0:0:0:
290,50,76831,1,2,0:0:0:0:
321,20,76951,6,0,L|333:125,1,95.9999970703126,4|2,1:0|0:0,0:0:0:0:
476,205,77431,2,0,L|486:109,1,95.9999970703126,8|2,1:3|0:0,0:0:0:0:
289,242,77911,2,0,L|302:352,1,95.9999970703126,2|2,1:3|0:0,0:0:0:0:
390,351,78391,1,0,1:0:0:0:
390,351,78511,1,2,0:0:0:0:
390,351,78631,1,0,1:0:0:0:
390,351,78751,1,2,0:0:0:0:
390,351,78871,5,4,1:0:0:0:
475,152,79111,1,8,1:3:0:0:
299,249,79351,1,0,1:0:0:0:
509,294,79591,1,4,1:3:0:0:
348,131,79831,1,0,1:2:0:0:
340,103,79951,1,0,1:3:0:0:
345,74,80071,1,0,1:0:0:0:
365,53,80191,1,0,1:2:0:0:
392,44,80311,1,4,1:3:0:0:
415,26,80431,1,0,1:2:0:0:
430,50,80551,1,8,1:3:0:0:
439,77,80671,1,4,1:3:0:0:
176,252,82711,6,0,L|272:228,1,80,4|0,1:0|0:0,0:0:0:0:
324,312,83191,1,8,1:2:0:0:
476,228,83431,6,0,B|488:164|436:112,1,111.999996582031,4|2,0:0|0:3,0:0:0:0:
280,120,84151,1,8,1:2:0:0:
300,140,84391,1,2,0:0:0:0:
176,252,84631,6,0,B|164:292|164:292|180:356,1,80,4|0,1:0|0:0,0:0:0:0:
80,240,85111,2,0,B|89:202|89:202|77:162,1,80,8|0,1:2|0:0,0:0:0:0:
188,112,85591,1,4,0:0:0:0:
176,252,85831,1,2,0:0:0:0:
416,200,86071,6,0,P|444:147|440:56,1,150,8|0,1:0|0:0,0:0:0:0:
416,40,86551,6,0,P|368:40|320:28,1,80,4|0,1:0|0:0,0:0:0:0:
228,172,87031,1,8,1:2:0:0:
196,176,87271,2,0,P|159:160|126:137,1,80,4|0,1:0|0:0,0:0:0:0:
120,40,87751,1,0,0:0:0:0:
104,232,87991,2,0,P|95:271|79:307,1,80,8|0,1:2|0:0,0:0:0:0:
160,368,88471,5,4,1:0:0:0:
256,280,88711,2,0,B|296:288|296:288|332:272|332:272|368:288|368:288|432:268,1,160,2|0,0:0|1:0,0:0:0:0:
428,252,89431,1,0,0:0:0:0:
372,116,89671,2,0,P|368:60|380:24,2,80,2|8|2,0:0|1:2|0:0,0:0:0:0:
428,252,90391,6,0,L|400:348,1,80,4|0,1:0|0:0,0:0:0:0:
496,360,90871,1,8,1:2:0:0:
300,312,91111,6,0,P|244:300|180:312,1,111.999996582031,4|2,0:0|0:3,0:0:0:0:
128,196,91831,2,0,L|150:119,1,80,8|2,1:2|0:0,0:0:0:0:
268,45,92311,5,4,1:0:0:0:
296,168,92551,1,0,0:0:0:0:
384,154,92791,1,8,1:2:0:0:
356,278,93031,2,0,P|356:320|376:374,1,80,4|2,0:0|0:0,0:0:0:0:
480,333,93511,1,0,0:0:0:0:
240,308,93751,6,0,P|185:254|174:178,1,143.999995605469,8|0,1:0|0:0,0:0:0:0:
174,160,94231,6,0,P|132:144|68:139,1,80,4|0,1:0|0:0,0:0:0:0:
112,48,94711,1,8,1:2:0:0:
56,228,94951,2,0,P|63:285|78:322,1,80,4|2,1:0|0:0,0:0:0:0:
240,308,95431,5,0,0:0:0:0:
256,280,95671,2,0,P|296:276|340:260,1,80,8|0,1:2|0:0,0:0:0:0:
168,124,96151,5,4,1:0:0:0:
172,128,96391,1,2,0:0:0:0:
172,132,96631,1,2,0:0:0:0:
168,136,96871,1,2,0:0:0:0:
164,136,97111,1,2,0:0:0:0:
160,132,97351,1,2,0:0:0:0:
160,128,97591,1,2,0:0:0:0:
164,124,97831,1,2,0:0:0:0:
140,252,98071,6,0,L|156:348,1,80,4|0,1:0|0:0,0:0:0:0:
240,348,98551,1,8,1:2:0:0:
240,196,98791,6,0,P|224:144|184:104,1,111.999996582031,4|0,0:0|0:0,0:0:0:0:
220,24,99511,1,8,1:2:0:0:
112,160,99751,2,0,L|60:152,1,40,2|2,0:0|0:0,0:0:0:0:
48,132,99991,6,0,P|44:88|72:40,1,80,4|0,1:0|0:0,0:0:0:0:
168,48,100471,1,8,1:2:0:0:
256,192,100711,1,0,1:0:0:0:
348,128,100951,2,0,P|392:140|452:140,1,80,0|6,0:0|0:0,0:0:0:0:
464,288,101431,2,0,P|428:304|372:312,1,80,8|2,1:2|0:0,0:0:0:0:
256,192,101911,5,4,1:0:0:0:
256,192,102031,12,0,105271,1:0:0:0:
252,120,105511,5,4,3:0:0:0:
260,304,105751,1,4,1:0:0:0:
416,212,112951,5,0,1:0:0:0:
260,304,113191,1,4,1:3:0:0:
252,120,113431,6,0,P|202:121|154:137,1,100,4|2,1:0|2:2,0:0:0:0:
320,65,113911,2,0,P|320:34|323:2,1,64,0|2,0:0|0:0,0:0:0:0:
392,143,114391,2,0,P|396:111|404:80,1,64,0|2,0:0|0:0,0:0:0:0:
432,287,114871,2,0,L|432:255,3,32
432,255,115351,6,0,P|444:226|461:199,1,64,0|2,0:0|0:0,0:0:0:0:
344,264,115831,1,0,0:0:0:0:
256,240,116071,1,2,0:0:0:0:
168,244,116311,1,2,0:0:0:0:
84,280,116551,2,0,P|36:321|9:379,1,128,4|2,0:0|0:0,0:0:0:0:
56,199,117271,6,0,P|57:168|55:136,1,64,0|2,0:0|0:0,0:0:0:0:
120,68,117751,1,0,0:0:0:0:
120,68,117991,1,2,0:0:0:0:
184,196,118231,2,0,P|188:227|189:259,1,64,0|2,0:0|0:0,0:0:0:0:
164,352,118711,1,0,0:0:0:0:
164,352,118951,1,2,0:0:0:0:
296,280,119191,6,0,P|315:254|329:226,1,64,0|2,0:0|0:0,0:0:0:0:
192,323,119671,2,0,P|198:292|200:260,1,64,0|2,0:0|0:0,0:0:0:0:
60,200,120151,2,0,P|44:260|48:326,1,128,4|2,0:0|0:0,0:0:0:0:
152,176,120871,1,2,0:0:0:0:
216,244,121111,6,0,P|284:256|360:232,1,128,6|8,0:0|0:0,0:0:0:0:
404,180,121831,1,2,0:0:0:0:
424,268,122071,2,0,L|404:348,1,64
496,308,122551,1,8,0:0:0:0:
502,286,122671,1,0,0:0:0:0:
503,263,122791,1,2,0:0:0:0:
498,241,122911,1,2,0:0:0:0:
488,220,123031,6,0,P|472:156|484:88,1,128,0|8,0:0|0:0,0:0:0:0:
504,8,123751,1,0,0:0:0:0:
420,36,123991,2,0,P|384:44|344:44,1,64
268,36,124471,2,0,P|236:37|204:44,1,64,8|2,0:0|0:0,0:0:0:0:
100,172,124951,6,0,P|164:180|232:156,1,128,0|8,0:0|0:0,0:0:0:0:
308,128,125671,1,2,0:0:0:0:
308,128,125911,2,0,P|314:162|300:208,1,64
260,268,126391,1,8,0:0:0:0:
254,289,126511,1,0,0:0:0:0:
252,311,126631,1,2,0:0:0:0:
256,332,126751,1,2,0:0:0:0:
264,352,126871,6,0,L|120:344,1,128,0|8,0:0|0:0,0:0:0:0:
36,196,127831,2,0,L|163:203,1,128,0|8,0:0|0:0,0:0:0:0:
248,228,128551,1,2,0:0:0:0:
372,176,128791,6,0,P|388:108|356:32,1,128,2|8,0:0|0:0,0:0:0:0:
336,264,129751,2,0,P|332:298|344:348,1,64
248,340,130231,1,8,0:0:0:0:
226,333,130351,1,0,0:0:0:0:
203,332,130471,1,2,0:0:0:0:
180,334,130591,1,2,0:0:0:0:
158,340,130711,6,0,P|140:280|156:216,1,128,0|8,0:0|0:0,0:0:0:0:
236,176,131431,1,0,0:0:0:0:
308,120,131671,2,0,L|296:36,1,64
226,112,132151,2,0,L|235:175,1,64,8|2,0:0|0:0,0:0:0:0:
320,268,132631,6,0,B|364:284|364:284|456:256,1,128,0|8,0:0|0:0,0:0:0:0:
264,344,133591,2,0,L|132:384,1,128,0|8,0:0|0:0,0:0:0:0:
60,344,134311,1,2,0:0:0:0:
88,216,134551,2,0,P|100:152|84:76,1,128,0|8,0:0|0:0,0:0:0:0:
248,16,135511,1,0,0:0:0:0:
236,104,135751,1,2,0:0:0:0:
324,76,135991,1,8,0:0:0:0:
324,76,136111,1,0,0:0:0:0:
324,76,136231,1,2,0:0:0:0:
324,168,136471,5,4,0:0:0:0:
324,168,136951,2,0,P|244:160|167:139,1,160,8|0,0:0|0:0,0:0:0:0:
108,68,137671,1,0,0:0:0:0:
104,232,137911,2,0,P|143:233|183:241,1,80,10|0,0:0|0:0,0:0:0:0:
264,328,138391,5,4,0:0:0:0:
264,328,138871,2,0,P|340:336|428:320,1,160,8|0,0:0|0:0,0:0:0:0:
488,248,139591,1,0,0:0:0:0:
352,196,139831,2,0,P|312:195|272:201,1,80,10|0,0:0|0:0,0:0:0:0:
400,116,140311,5,4,0:0:0:0:
400,116,140791,2,0,P|443:180|422:254,1,160,8|0,0:0|0:0,0:0:0:0:
320,140,141511,1,0,0:0:0:0:
364,40,141751,2,0,P|404:36|442:46,1,80,10|0,0:0|0:0,0:0:0:0:
512,156,142231,5,4,0:0:0:0:
512,156,142711,1,8,0:0:0:0:
436,184,142951,1,0,0:0:0:0:
360,152,143191,1,4,0:0:0:0:
284,160,143431,2,0,P|254:171|230:192,1,64,2|8,0:0|0:0,0:0:0:0:
230,191,143791,2,0,P|208:164|176:152,1,64
172,124,144151,6,0,P|184:84|168:20,1,90.0000034332277
176,37,144631,1,8,0:0:0:0:
60,132,144871,2,0,P|52:192|88:260,1,120.000004577637
160,216,145591,1,8,0:0:0:0:
248,228,145831,1,0,0:0:0:0:
392,148,146071,6,0,P|436:132|476:88,1,90.0000034332277
466,102,146551,1,8,0:0:0:0:
308,48,146791,2,0,P|244:56|200:104,1,120.000004577637
112,88,147511,1,8,0:0:0:0:
48,152,147751,1,0,0:0:0:0:
112,336,147991,6,0,P|152:332|184:320,1,60.0000022888184
240,208,148471,2,0,P|196:200|176:204,1,60.0000022888184
316,340,148951,6,0,P|364:324|388:304,1,60.0000022888184
472,192,149431,2,0,P|436:180|404:176,1,60.0000022888184
52,116,149911,5,0,0:0:0:0:
68,232,150151,1,4,0:3:0:0:
208,132,150391,5,0,0:0:0:0:
196,264,150631,1,4,0:3:0:0:
320,96,150871,5,0,1:0:0:0:
344,248,151111,1,0,1:0:0:0:
488,92,151351,5,0,1:0:0:0:
464,272,151591,1,0,1:0:0:0:
260,348,151831,6,0,P|180:352|124:324,1,143.999995605469,4|0,0:0|2:0,0:0:0:0:
124,324,152311,2,0,L|24:332,1,95.9999970703126,8|0,0:0|0:0,0:0:0:0:
176,107,152791,2,0,B|320:95,1,143.999995605469,0|0,0:0|2:0,0:0:0:0:
324,100,153271,1,8,0:0:0:0:
460,132,153511,1,2,0:0:0:0:
480,140,153631,1,0,0:0:0:0:
500,148,153751,6,2,L|476:292,1,143.999995605469,0|0,0:0|2:0,0:0:0:0:
408,364,154231,1,8,0:0:0:0:
188,336,154471,2,0,P|144:260|156:156,1,191.999994140625,2|2,0:0|0:0,0:0:0:0:
280,40,155191,2,0,L|276:136,1,95.9999970703126,10|4,0:0|2:0,0:0:0:0:
220,252,155671,6,0,P|156:224|84:236,1,143.999995605469,2|0,0:0|2:0,0:0:0:0:
84,235,156151,1,8,0:0:0:0:
288,344,156391,2,0,P|336:344|380:320,1,95.9999970703126,2|0,0:0|0:0,0:0:0:0:
512,228,156871,2,0,P|472:204|420:204,1,95.9999970703126,0|10,0:0|0:0,0:0:0:0:
160,136,157351,1,2,0:0:0:0:
88,240,157591,6,0,L|100:336,1,95.9999970703126
240,336,158071,1,8,0:0:0:0:
240,336,158311,2,0,P|292:264|288:164,1,191.999994140625,2|2,0:0|0:0,0:0:0:0:
188,108,159031,2,0,L|96:80,1,95.9999970703126,10|4,0:0|2:0,0:0:0:0:
292,56,159511,5,6,0:0:0:0:
424,48,159751,1,0,0:0:0:0:
292,56,159991,1,10,0:0:0:0:
424,48,160231,1,0,0:0:0:0:
424,48,160351,1,0,0:0:0:0:
424,48,160471,2,2,L|412:144,1,95.9999970703126,0|2,0:0|0:0,0:0:0:0:
416,264,160951,2,2,L|516:276,1,95.9999970703126,8|2,0:0|0:0,0:0:0:0:
320,212,161431,5,2,0:0:0:0:
192,244,161671,1,0,0:0:0:0:
320,212,161911,1,10,0:0:0:0:
192,244,162151,1,0,0:0:0:0:
192,244,162271,1,0,0:0:0:0:
192,244,162391,2,2,L|96:236,1,95.9999970703126,0|2,0:0|0:0,0:0:0:0:
152,112,162871,1,8,0:0:0:0:
288,80,163111,1,2,0:0:0:0:
324,216,163351,6,2,P|332:284|308:356,1,143.999995605469,4|0,0:0|2:0,0:0:0:0:
308,354,163831,2,2,L|404:346,1,95.9999970703126,8|2,0:0|0:0,0:0:0:0:
192,244,164311,2,0,L|96:248,1,95.9999970703126
252,80,164791,1,10,0:0:0:0:
252,80,165031,6,0,P|342:75|444:72,1,191.999994140625,2|2,0:0|0:0,0:0:0:0:
460,192,165751,2,0,P|464:236|444:288,1,95.9999970703126,10|0,0:0|0:0,0:0:0:0:
260,352,166231,2,0,P|248:304|244:256,1,95.9999970703126,2|4,0:0|2:0,0:0:0:0:
32,132,166711,2,0,P|28:200|60:272,1,143.999995605469,4|0,0:0|2:0,0:0:0:0:
56,296,167191,5,6,0:0:0:0:
228,300,167431,1,0,0:0:0:0:
243,308,167551,1,0,0:0:0:0:
260,315,167671,1,10,0:0:0:0:
232,104,167911,1,0,0:0:0:0:
214,108,168031,1,0,0:0:0:0:
197,113,168151,1,0,0:0:0:0:
412,176,168391,1,2,0:0:0:0:
420,192,168511,1,0,0:0:0:0:
428,208,168631,2,2,P|452:148|424:68,1,143.999995605469,10|0,0:0|0:0,0:0:0:0:
436,48,169111,5,2,0:0:0:0:
280,44,169351,1,2,0:0:0:0:
244,36,169471,1,0,0:0:0:0:
208,44,169591,1,8,0:0:0:0:
176,64,169711,1,0,2:0:0:0:
156,88,169831,1,2,0:0:0:0:
152,120,169951,1,0,0:0:0:0:
160,152,170071,2,0,P|144:196|160:248,1,95.9999970703126,0|2,0:0|0:0,0:0:0:0:
344,328,170551,2,0,P|360:284|344:232,1,95.9999970703126,10|0,0:0|0:0,0:0:0:0:
480,64,171031,6,2,B|432:40|432:40|316:68,1,143.999995605469,6|0,0:0|0:0,0:0:0:0:
356,84,171511,1,10,0:0:0:0:
224,232,171751,1,2,0:0:0:0:
240,36,171991,1,0,0:0:0:0:
344,204,172231,1,2,0:0:0:0:
160,132,172471,1,8,0:0:0:0:
460,180,172711,2,2,P|460:240|388:308,1,143.999995605469,2|0,0:0|2:0,0:0:0:0:
416,324,173191,5,0,0:0:0:0:
232,304,173431,2,0,P|172:316|136:344,1,95.9999970703126,10|0,0:0|0:0,0:0:0:0:
216,152,173911,2,0,P|232:100|220:60,1,95.9999970703126,2|0,0:0|0:0,0:0:0:0:
368,216,174391,2,0,P|416:224|456:264,1,95.9999970703126,10|0,0:0|0:0,0:0:0:0:
448,272,174751,1,0,0:0:0:0:
444,288,174871,6,2,P|476:236|452:144,1,143.999995605469,6|0,0:0|0:0,0:0:0:0:
472,112,175351,1,10,0:0:0:0:
368,96,175591,1,2,0:0:0:0:
188,168,175831,1,0,0:0:0:0:
292,184,176071,1,2,0:0:0:0:
168,60,176311,1,8,0:0:0:0:
64,44,176551,1,0,0:0:0:0:
52,240,176791,6,0,P|56:288|68:344,2,95.9999970703126,6|2|8,0:0|0:0|0:0,0:0:0:0:
204,208,177511,2,2,P|256:184|296:100,1,143.999995605469,2|0,0:0|2:0,0:0:0:0:
276,84,177991,1,2,0:0:0:0:
384,28,178231,1,10,0:0:0:0:
388,148,178471,1,0,0:0:0:0:
276,84,178711,5,6,0:0:0:0:
492,80,178951,1,2,0:0:0:0:
376,256,179191,1,8,0:0:0:0:
96,316,179431,2,2,B|68:268|68:268|88:168,1,143.999995605469,2|0,0:0|2:0,0:0:0:0:
80,156,179911,1,2,0:0:0:0:
248,36,180151,2,0,L|228:136,1,95.9999970703126,8|2,0:0|0:0,0:0:0:0:
244,240,180631,1,4,0:0:0:0:
248,248,181111,1,4,0:0:0:0:
252,256,181591,1,4,0:0:0:0:
256,264,182071,1,0,0:0:0:0:
260,272,182551,5,4,0:0:0:0:
