osu file format v14

[General]
AudioFilename: Madeon - Pop Culture (live mashup) [pleer.com].mp3
AudioLeadIn: 0
PreviewTime: -1
Countdown: 1
SampleSet: Soft
StackLeniency: 0.7
Mode: 0
LetterboxInBreaks: 1
WidescreenStoryboard: 1

[Editor]
Bookmarks: 13596,28956,44316,59676,67356,82716,105756,113436,121116,136476,144156,151836,167196,182556
DistanceSpacing: 1.4
BeatDivisor: 4
GridSize: 4
TimelineZoom: 1.3

[Metadata]
Title:Pop Culture
TitleUnicode:Pop Culture
Artist:Madeon
ArtistUnicode:Madeon
Creator:Reiji-RJ
Version:Hard
Source:
Tags:EvilElvis IceBeam TicClick tomhet65 Kyubey YellowManul Alphabeat Boyfriend Fascination Bag Raiders Shooting Stars Black Eyed Peas Gotta Feeling Britney Spears Baby One More Time Capsule Can I Have A Word Chromeo Momma's Boy Coldplay Viva La Vida Daft Punk Aerodynamic Around World Deadmau5 Raise Your Weapon Right This Second Ellie Goulding Starry Eyed ELO Mr. Blue Sky Girls Aloud Biology Gorillaz Dare Gossip Heavy Cross Fred Falke Remix Gwen Stefani What You Waitin For Jacques Lu Cont Mix Housse de Racket Oh Yeah Justice DVNO Phantom Part II Katy Perry One Of Ke$ha Take It Off Kylie Minogue Wow Lady Gaga Alejandro Linkin Park Crawling Madonna Hung Up Martin Solveig ft. Dragonette Boys Michael Jackson Billie Jean Nero Me and You One Republic All Right Moves Danger One-T Magic Key Ratatat Shempi Solange I Decided Freemasons Stardust Music Sounds Better With You Buggles Video Killed The Radio Star Killers Losing Touch Who Baba O'Riley SebastiAn Yelle Que Veux Tu
BeatmapID:727070
BeatmapSetID:326066

[Difficulty]
HPDrainRate:6
CircleSize:4
OverallDifficulty:6
ApproachRate:8
SliderMultiplier:1.6
SliderTickRate:1

[Events]
//Background and Video events
0,0,"bg.jpg",0,0
//Break Periods
2,105951,112201
//Storyboard Layer 0 (Background)
//Storyboard Layer 1 (Fail)
//Storyboard Layer 2 (Pass)
//Storyboard Layer 3 (Foreground)
//Storyboard Sound Samples

[TimingPoints]
2071,480,4,2,1,5,1,0
5911,-133.333333333333,4,2,2,40,0,0
11671,-133.333333333333,4,2,1,20,0,0
12631,-133.333333333333,4,2,1,50,0,0
13111,-133.333333333333,4,2,1,55,0,0
13591,-76.9230769230769,4,2,1,60,0,1
13711,-76.9230769230769,4,2,1,60,0,0
14311,-133.333333333333,4,2,1,60,0,0
15031,-100,4,2,1,60,0,0
20551,-200,4,2,1,50,0,0
20791,-200,4,2,1,60,0,0
21271,-76.9230769230769,4,2,1,60,0,0
21991,-133.333333333333,4,2,1,60,0,0
22711,-100,4,2,1,60,0,0
28951,-76.9230769230769,4,2,1,70,0,0
29911,-200,4,2,1,70,0,0
30871,-76.9230769230769,4,2,1,70,0,0
31591,-100,4,2,1,70,0,0
32071,-100,4,2,1,50,0,0
32191,-100,4,2,1,70,0,0
32791,-76.9230769230769,4,2,1,70,0,0
33751,-200,4,2,1,70,0,0
34831,-200,4,2,1,20,0,0
35071,-200,4,2,1,80,0,0
35311,-200,4,2,1,20,0,0
35551,-200,4,2,1,40,0,0
35791,-200,4,2,1,70,0,0
36151,-200,4,2,1,100,0,0
36631,-76.9230769230769,4,2,1,70,0,0
37591,-200,4,2,1,70,0,0
38551,-76.9230769230769,4,2,1,70,0,0
39271,-100,4,2,1,70,0,0
40471,-200,4,2,1,100,0,1
42271,-200,4,2,1,10,0,0
42391,-166.666666666667,4,2,1,50,0,0
42871,-142.857142857143,4,2,1,60,0,0
43351,-125,4,2,1,70,0,0
43831,-111.111111111111,4,2,1,80,0,0
44311,-100,4,1,1,60,0,1
44431,-100,4,1,1,60,0,0
50071,-80,4,1,1,60,0,0
51991,-100,4,1,1,50,0,0
59431,-100,4,2,1,20,0,0
60151,-100,4,2,1,30,0,0
67351,-100,4,2,0,35,0,0
75031,-83.3333333333333,4,2,0,50,0,0
79111,-83.3333333333333,4,2,0,45,0,0
79351,-83.3333333333333,4,2,0,60,0,0
79591,-83.3333333333333,4,2,0,45,0,0
79831,-83.3333333333333,4,2,0,80,0,0
79951,-83.3333333333333,4,2,0,60,0,0
80191,-83.3333333333333,4,2,0,80,0,0
80311,-83.3333333333333,4,2,0,60,0,0
80551,-83.3333333333333,4,2,0,30,0,0
80671,-83.3333333333333,4,2,0,50,0,0
82711,-100,4,2,1,60,0,1
82831,-100,4,2,1,60,0,0
83311,-142.857142857143,4,2,1,70,0,0
84031,-100,4,2,1,60,0,0
85951,-80,4,2,1,70,0,0
86491,-100,4,2,1,60,0,0
90991,-142.857142857143,4,2,1,70,0,0
91711,-100,4,2,1,60,0,0
93631,-83.3333333333333,4,2,1,70,0,0
94171,-100,4,2,1,60,0,0
96391,-100,4,2,1,30,0,0
98071,-100,4,2,1,60,0,1
98191,-100,4,2,1,60,0,0
98671,-142.857142857143,4,2,1,70,0,0
99391,-100,4,2,1,60,0,0
113311,-79.9999999999999,4,2,1,70,0,0
113551,-79.9999999999999,4,2,1,50,0,0
113791,-125,4,2,1,40,0,0
116431,-125,4,2,1,40,0,0
116531,-125,4,2,1,20,0,0
116671,-125,4,2,1,40,0,0
117151,-125,4,2,1,30,0,0
120031,-125,4,2,1,20,0,0
120271,-125,4,2,1,30,0,0
136351,-100,4,2,3,50,0,0
136591,-100,4,2,2,40,0,0
138271,-100,4,2,3,40,0,0
138511,-100,4,2,2,40,0,0
140191,-100,4,2,3,30,0,0
140431,-100,4,2,2,40,0,0
142111,-100,4,2,3,40,0,0
142351,-100,4,2,2,40,0,0
143071,-100,4,2,3,20,0,0
143311,-125,4,2,2,40,0,0
143851,-125,4,2,1,40,0,0
144151,-133.333333333333,4,2,1,40,0,0
147991,-133.333333333333,4,1,1,30,0,0
148951,-133.333333333333,4,1,1,35,0,0
149911,-133.333333333333,4,1,1,50,0,0
150871,-133.333333333333,4,2,1,55,0,0
151831,-83.3333333333333,4,1,2,70,0,1
155311,-83.3333333333333,4,1,2,40,0,1
155551,-83.3333333333333,4,1,2,70,0,1
159151,-83.3333333333333,4,1,2,50,0,1
159391,-83.3333333333333,4,1,2,70,0,1
182551,-100,4,2,1,50,0,0

[Colours]
Combo1 : 17,254,176
Combo2 : 173,255,95
Combo3 : 255,88,100
Combo4 : 255,94,55

[HitObjects]
256,192,2071,12,0,3991,0:0:0:0:
256,192,4111,12,0,4951,0:0:0:0:
256,192,5071,12,0,5911,0:0:0:0:
116,168,6391,6,0,L|200:160,1,60.0000022888184
416,244,7351,2,0,L|332:252,1,60.0000022888184
344,168,7831,2,0,P|352:112|320:52,1,120.000004577637
244,36,8551,1,0,0:0:0:0:
100,244,9271,2,0,L|88:308,1,60.0000022888184
168,328,9751,6,0,P|232:332|296:296,1,120.000004577637
364,316,10471,2,0,P|352:256|376:196,1,120.000004577637
432,144,11191,2,0,P|396:124|372:120,1,60.0000022888184
296,140,11671,6,0,P|268:112|256:64,1,90.0000034332277
232,100,12151,2,0,L|228:224,1,120.000004577637
168,276,12871,2,0,L|100:268,1,60.0000022888184
56,204,13351,1,0,0:0:0:0:
200,184,13591,6,0,L|304:196,1,103.999995239258
440,252,14071,2,0,P|416:292|344:316,1,103.999995239258
296,272,14551,1,0,0:0:0:0:
180,80,15031,2,0,L|260:72,1,80
232,180,15511,6,0,P|168:196|108:160,1,120
72,196,15991,2,0,L|80:256,2,40
128,292,16471,2,0,L|216:296,1,80
308,248,16951,2,0,P|332:200|320:136,1,120
320,136,17431,6,0,P|372:136|412:116,1,80
312,52,17911,2,0,P|264:68|248:96,1,80
184,184,18391,2,0,P|164:120|180:56,1,120
173,69,18871,2,0,L|80:80,1,80
68,188,19351,6,0,P|64:248|95:308,1,120
89,300,19831,2,0,L|180:292,1,80
272,248,20311,1,0,0:0:0:0:
364,184,20551,2,0,L|384:144,1,40
324,52,21031,1,0,0:0:0:0:
452,124,21271,6,0,P|480:192|456:276,1,155.999992858887
460,269,21751,2,0,P|412:288|360:276,1,103.999995239258
196,300,22231,2,0,L|256:312,1,60.0000022888184
220,204,22711,2,0,P|212:160|228:112,1,80
116,168,23191,6,0,P|120:216|104:264,2,80
124,56,23911,1,0,0:0:0:0:
220,204,24151,2,0,L|340:196,1,120
339,196,24631,2,0,P|359:235|351:275,1,80
456,220,25111,6,0,P|444:164|480:84,1,120
462,105,25591,2,0,L|372:88,1,80
344,196,26071,2,0,P|287:203|224:184,1,120
228,186,26551,2,0,P|224:232|200:268,1,80
148,164,27031,6,0,P|132:120|132:84,1,80
24,52,27511,1,0,0:0:0:0:
32,164,27751,2,0,P|56:224|44:288,1,120
48,277,28231,2,0,P|96:280|128:296,1,80
208,244,28711,1,0,0:0:0:0:
284,120,28951,6,0,P|340:128|388:104,1,103.999995239258
440,248,29431,2,0,P|428:196|456:148,1,103.999995239258
368,296,29911,2,0,P|336:308|284:300,1,80
200,160,30631,1,0,0:0:0:0:
76,232,30871,6,0,P|128:236|176:264,1,103.999995239258
200,160,31351,2,0,P|148:156|100:128,1,103.999995239258
184,52,31831,1,0,0:0:0:0:
288,96,32071,1,0,0:0:0:0:
292,208,32311,2,0,P|332:196|372:200,1,80
200,160,32791,6,0,L|192:276,2,103.999995239258
272,288,33511,2,0,P|332:284|352:152,1,207.999990478516
200,160,34231,2,0,L|204:132|208:104,1,40
304,116,34711,6,0,L|396:112,1,80
440,224,35431,1,0,0:0:0:0:
440,224,35671,2,0,P|396:224|352:208,1,80
76,164,36631,6,0,L|60:272,1,103.999995239258
176,176,37111,2,0,P|164:120|124:80,1,103.999995239258
172,272,37591,2,0,P|216:276|256:264,1,80
296,160,38311,1,0,0:0:0:0:
452,296,38551,6,0,P|432:240|440:196,1,103.999995239258
268,80,39031,2,0,P|324:80|372:112,1,103.999995239258
264,236,39511,2,0,L|272:320,1,80
120,268,39991,2,0,P|132:232|112:172,1,80
48,164,40471,6,0,P|28:136|168:120,1,300
168,116,42391,6,0,L|232:124,1,47.9999985351563
288,208,42871,2,0,L|224:200,1,55.9999982910157
312,304,43351,2,0,L|404:316,1,64
416,176,43831,2,0,P|452:180|492:168,1,71.9999978027344
332,120,44311,6,0,P|272:108|216:144,1,120
222,135,44791,2,0,L|232:220,1,80
80,168,45271,2,0,P|88:124|68:84,1,80
148,236,45751,2,0,P|136:276|156:332,1,80
304,320,46231,6,0,L|424:308,1,120
423,308,46711,2,0,P|432:256|416:220,1,80
280,164,47191,2,0,P|320:172|368:160,1,80
472,52,47671,1,0,0:0:0:0:
400,196,47911,1,0,0:0:0:0:
288,80,48151,6,0,P|248:88|208:120,1,80
120,240,48631,2,0,L|228:260,1,80
352,304,49111,2,0,L|272:320,1,80
188,184,49591,2,0,P|180:140|192:104,1,80
360,212,50071,6,0,L|416:200,2,50
190,107,50551,1,0,0:0:0:0:
388,72,50791,1,0,0:0:0:0:
268,232,51031,2,0,P|264:288|232:324,1,100
40,276,51511,2,0,P|92:276|140:300,1,100
76,148,51991,6,4,L|88:100,2,40
228,156,52471,2,0,P|280:148|332:164,1,80
360,304,52951,2,0,P|320:312|280:304,1,80
424,228,53431,2,0,P|424:188|396:144,1,80
272,240,53911,6,0,P|232:256|184:248,1,80
60,336,54391,2,0,B|71:275|71:275|64:216,1,120
63,216,54871,2,0,P|103:213|148:196,1,80
284,128,55351,2,0,P|244:125|199:107,1,80
256,192,55831,12,0,59671,0:0:0:0:
360,248,60151,6,0,L|280:236,1,80
208,148,60631,2,0,L|300:136,2,80
112,224,61351,2,0,P|76:156|116:68,1,160
208,148,62071,2,0,P|232:188|236:224,1,80
340,264,62551,2,0,P|332:220|348:176,2,80
440,316,63271,2,0,P|464:240|424:156,1,160
364,80,63991,5,0,0:0:0:0:
260,124,64231,1,0,0:0:0:0:
156,80,64471,2,0,P|124:104|80:108,2,80
160,192,65191,2,0,P|148:264|188:348,1,160
264,264,65911,2,0,P|292:220|280:172,1,80
372,272,66391,2,0,L|460:284,2,80
464,204,67111,1,0,0:0:0:0:
412,104,67351,5,0,0:0:0:0:
364,116,67831,1,0,0:0:0:0:
316,128,68311,1,0,0:0:0:0:
268,140,68791,1,0,0:0:0:0:
96,284,69271,5,0,0:0:0:0:
144,296,69751,1,0,0:0:0:0:
188,312,70231,1,0,0:0:0:0:
232,328,70711,2,0,P|248:268|240:240,1,80
184,120,71191,5,0,0:0:0:0:
232,136,71671,1,0,0:0:0:0:
276,156,72151,1,0,0:0:0:0:
320,176,72631,1,0,0:0:0:0:
96,248,73111,5,0,0:0:0:0:
88,200,73591,1,0,0:0:0:0:
76,152,74071,1,0,0:0:0:0:
64,104,74551,2,0,P|104:108|152:84,1,80
268,152,75031,6,0,L|260:260,1,95.9999970703126
380,312,75511,2,0,P|384:264|412:216,1,95.9999970703126
388,88,75991,1,0,0:0:0:0:
260,52,76231,1,0,0:0:0:0:
172,156,76471,2,0,P|188:208|220:236,1,95.9999970703126
96,324,76951,2,0,L|196:316,1,95.9999970703126
300,336,77431,6,0,L|404:328,1,95.9999970703126
444,192,77911,1,0,0:0:0:0:
312,244,78151,1,0,0:0:0:0:
380,116,78391,1,0,0:0:0:0:
248,176,78631,1,0,0:0:0:0:
304,44,78871,6,0,L|208:56,1,95.9999970703126
144,184,79351,2,0,P|128:136|136:88,1,95.9999970703126
60,216,79831,2,0,L|44:264,3,47.9999985351563
104,300,80311,2,0,L|88:348,3,47.9999985351563
184,324,80791,1,0,0:0:0:0:
320,156,82711,6,0,L|224:148,1,80
80,132,83191,1,0,0:0:0:0:
104,240,83431,2,0,P|156:256|220:244,1,111.999996582031
368,284,84151,1,0,0:0:0:0:
220,344,84391,1,0,0:0:0:0:
368,284,84631,6,0,P|408:284|448:260,1,80
376,120,85111,1,0,0:0:0:0:
276,248,85351,1,0,0:0:0:0:
304,72,85591,2,0,L|212:80,1,80
276,248,86071,2,0,P|204:268|128:240,1,150
134,244,86551,6,0,L|124:152,1,80
12,52,87031,2,0,L|24:164,1,80
176,72,87511,2,0,P|224:120|224:180,1,120
227,169,87991,2,0,P|276:172|308:184,1,80
424,292,88471,2,0,P|375:289|343:277,1,80
444,152,88951,1,0,0:0:0:0:
424,292,89191,2,0,P|376:320|280:308,1,120
312,321,89671,2,0,L|292:232,1,80
152,320,90151,1,0,0:0:0:0:
236,184,90391,6,0,L|144:196,1,80
288,104,90871,2,0,P|324:136|328:176,1,80
152,320,91351,2,0,L|256:308,1,83.9999974365235
235,310,91831,2,0,P|248:260|232:228,1,80
148,104,92311,6,0,P|144:148|160:196,1,80
48,140,92791,2,0,P|52:96|36:48,1,80
80,216,93271,2,0,L|64:344,1,120
65,335,93751,2,0,P|116:344|160:332,1,95.9999970703126
308,280,94231,6,0,P|256:272|228:204,1,120
296,176,94711,2,0,P|340:172|368:132,1,80
216,88,95191,2,0,L|88:80,1,120
96,80,95671,2,0,P|112:132|100:168,1,80
208,280,96151,1,0,0:0:0:0:
48,256,96391,5,0,0:0:0:0:
48,256,96631,1,0,0:0:0:0:
48,256,96871,1,0,0:0:0:0:
48,256,97111,1,0,0:0:0:0:
48,256,97351,1,0,0:0:0:0:
48,256,97591,1,0,0:0:0:0:
48,256,97831,1,0,0:0:0:0:
48,256,98071,6,0,L|144:248,1,80
188,156,98551,1,0,0:0:0:0:
336,280,98791,2,0,L|220:264,1,111.999996582031
296,176,99511,2,0,L|360:168,2,40
360,84,99991,6,0,L|440:72,1,80
428,184,100471,1,0,0:0:0:0:
272,92,100711,2,0,L|188:104,1,80
100,168,101191,2,0,P|84:120|88:80,1,80
188,196,101671,1,0,0:0:0:0:
256,192,101911,12,0,105031,0:0:0:0:
140,196,105271,6,0,L|232:188,1,80
276,92,105751,1,0,0:0:0:0:
152,120,112951,6,0,P|160:160|148:200,1,80
256,288,113431,2,0,L|144:308,1,100
72,336,113911,1,0,0:0:0:0:
76,248,114151,1,0,0:0:0:0:
152,120,114391,2,0,P|216:128|284:104,1,128
356,148,115111,6,0,L|376:84,2,64
420,212,115831,2,0,L|396:296,1,64
312,280,116311,2,0,P|244:272|184:308,1,128
112,260,117031,1,0,0:0:0:0:
172,192,117271,5,0,0:0:0:0:
84,176,117511,1,0,0:0:0:0:
144,108,117751,1,0,0:0:0:0:
232,128,117991,1,0,0:0:0:0:
320,108,118231,2,0,P|376:92|436:104,1,96
412,95,118711,2,0,P|420:136|412:168,1,64
384,244,119191,6,0,L|312:248,1,64
288,332,119671,2,0,P|252:336|216:324,1,64
164,264,120151,2,0,P|180:236|180:192,1,64
144,124,120631,2,0,L|116:96,2,32
232,136,121111,6,0,L|320:124,1,64
340,204,121591,2,0,P|376:208|408:228,1,64
376,308,122071,2,0,P|328:316|280:296,1,96
284,299,122551,2,0,L|216:312,1,64
168,240,123031,6,0,L|176:176,2,64
96,188,123751,1,0,0:0:0:0:
112,100,123991,2,0,L|96:32,2,64
200,84,124711,1,0,0:0:0:0:
272,136,124951,6,0,L|352:132,1,64
424,128,125431,2,0,P|440:176|428:236,1,96
434,220,125911,2,0,L|362:224,1,64
300,280,126391,2,0,P|260:288|228:284,1,64
176,220,126871,6,0,P|216:200|248:200,1,64
172,136,127351,2,0,P|132:144|104:140,1,64
56,216,127831,2,0,L|64:292,2,64
132,332,128551,1,0,0:0:0:0:
132,332,128791,2,0,L|212:324,1,64
264,268,129271,2,0,P|228:248|216:224,1,64
240,144,129751,2,0,L|376:132,1,128
340,48,130471,1,0,0:0:0:0:
340,48,130711,6,0,L|260:56,1,64
188,76,131191,2,0,P|160:108|156:136,1,64
176,216,131671,2,0,L|108:220,1,64
104,308,132151,2,0,P|64:308|36:296,2,64
192,304,132871,1,0,0:0:0:0:
260,248,133111,1,0,0:0:0:0:
240,160,133351,1,0,0:0:0:0:
324,192,133591,6,0,L|400:200,1,64
452,264,134071,2,0,P|420:284|388:288,1,64
308,100,134551,2,0,L|376:92,2,64
220,76,135271,1,0,0:0:0:0:
156,136,135511,2,0,L|80:148,2,64
120,216,136231,1,0,0:0:0:0:
212,284,136471,6,0,P|240:240|236:168,1,120
238,173,136951,2,0,L|332:168,1,80
416,112,137431,2,0,P|372:112|336:92,1,80
400,188,137911,2,0,P|420:224|412:272,1,80
344,344,138391,6,0,L|220:332,1,120
208,280,138871,2,0,P|168:284|128:264,1,80
76,172,139351,2,0,P|116:168|156:188,1,80
264,188,139831,1,0,0:0:0:0:
208,92,140071,1,0,0:0:0:0:
264,188,140311,6,0,P|322:189|384:168,1,120
380,170,140791,2,0,L|376:256,1,80
464,180,141271,2,0,P|456:132|424:100,1,80
287,99,141751,2,0,L|203:91,1,80
116,152,142231,6,0,P|132:208|116:268,1,120
116,266,142711,2,0,P|68:280|20:276,1,80
128,348,143191,2,0,P|168:348|216:364,1,80
260,288,143671,2,0,L|268:216,1,64
340,172,144151,6,0,P|252:132|188:180,1,180.000006866455
108,200,145111,2,4,L|120:112,2,60.0000022888184
52,264,145831,1,0,0:0:0:0:
136,280,146071,6,0,L|264:272,1,120.000004577637
332,240,146791,2,0,P|312:180|336:116,1,120.000004577637
248,104,147511,2,0,L|176:108,1,60.0000022888184
88,184,147991,6,0,L|160:192,2,60.0000022888184
204,264,148711,1,0,0:0:0:0:
344,192,148951,2,0,L|276:200,2,60.0000022888184
400,284,149671,1,0,0:0:0:0:
400,128,149911,5,0,0:0:0:0:
400,128,150151,1,0,0:0:0:0:
256,84,150391,1,0,0:0:0:0:
256,84,150631,1,0,0:0:0:0:
200,176,150871,2,0,L|208:228,3,30.0000011444092
152,256,151351,2,0,L|160:304,3,30.0000011444092
224,324,151831,6,0,L|328:312,1,95.9999970703126
428,236,152311,2,0,P|396:196|344:184,1,95.9999970703126
232,124,152791,2,0,P|280:128|328:96,1,95.9999970703126
256,224,153271,2,0,L|152:232,1,95.9999970703126
60,320,153751,6,0,P|72:248|32:176,1,143.999995605469
42,185,154231,2,0,L|140:176,1,95.9999970703126
248,100,154711,2,0,P|200:108|152:92,1,95.9999970703126
288,88,155191,2,0,P|336:80|384:96,1,95.9999970703126
376,228,155671,6,0,P|328:236|280:220,1,95.9999970703126
152,192,156151,1,0,0:0:0:0:
244,292,156391,1,0,0:0:0:0:
112,312,156631,2,0,P|64:324|16:312,2,95.9999970703126
152,192,157351,1,0,0:0:0:0:
36,128,157591,6,0,L|44:228,2,95.9999970703126
152,192,158311,1,0,0:0:0:0:
152,192,158551,2,0,L|140:92,1,95.9999970703126
272,56,159031,1,0,0:0:0:0:
244,188,159271,1,0,0:0:0:0:
352,112,159511,6,0,L|452:104,1,95.9999970703126
472,236,159991,2,0,P|424:236|380:212,1,95.9999970703126
284,304,160471,2,0,P|332:304|376:328,2,95.9999970703126
152,292,161191,6,0,P|120:200|160:100,1,191.999994140625
272,60,161911,2,0,P|288:104|276:152,1,95.9999970703126
408,112,162391,2,0,P|399:158|365:193,1,95.9999970703126
492,228,162871,2,0,P|461:263|414:277,1,95.9999970703126
247,280,163351,6,0,P|197:296|143:292,2,95.9999970703126
204,152,164071,2,0,P|108:140|56:224,1,191.999994140625
192,228,164791,1,0,0:0:0:0:
272,120,165031,1,0,0:0:0:0:
312,248,165271,5,0,0:0:0:0:
392,140,165511,1,0,0:0:0:0:
400,276,165751,2,0,P|452:284|492:272,1,95.9999970703126
392,140,166231,2,0,P|346:127|299:135,1,95.9999970703126
184,208,166711,1,0,0:0:0:0:
260,320,166951,1,0,0:0:0:0:
128,288,167191,6,0,L|80:276,2,47.9999985351563
96,156,167671,1,0,0:0:0:0:
184,208,167911,2,0,L|236:220,2,47.9999985351563
268,104,168391,2,0,L|368:92,2,95.9999970703126
388,164,169111,6,0,P|412:228|384:308,1,143.999995605469
391,298,169591,2,0,L|296:288,1,95.9999970703126
184,208,170071,2,0,P|235:207|280:192,2,95.9999970703126
104,100,170791,6,0,P|144:68|268:108,1,191.999994140625
184,208,171511,2,0,P|200:256|188:308,1,95.9999970703126
308,232,171991,2,0,P|292:184|304:132,1,95.9999970703126
392,236,172471,1,0,0:0:0:0:
280,312,172711,1,0,0:0:0:0:
412,320,172951,6,0,L|516:332,2,95.9999970703126
472,200,173671,1,0,0:0:0:0:
388,96,173911,2,0,P|340:88|288:100,2,95.9999970703126
296,192,174631,1,0,0:0:0:0:
212,296,174871,6,0,P|216:232|164:168,1,143.999995605469
169,171,175351,2,0,L|72:180,1,95.9999970703126
84,44,175831,2,0,L|180:56,1,95.9999970703126
298,101,176311,2,0,P|310:153|294:193,1,95.9999970703126
312,324,176791,6,0,P|360:308|460:340,1,143.999995605469
448,330,177271,2,0,L|472:236,1,95.9999970703126
336,240,177751,1,0,0:0:0:0:
436,148,177991,1,0,0:0:0:0:
298,101,178231,2,0,L|200:108,1,95.9999970703126
76,56,178711,6,0,P|60:128|88:204,1,143.999995605469
80,193,179191,2,0,L|178:186,1,95.9999970703126
224,308,179671,2,0,P|176:320|124:304,1,95.9999970703126
244,232,180151,2,0,P|288:252|300:312,1,95.9999970703126
436,324,180631,6,0,P|416:252|456:176,1,143.999995605469
441,190,181111,2,0,L|348:168,1,95.9999970703126
280,52,181591,2,0,L|384:76,1,95.9999970703126
256,140,182071,2,0,L|144:112,1,95.9999970703126
100,208,182551,1,0,0:0:0:0:
