osu file format v12

[General]
AudioFilename: Pg1zLvB8XW42.128.mp3
AudioLeadIn: 0
PreviewTime: 22154
Countdown: 0
SampleSet: Normal
StackLeniency: 0.7
Mode: 0
LetterboxInBreaks: 1
WidescreenStoryboard: 0

[Editor]
DistanceSpacing: 1.6
BeatDivisor: 4
GridSize: 8

[Metadata]
Title:Finale
TitleUnicode:Finale
Artist:Madeon
ArtistUnicode:Madeon
Creator:Lgndzr
Version:Insane
Source:Madeon
Tags:madeon finale hues of megumi
BeatmapID:375804
BeatmapSetID:152769

[Difficulty]
HPDrainRate:7
CircleSize:4
OverallDifficulty:7
ApproachRate:8
SliderMultiplier:2.3
SliderTickRate:1

[Events]
//Background and Video events
0,0,"maxresdefault.jpg",0,0
//Break Periods
//Storyboard Layer 0 (Background)
//Storyboard Layer 1 (Fail)
//Storyboard Layer 2 (Pass)
//Storyboard Layer 3 (Foreground)
//Storyboard Sound Samples
//Background Colour Transformations
3,100,163,162,255

[TimingPoints]
22155,652.244809218393,4,1,0,100,1,0
40416,-83.3333333333333,4,1,0,100,0,0
41069,-100,4,1,0,100,0,0
43026,-111.111111111111,4,1,0,100,0,0
53462,-100,4,1,0,100,0,0
59332,-90.9090909090909,4,1,0,100,0,0
59985,-83.3333333333333,4,1,0,100,0,0
60637,-76.9230769230769,4,1,0,100,0,0
61289,-71.4285714285714,4,1,0,100,0,0
66507,-166.666666666667,4,1,0,100,0,0
76943,-142.857142857143,4,1,0,100,0,0
108251,-125,4,1,0,100,0,0
118687,-66.6666666666667,4,1,0,100,0,1
129121,-66.6666666666667,4,1,0,100,0,0
129122,-66.6666666666667,4,1,0,100,0,1
135645,-62.5,4,1,0,100,0,0
136297,-58.8235294117647,4,1,0,100,0,0
136949,-55.5555555555556,4,1,0,100,0,0
137602,-52.6315789473684,4,1,0,100,0,0
139558,-100,4,1,0,100,0,0
140211,-76.9230769230769,4,1,0,100,0,0
140863,-66.6666666666667,4,1,0,100,0,0
141515,-76.9230769230769,4,1,0,100,0,0
142167,-90.9090909090909,4,1,0,100,0,0
142820,-111.111111111111,4,1,0,100,0,0
143472,-142.857142857143,4,1,0,100,0,0
144124,-166.666666666667,4,1,0,100,0,0
147385,-125,4,1,0,100,0,0
151951,-142.857142857143,4,1,0,100,0,0
152603,-166.666666666667,4,1,0,100,0,0
153256,-200,4,1,0,100,0,0
155212,-125,4,1,0,100,0,0
183911,-200,4,1,0,100,0,0

[Colours]
Combo1 : 187,180,30
Combo2 : 0,149,149
Combo3 : 168,0,168

[HitObjects]
256,192,16936,12,2,21991,0:0:0:0:
80,184,22154,6,2,P|104:120|224:88,1,172.5,8|0,0:0|0:0,0:0:0:0:
288,128,22807,1,2,0:0:0:0:
288,320,23133,1,2,0:0:0:0:
160,288,23459,6,2,P|112:240|144:144,1,172.5,0|0,0:0|0:0,0:0:0:0:
232,208,24111,2,2,B|360:208|360:208|416:168|400:128,1,172.5
392,72,24763,1,2,0:0:0:0:
384,80,25089,5,2,0:0:0:0:
376,88,25416,6,2,P|288:160|216:144,1,172.5,0|0,0:0|0:0,0:0:0:0:
160,96,26068,1,2,0:0:0:0:
104,176,26231,1,2,0:0:0:0:
160,256,26394,1,2,0:0:0:0:
360,256,26720,6,2,P|408:224|376:112,1,172.5,8|0,0:0|0:0,0:0:0:0:
256,64,27372,1,2,0:0:0:0:
256,224,27698,1,2,0:0:0:0:
160,256,28025,6,2,P|112:224|144:112,1,172.5
224,120,28677,1,2,0:0:0:0:
320,120,28840,2,2,B|392:120|392:120|432:184|400:232,1,172.5
272,312,29655,1,2,0:0:0:0:
272,312,29818,1,2,0:0:0:0:
272,312,29981,6,2,P|176:280|144:208,1,172.5
272,312,30634,6,2,P|368:280|400:208,1,172.5
272,80,31286,1,2,0:0:0:0:
272,80,31938,1,2,0:0:0:0:
272,80,32264,5,2,0:0:0:0:
272,80,32427,1,2,0:0:0:0:
272,80,32590,2,2,P|272:208|224:224,1,172.5
136,216,33242,1,2,0:0:0:0:
312,304,33569,5,2,0:0:0:0:
384,240,33732,1,2,0:0:0:0:
384,144,33895,2,2,P|304:80|224:80,1,172.5
120,96,34547,5,2,0:0:0:0:
128,104,34873,5,2,0:0:0:0:
136,112,35199,6,2,P|112:224|152:272,1,172.5
240,320,35851,1,2,0:0:0:0:
408,216,36178,1,2,0:0:0:0:
296,80,36504,5,2,0:0:0:0:
200,112,36667,1,2,0:0:0:0:
128,176,36830,1,2,0:0:0:0:
200,248,36993,1,2,0:0:0:0:
272,176,37156,6,2,P|336:232|328:296,1,115
272,176,37808,2,2,P|208:120|216:56,1,115,0|0,0:0|0:0,0:0:0:0:
272,64,38460,5,2,0:0:0:0:
272,288,38787,1,2,0:0:0:0:
272,288,38950,1,2,0:0:0:0:
272,288,39113,6,2,B|176:288|176:288|112:264|128:200,1,172.5
128,128,39765,6,2,B|114:99|178:75|178:75|274:75,1,172.5
368,96,40417,2,2,P|416:184|376:280,1,206.999993682861
328,192,41069,2,2,L|152:192,1,172.5
112,288,41722,5,2,0:0:0:0:
88,264,41885,1,2,0:0:0:0:
64,224,42048,1,2,0:0:0:0:
56,176,42211,1,2,0:0:0:0:
72,120,42374,1,2,0:0:0:0:
120,72,42537,1,2,0:0:0:0:
200,56,42700,1,2,0:0:0:0:
288,72,42863,1,2,0:0:0:0:
368,136,43026,6,2,P|400:208|352:288,1,155.249995262146
248,288,43678,2,2,P|176:320|96:272,1,155.249995262146,0|0,0:0|0:0,0:0:0:0:
176,216,44331,6,2,L|176:128,1,51.7499984207154
176,64,44657,1,2,0:0:0:0:
328,216,44983,1,2,0:0:0:0:
328,64,45309,1,2,0:0:0:0:
176,216,45635,6,2,P|128:320|96:312,1,155.249995262146
72,216,46287,2,2,P|72:152|152:104,1,155.249995262146
232,136,46940,2,2,P|304:96|376:112,1,155.249995262146
448,176,47592,6,2,L|448:256,1,51.7499984207154
344,200,47918,2,0,P|280:216|224:280,1,103.499996841431
80,200,48570,5,0,0:0:0:0:
216,64,48896,1,0,0:0:0:0:
80,64,49222,1,0,0:0:0:0:
216,200,49549,2,0,L|328:200,1,103.499996841431
448,200,50201,5,0,0:0:0:0:
272,200,50527,1,0,0:0:0:0:
344,88,50853,2,0,P|272:64|184:96,1,155.249995262146
120,160,51505,5,0,0:0:0:0:
128,168,52158,5,0,0:0:0:0:
136,176,52810,5,0,0:0:0:0:
256,288,53462,6,0,B|384:288|384:288|416:264|416:208,1,172.5
416,152,54114,1,0,0:0:0:0:
256,152,54440,1,0,0:0:0:0:
96,152,54767,6,0,L|96:216,1,57.5
128,288,55093,1,0,0:0:0:0:
216,288,55256,1,0,0:0:0:0:
304,288,55419,2,0,B|376:288|376:288|432:240|392:160,1,172.5
376,104,56071,5,0,0:0:0:0:
144,104,56397,1,0,0:0:0:0:
296,104,56723,2,0,L|296:224,1,115
296,224,57376,5,0,0:0:0:0:
297,232,58028,5,0,0:0:0:0:
296,240,58354,1,0,0:0:0:0:
296,248,58680,2,0,P|200:312|160:296,1,115
112,256,59332,2,0,L|112:112,1,126.500003860474
200,64,59985,2,0,P|320:88|352:136,1,137.999995788574
392,184,60637,2,0,L|392:336,1,149.499993156433
256,184,61289,2,0,P|176:192|120:272,1,160.99999508667
256,288,61941,1,0,0:0:0:0:
256,184,62267,1,0,0:0:0:0:
256,80,62594,5,0,0:0:0:0:
288,88,62757,1,0,0:0:0:0:
328,112,62920,1,0,0:0:0:0:
368,152,63083,1,0,0:0:0:0:
392,216,63246,1,0,0:0:0:0:
352,288,63409,1,0,0:0:0:0:
272,320,63572,1,0,0:0:0:0:
184,280,63735,1,0,0:0:0:0:
136,192,63898,1,0,0:0:0:0:
208,72,64550,5,0,0:0:0:0:
304,280,65202,1,0,0:0:0:0:
392,72,65855,1,0,0:0:0:0:
112,280,66507,6,0,P|88:224|128:144,1,137.999995788574
256,152,67485,1,0,0:0:0:0:
256,152,67811,2,0,L|256:232,1,68.9999978942872
397,155,68464,6,0,P|424:217|400:280,1,137.999995788574
256,304,69768,1,0,0:0:0:0:
104,192,70420,6,0,P|128:144|208:112,1,137.999995788574
344,128,71725,1,0,0:0:0:0:
344,256,72377,1,0,0:0:0:0:
176,256,73029,2,0,P|104:232|80:160,1,137.999995788574
256,72,74334,5,0,0:0:0:0:
368,72,74660,1,0,0:0:0:0:
256,176,74986,1,0,0:0:0:0:
368,176,75312,1,0,0:0:0:0:
256,176,75638,2,0,L|104:176,1,137.999995788574
120,176,76617,5,0,0:0:0:0:
64,264,76943,2,0,P|112:288|208:256,1,160.99999508667
264,152,77921,1,0,0:0:0:0:
264,48,78247,1,0,0:0:0:0:
336,200,78900,5,0,0:0:0:0:
448,200,79226,1,0,0:0:0:0:
192,200,79552,5,0,0:0:0:0:
184,200,80204,5,0,0:0:0:0:
176,200,80856,5,0,0:0:0:0:
88,112,81509,1,0,0:0:0:0:
176,48,81835,1,0,0:0:0:0:
256,120,82161,1,0,0:0:0:0:
256,264,82813,5,0,0:0:0:0:
256,192,83465,5,0,0:0:0:0:
120,280,84118,5,0,0:0:0:0:
64,192,84444,1,0,0:0:0:0:
120,104,84770,1,0,0:0:0:0:
384,104,85422,5,0,0:0:0:0:
344,280,86074,5,0,0:0:0:0:
344,280,86400,1,0,0:0:0:0:
344,280,86727,2,0,P|256:304|184:272,1,160.99999508667
128,168,88031,5,0,0:0:0:0:
376,168,88683,2,0,L|376:256,1,80.499997543335
296,320,89336,2,0,P|248:288|240:184,1,160.99999508667
296,80,90640,5,0,0:0:0:0:
288,80,91292,5,0,0:0:0:0:
280,80,91945,6,0,P|200:96|152:176,1,160.99999508667
168,280,93249,1,0,0:0:0:0:
352,104,93901,1,0,0:0:0:0:
168,104,94553,1,0,0:0:0:0:
168,104,94880,1,0,0:0:0:0:
168,104,95206,5,0,0:0:0:0:
256,288,95858,1,0,0:0:0:0:
384,192,96510,2,0,P|368:128|328:104,1,80.499997543335
256,64,97162,1,0,0:0:0:0:
256,64,97326,1,0,0:0:0:0:
80,152,97815,5,0,0:0:0:0:
144,296,98467,1,0,0:0:0:0:
208,152,99119,2,0,P|240:104|328:96,1,120.749996315003
384,120,99771,5,0,0:0:0:0:
352,224,100098,1,0,0:0:0:0:
320,328,100424,1,0,0:0:0:0:
256,144,101076,5,0,0:0:0:0:
192,328,101728,5,0,0:0:0:0:
152,224,102054,1,0,0:0:0:0:
112,120,102380,1,0,0:0:0:0:
256,48,103033,5,0,0:0:0:0:
392,192,103685,1,0,0:0:0:0:
256,328,104337,1,0,0:0:0:0:
104,192,104989,6,0,L|104:144,1,40.2499987716675
184,160,105316,2,0,L|184:112,1,40.2499987716675
264,128,105642,1,0,0:0:0:0:
408,192,106294,5,0,0:0:0:0:
400,200,106946,5,0,0:0:0:0:
392,208,107598,5,0,0:0:0:0:
320,280,107925,1,0,0:0:0:0:
256,208,108251,1,0,0:0:0:0:
320,120,108577,5,0,0:0:0:0:
216,40,108903,2,0,L|144:112,1,92
112,256,109555,5,0,0:0:0:0:
224,320,109881,1,0,0:0:0:0:
296,208,110207,2,0,L|344:128,1,92
344,128,110860,5,0,0:0:0:0:
112,248,112164,5,0,0:0:0:0:
184,120,112816,5,0,0:0:0:0:
256,232,113142,5,0,0:0:0:0:
288,144,113469,5,0,0:0:0:0:
288,312,113795,1,0,0:0:0:0:
120,312,114121,1,0,0:0:0:0:
120,144,114447,1,0,0:0:0:0:
336,144,114773,5,0,0:0:0:0:
336,312,115099,1,0,0:0:0:0:
120,312,115425,1,0,0:0:0:0:
120,144,115751,1,0,0:0:0:0:
200,64,116078,5,0,0:0:0:0:
241,66,116241,1,0,0:0:0:0:
288,83,116404,1,0,0:0:0:0:
335,119,116567,1,0,0:0:0:0:
368,200,116730,1,0,0:0:0:0:
328,288,116893,1,0,0:0:0:0:
216,320,117056,1,0,0:0:0:0:
120,240,117219,1,0,0:0:0:0:
256,192,117382,12,0,118523,0:0:0:0:
120,152,118687,6,0,P|208:88|384:160,1,258.75000987053
432,200,119339,2,0,P|392:304|216:304,1,258.75000987053
280,232,119991,6,0,P|184:224|136:264,1,86.2500032901765
112,280,120317,1,0,0:0:0:0:
96,176,120480,1,0,0:0:0:0:
80,72,120643,2,0,B|192:56|192:200|344:120,1,258.75000987053
408,72,121296,5,0,0:0:0:0:
416,264,121622,1,0,0:0:0:0:
416,264,121785,1,0,0:0:0:0:
416,264,121948,1,0,0:0:0:0:
248,304,122274,5,0,0:0:0:0:
248,304,122437,1,0,0:0:0:0:
248,304,122600,2,0,L|152:272,1,86.2500032901765
96,168,122926,2,0,B|200:208|200:208|280:200|272:136,1,172.500006580353
384,64,123578,5,0,0:0:0:0:
416,160,123905,2,0,P|456:240|312:288,1,258.75000987053
320,200,124557,2,0,P|232:232|216:320,1,172.500006580353
120,328,125046,1,0,0:0:0:0:
96,208,125209,6,0,L|72:112,1,86.2500032901765
200,48,125535,2,0,L|192:152,1,86.2500032901765
184,248,125861,1,0,0:0:0:0:
280,320,126024,1,0,0:0:0:0:
352,224,126187,2,0,L|408:144,1,86.2500032901765
360,56,126513,6,0,L|256:56,1,86.2500032901765
120,56,126840,1,0,0:0:0:0:
368,192,127166,1,0,0:0:0:0:
120,192,127492,1,0,0:0:0:0:
56,272,127818,5,0,0:0:0:0:
96,296,127981,1,0,0:0:0:0:
152,320,128144,1,0,0:0:0:0:
232,320,128307,1,0,0:0:0:0:
312,272,128470,1,0,0:0:0:0:
352,168,128633,1,0,0:0:0:0:
272,64,128796,1,0,0:0:0:0:
128,88,128959,1,0,0:0:0:0:
216,208,129122,1,0,0:0:0:0:
224,208,129775,5,0,0:0:0:0:
232,208,130101,5,0,0:0:0:0:
240,208,130427,6,0,P|328:160|344:120,1,86.2500032901765
376,96,130753,1,0,0:0:0:0:
280,40,130916,1,0,0:0:0:0:
232,120,131079,2,0,P|144:136|64:88,1,172.500006580353
73,285,131731,6,0,P|148:247|232:264,1,172.500006580353
312,312,132221,1,0,0:0:0:0:
392,256,132384,2,0,L|432:152,1,86.2500032901765
392,88,132710,1,0,0:0:0:0:
392,88,132873,1,0,0:0:0:0:
392,88,133036,6,0,P|312:144|312:160,1,86.2500032901765
248,224,133362,1,0,0:0:0:0:
168,152,133525,1,0,0:0:0:0:
240,72,133688,2,0,P|152:48|64:184,1,258.75000987053
64,272,134340,5,0,0:0:0:0:
320,320,134993,5,0,0:0:0:0:
400,192,135319,5,0,0:0:0:0:
400,192,135482,1,0,0:0:0:0:
400,192,135645,6,0,P|232:80|160:88,1,276
72,64,136297,6,0,P|72:176|200:320,1,293.2500055933
288,336,136949,6,0,P|368:256|320:56,1,310.499990524292
248,48,137602,6,0,P|136:136|232:264,1,327.749991248131
312,240,138254,5,0,0:0:0:0:
328,224,138417,1,0,0:0:0:0:
352,184,138580,1,0,0:0:0:0:
328,120,138743,1,0,0:0:0:0:
256,72,138906,1,0,0:0:0:0:
152,104,139069,1,0,0:0:0:0:
128,232,139232,1,0,0:0:0:0:
240,336,139395,1,0,0:0:0:0:
416,264,139558,2,0,L|440:80,1,172.5
352,48,140211,6,0,L|312:288,1,224.24998973465
240,336,140863,6,0,P|136:304|96:160,1,258.75000987053
128,72,141515,6,0,B|232:80|176:280|304:248,1,224.24998973465
344,288,142167,6,0,P|400:224|376:112,1,189.750005790711
288,160,142820,6,0,L|96:160,1,155.249995262146
56,200,143472,6,0,P|80:264|144:296,1,120.749996315003
192,240,144124,6,0,L|312:240,1,103.499996841431
392,240,144776,5,0,0:0:0:0:
328,64,145429,1,0,0:0:0:0:
104,144,146081,1,0,0:0:0:0:
88,256,146733,1,0,0:0:0:0:
344,304,147385,2,0,P|400:240|392:184,1,138
352,104,148038,5,0,0:0:0:0:
168,96,148690,1,0,0:0:0:0:
160,280,149342,1,0,0:0:0:0:
168,280,149668,5,0,0:0:0:0:
176,280,149994,6,0,P|256:256|288:200,1,138
208,168,150647,6,0,P|256:104|336:96,1,138
376,144,151299,6,0,L|400:280,1,138
312,336,151951,6,0,L|288:200,1,120.749996315003
232,136,152603,6,0,P|192:184|200:248,1,103.499996841431
128,304,153256,6,0,L|96:208,1,86.25
72,128,153908,5,0,0:0:0:0:
264,56,154560,1,0,0:0:0:0:
376,136,154886,1,0,0:0:0:0:
320,264,155212,2,0,P|256:304|168:288,1,138
104,232,155865,6,0,L|80:80,1,138
168,64,156517,6,0,P|208:128|296:120,1,138
360,104,157169,5,0,0:0:0:0:
376,104,157495,5,0,0:0:0:0:
384,104,157658,1,0,0:0:0:0:
392,104,157821,1,0,0:0:0:0:
288,296,158310,5,0,0:0:0:0:
144,136,158800,5,0,0:0:0:0:
152,136,159126,1,0,0:0:0:0:
368,224,159778,5,0,0:0:0:0:
48,192,160430,5,0,0:0:0:0:
288,296,162387,5,0,0:0:0:0:
224,224,163039,1,0,0:0:0:0:
320,96,165648,5,0,0:0:0:0:
112,208,168257,5,0,0:0:0:0:
376,184,170866,5,0,0:0:0:0:
128,96,173475,5,0,0:0:0:0:
168,256,175432,5,0,0:0:0:0:
304,304,176084,1,0,0:0:0:0:
368,128,178693,5,0,0:0:0:0:
200,136,181302,5,0,0:0:0:0:
384,272,183259,5,0,0:0:0:0:
376,264,183585,5,0,0:0:0:0:
368,256,183911,6,0,L|272:160,1,115
144,96,185216,5,0,0:0:0:0:
80,168,185542,1,0,0:0:0:0:
160,232,185868,2,0,P|200:272|280:272,1,115
352,120,188477,5,0,0:0:0:0:
344,128,188803,5,0,0:0:0:0:
336,136,189129,5,0,0:0:0:0:
256,192,191738,12,0,194347,0:0:0:0:
