osu file format v12

[General]
AudioFilename: Madeon - Finale.mp3
AudioLeadIn: 0
PreviewTime: 22252
Countdown: 1
SampleSet: Soft
StackLeniency: 0.7
Mode: 0
LetterboxInBreaks: 0

[Editor]
Bookmarks: 189259
DistanceSpacing: 0.8
BeatDivisor: 4
GridSize: 8

[Metadata]
Title:Finale
TitleUnicode:Finale
Artist:Madeon
ArtistUnicode:Madeon
Creator:Behonkiss
Version:Legend
Source:PlayStation All-Stars Battle Royale
Tags:intro theme techno dance video game
BeatmapID:250382
BeatmapSetID:86215

[Difficulty]
HPDrainRate:6
CircleSize:4
OverallDifficulty:5
ApproachRate:6
SliderMultiplier:1.8
SliderTickRate:2

[Events]
//Background and Video events
0,0,"playstationallstars.jpg",0,0
//Break Periods
2,64241,66578
2,98154,107339
//Storyboard Layer 0 (Background)
//Storyboard Layer 1 (Fail)
//Storyboard Layer 2 (Pass)
//Storyboard Layer 3 (Foreground)
//Storyboard Sound Samples
//Background Colour Transformations
3,100,163,162,255

[TimingPoints]
1433.04347826087,652.173913043478,4,1,0,100,1,0
67628,-100,4,2,0,100,0,0
118824,-100,4,1,0,100,0,1
139693,-100,4,1,0,100,0,0
140346,-100,4,1,0,100,0,1
160563,-100,4,1,0,100,0,0
162519,-100,4,2,0,100,0,0

[HitObjects]
192,48,22302,2,0,P|96:80|72:160,1,180,4|8,0:0|0:0,0:0:0:0:
72,288,23606,1,2,0:0:0:0:
184,288,24096,2,0,L|288:288,1,90,2|0,0:0|0:0,0:0:0:0:
344,288,24748,2,0,P|448:256|464:120,1,225,0|8,0:0|0:0,0:0:0:0:
376,48,26215,5,2,0:0:0:0:
272,48,26704,2,0,L|160:48,2,90,2|0|4,0:0|0:0|0:0,0:0:0:0:
112,128,28172,1,8,0:0:0:0:
40,256,28824,6,0,P|72:312|168:320,1,135,2|0,0:0|0:0,0:0:0:0:
208,330,29639,1,8,0:0:0:0:
264,280,29965,1,2,0:0:0:0:
320,328,30291,1,0,0:0:0:0:
376,280,30617,1,8,0:0:0:0:
432,328,30943,1,0,0:0:0:0:
496,240,31433,6,2,B|584:136|400:-32|304:96,1,360,2|6,0:0|0:0,0:0:0:0:
168,88,33389,5,8,0:0:0:0:
72,192,34041,1,2,0:0:0:0:
184,192,34531,2,0,L|288:192,1,90,2|0,0:0|0:0,0:0:0:0:
344,192,35183,2,0,P|448:224|464:360,1,225,0|8,0:0|0:0,0:0:0:0:
336,328,36650,5,2,0:0:0:0:
232,328,37139,2,0,L|120:328,2,90,2|0|4,0:0|0:0|0:0,0:0:0:0:
88,224,38606,1,8,0:0:0:0:
8,104,39259,6,0,P|40:48|136:40,1,135,2|0,0:0|0:0,0:0:0:0:
176,30,40074,1,8,0:0:0:0:
232,80,40400,1,2,0:0:0:0:
288,32,40726,1,0,0:0:0:0:
344,80,41052,1,8,0:0:0:0:
400,32,41378,1,0,0:0:0:0:
256,192,41867,12,4,43172,0:0:0:0:
256,40,43824,5,8,0:0:0:0:
256,184,44476,1,0,0:0:0:0:
136,112,45128,1,10,0:0:0:0:
64,112,45454,2,2,P|-8:192|72:320,1,270,2|10,0:0|0:0,0:0:0:0:
136,320,46759,2,2,P|208:232|288:336,1,270,2|10,0:0|0:0,0:0:0:0:
360,312,48063,6,2,P|440:248|464:88,1,270,2|8,0:0|0:0,0:0:0:0:
328,40,49693,1,0,0:0:0:0:
184,40,50346,1,8,0:0:0:0:
80,40,50835,1,0,0:0:0:0:
80,40,50998,2,0,B|80:192|232:344|472:312,1,540,2|8,0:0|0:0,0:0:0:0:
472,168,53606,6,0,P|464:88|368:48,1,180,4|8,0:0|0:0,0:0:0:0:
240,48,54911,1,0,0:0:0:0:
96,48,55563,1,10,0:0:0:0:
32,88,55889,2,2,P|-32:216|56:320,1,270,2|10,0:0|0:0,0:0:0:0:
56,240,57193,2,2,P|160:168|272:256,1,270,2|8,0:0|0:0,0:0:0:0:
256,192,58824,12,4,64041,0:0:0:0:
488,56,67628,5,0,0:0:0:0:
416,56,67954,2,0,P|336:24|240:64,2,180,2|2|8,0:0|0:0|0:0,0:0:0:0:
256,296,70563,1,2,0:0:0:0:
112,296,71215,2,0,P|32:208|32:136,1,180,2|8,0:0|0:0,0:0:0:0:
112,32,72519,5,0,0:0:0:0:
216,128,73172,2,0,L|352:256,2,180,2|2|8,0:0|0:0|0:0,0:0:0:0:
336,56,75128,1,8,0:0:0:0:
408,56,75454,1,8,0:0:0:0:
480,56,75780,2,2,P|520:128|464:224,2,180,2|2|4,0:0|0:0|0:0,0:0:0:0:
376,152,77737,5,8,0:0:0:0:
232,152,78389,1,8,0:0:0:0:
88,152,79041,1,8,0:0:0:0:
16,152,79367,1,8,0:0:0:0:
56,216,79693,1,8,0:0:0:0:
200,216,80346,5,8,0:0:0:0:
344,216,80998,1,8,0:0:0:0:
488,216,81650,1,8,0:0:0:0:
488,288,81976,1,8,0:0:0:0:
488,360,82302,1,8,0:0:0:0:
352,320,82954,5,8,0:0:0:0:
208,320,83606,1,8,0:0:0:0:
136,320,83933,1,8,0:0:0:0:
96,256,84259,1,8,0:0:0:0:
24,256,84585,2,8,P|32:144|192:80,1,270,8|8,0:0|0:0,0:0:0:0:
304,72,86215,2,2,L|408:72,4,90,2|2|2|0|6,0:0|0:0|0:0|0:0|0:0,0:0:0:0:
208,184,88172,5,8,0:0:0:0:
112,80,88824,2,8,P|32:136|32:248,2,180
112,224,90780,1,10,0:0:0:0:
256,224,91433,2,8,P|336:168|352:72,2,180,8|8|10,0:0|0:0|0:0,0:0:0:0:
368,312,93389,5,8,0:0:0:0:
472,216,94041,2,8,P|472:112|408:64,2,180,8|8|10,0:0|0:0|0:0,0:0:0:0:
344,152,95998,1,2,0:0:0:0:
344,152,96324,1,2,0:0:0:0:
344,152,96650,2,0,P|264:112|184:160,2,180,2|2|4,0:0|0:0|0:0,0:0:0:0:
480,320,108389,5,4,0:0:0:0:
408,320,108715,1,0,0:0:0:0:
336,320,109041,2,0,L|144:320,1,180,2|8,0:0|0:0,0:0:0:0:
136,248,110019,1,0,0:0:0:0:
208,248,110346,2,0,L|392:248,1,180,2|8,0:0|0:0,0:0:0:0:
456,120,111650,2,2,L|272:120,2,180
256,192,113606,12,0,118172,0:0:0:0:
192,112,118824,6,0,P|264:168|320:104,1,180,4|8,0:0|0:0,0:0:0:0:
448,48,120128,2,2,P|472:112|440:176,1,135
408,232,120943,1,2,0:0:0:0:
344,272,121269,2,0,P|272:336|112:344,1,225,0|8,0:0|0:0,0:0:0:0:
64,240,122737,5,0,0:0:0:0:
64,136,123226,2,0,L|64:40,2,90,2|0|4,0:0|0:0|0:0,0:0:0:0:
240,104,124693,1,8,0:0:0:0:
240,248,125346,6,2,P|328:200|344:152,1,135
376,104,126161,1,0,0:0:0:0:
448,104,126487,1,2,0:0:0:0:
480,168,126813,1,0,0:0:0:0:
480,240,127139,1,2,0:0:0:0:
480,312,127465,1,0,0:0:0:0:
376,288,127954,2,2,L|184:288,2,180,2|2|4,0:0|0:0|0:0,0:0:0:0:
280,176,129911,5,8,0:0:0:0:
192,64,130563,2,2,P|120:80|96:136,1,135
24,131,131378,1,0,0:0:0:0:
24,200,131704,2,0,P|96:288|-8:328,1,225,2|8,0:0|0:0,0:0:0:0:
168,336,133172,5,2,0:0:0:0:
272,336,133661,1,2,0:0:0:0:
344,336,133987,1,0,0:0:0:0:
416,336,134313,1,4,0:0:0:0:
496,176,135128,1,8,0:0:0:0:
408,64,135780,6,2,L|288:160,1,135
248,96,136596,1,0,0:0:0:0:
192,144,136922,1,2,0:0:0:0:
136,96,137248,1,0,0:0:0:0:
80,144,137574,1,2,0:0:0:0:
32,88,137900,1,0,0:0:0:0:
256,192,138389,12,0,139694,0:0:0:0:
64,304,140346,5,4,0:0:0:0:
208,304,140998,2,2,P|296:344|360:304,1,180
440,184,142302,1,2,0:0:0:0:
296,184,142954,1,8,0:0:0:0:
152,184,143606,2,0,P|96:128|160:64,1,180,2|8,0:0|0:0,0:0:0:0:
296,64,144911,5,2,0:0:0:0:
440,64,145563,1,8,0:0:0:0:
440,64,145889,1,8,0:0:0:0:
368,192,146541,1,0,0:0:0:0:
256,288,147193,1,0,0:0:0:0:
184,288,147519,2,2,P|80:256|72:192,3,180
152,80,150128,5,4,0:0:0:0:
296,80,150780,1,8,0:0:0:0:
368,80,151106,2,0,P|472:112|504:184,1,180,2|0,0:0|0:0,0:0:0:0:
504,240,152085,1,8,0:0:0:0:
456,296,152411,2,0,P|384:336|296:288,1,180,2|0,0:0|0:0,0:0:0:0:
232,296,153389,2,0,L|48:296,2,180,8|2|8,0:0|0:0|0:0,0:0:0:0:
256,192,155346,12,4,160563,0:0:0:0:
24,48,162519,5,0,0:0:0:0:
168,48,163172,1,2,0:0:0:0:
72,240,164150,1,0,0:0:0:0:
144,240,164476,2,2,L|328:240,1,180
448,168,165780,1,8,0:0:0:0:
216,336,167085,6,0,L|16:336,2,180,2|2|8,0:0|0:0|0:0,0:0:0:0:
88,80,169693,1,2,0:0:0:0:
232,80,170346,2,0,P|320:96|368:176,1,180,2|8,0:0|0:0,0:0:0:0:
368,312,171650,1,2,0:0:0:0:
296,312,171976,1,2,0:0:0:0:
224,312,172302,2,0,L|40:312,2,180,8|8|4,0:0|0:0|0:0,0:0:0:0:
56,80,174911,5,2,0:0:0:0:
200,80,175563,2,8,L|320:80,1,90
464,288,177519,5,2,0:0:0:0:
320,288,178172,2,8,L|224:288,1,90
88,120,180128,6,2,P|72:168|104:216,3,90
288,192,182574,2,0,L|432:192,1,135,2|8,0:0|0:0,0:0:0:0:
496,192,183389,2,0,P|488:128|392:80,1,180,8|4,0:0|0:0,0:0:0:0:
248,80,184693,5,2,0:0:0:0:
104,80,185346,2,0,P|32:128|16:240,1,180,8|2,0:0|0:0,0:0:0:0:
128,296,186650,2,0,P|216:336|296:272,3,180,0|2|0|2,0:0|0:0|0:0|0:0,0:0:0:0:
256,192,189259,12,4,194477,0:0:0:0:
