osu file format v10

[General]
AudioFilename: Merryxmas.mp3
AudioLeadIn: 2000
PreviewTime: 54901
Countdown: 0
SampleSet: Soft
StackLeniency: 0.7
Mode: 0
LetterboxInBreaks: 0

[Editor]
DistanceSpacing: 1
BeatDivisor: 2
GridSize: 4

[Metadata]
Title:Merry * Xmas
TitleUnicode:Merry ☆ Xmas
Artist:Madaiko
ArtistUnicode:Madaiko
Creator:HanzeR
Version:Merry Merry
Source:Vocaloid
Tags:Hatsune Miku Hentai Christmas
BeatmapID:193223
BeatmapSetID:66112

[Difficulty]
HPDrainRate:2
CircleSize:3
OverallDifficulty:2
ApproachRate:5
SliderMultiplier:1
SliderTickRate:1

[Events]
//Background and Video events
0,0,"mikusanta.jpg"
//Break Periods
2,7113,11379
2,76779,86046
2,130113,139379
2,162113,171379
2,199446,208713
//Storyboard Layer 0 (Background)
//Storyboard Layer 1 (Fail)
//Storyboard Layer 2 (Pass)
//Storyboard Layer 3 (Foreground)
//Storyboard Sound Samples
//Background Colour Transformations
3,100,163,162,255

[TimingPoints]
580,333.333333333333,4,2,1,80,1,0
1913,-100,4,2,0,80,0,0
12579,-100,4,2,1,80,0,1
23246,-100,4,2,1,80,0,0
55246,-100,4,2,1,80,0,1
76579,-100,4,2,1,80,0,0
108579,-100,4,2,1,80,0,1
129913,-100,4,2,1,80,0,0
172579,-100,4,2,1,80,0,1
199246,-100,4,2,1,80,0,0
209913,-100,4,2,1,80,0,1
220579,-100,4,2,0,80,0,0
222579,-100,4,2,1,80,0,0

[Colours]
Combo1 : 128,128,255
Combo2 : 255,128,128
Combo3 : 128,255,255
Combo4 : 128,255,128

[HitObjects]
208,68,580,2,0,P|256:48|256:48|308:72,3,100,8|2|2|12,0:0|0:0|0:0|0:0,0:0:0
348,156,1913,6,0,P|388:256|344:340,1,200,4|2,0:0|0:0,0:0:0
256,304,2913,1,0,0:0:0
161,334,3246,2,0,P|124:256|164:156,1,200,0|2,0:0|0:0,0:0:0
256,120,4246,1,0,0:0:0
168,56,4579,6,0,P|256:16|256:16|372:64,1,200,2|2,0:0|0:0,0:0:0
344,328,5913,2,2,P|256:368|256:368|140:320,1,200
256,272,6913,1,4,0:0:0
168,268,12579,6,0,P|256:316|340:268,1,200,8|8,0:0|0:0,0:0:0
256,212,13579,1,8,0:0:0
340,160,13913,2,8,P|252:112|168:160,1,200
100,228,14913,1,8,0:0:0
88,112,15246,6,8,P|144:24|144:24|256:24,1,200
428,104,16579,2,8,P|372:192|372:192|260:192,1,200
180,164,17579,1,8,0:0:0
92,236,17913,6,8,P|160:284|228:388,1,200
428,236,19246,2,8,P|360:284|292:388,1,200
256,288,20246,1,8,0:0:0
256,188,20579,2,0,P|256:80,1,100
336,28,21246,2,0,P|372:68|340:156,2,150
256,88,22579,1,8,0:0:0
52,132,23246,6,0,P|160:132|160:132|220:212,1,200,2|0,0:0|0:0,0:0:0
252,300,24246,1,8,0:0:0
288,205,24579,2,0,P|344:132|344:132|452:132,1,200,2|0,0:0|0:0,0:0:0
492,224,25579,1,0,0:0:0
480,328,25913,6,0,P|392:272,1,100
332,332,26579,2,0,P|220:332,1,100,0|8,0:0|0:0,0:0:0
216,232,27246,2,0,P|100:232,1,100,2|8,0:0|0:0,0:0:0
28,184,27913,2,0,P|28:396,1,200,0|4,0:0|0:0,0:0:0
124,308,28913,6,0,P|224:308,2,100,8|0|8,0:0|0:0|0:0,0:0:0
116,208,29913,2,0,P|188:176|316:220,1,200,2|0,0:0|0:0,0:0:0
304,308,30913,1,8,0:0:0
216,264,31246,1,2,0:0:0
301,207,31579,6,0,P|337:155|297:27,1,200,8|8,0:0|0:0,0:0:0
232,104,32579,2,0,P|188:100|132:136,1,100,0|8,0:0|0:0,0:0:0
132,224,33246,2,0,P|68:192|56:152,1,100,0|8,0:0|0:0,0:0:0
256,196,34246,1,0,0:0:0
256,4,34913,5,8,0:0:0
160,24,35246,2,0,P|92:112,1,100,2|12,0:0|0:0,0:0:0
196,124,35913,2,0,P|264:212,1,100,4|8,0:0|0:0,0:0:0
316,284,36579,6,0,P|384:240|356:120,1,200,2|0,0:0|0:0,0:0:0
292,72,37579,1,8,0:0:0
208,196,38079,2,0,P|56:196,1,150,8|0,0:0|0:0,0:0:0
64,284,38913,1,8,0:0:0
164,284,39246,6,0,P|272:284,2,100,0|8|0,0:0|0:0|0:0,0:0:0
212,196,40246,1,8,0:0:0
204,96,40579,2,0,P|256:80|256:80|304:96,3,100,2|12|2|8,0:0|0:0|0:0|0:0,0:0:0
256,192,41913,6,0,P|256:296,1,100,2|8,0:0|0:0,0:0:0
160,324,42579,1,0,0:0:0
164,136,43246,2,0,P|268:72,1,100,8|8,0:0|0:0,0:0:0
140,36,43913,2,2,P|36:100,1,100
4,184,44579,6,0,P|16:288|16:288|200:352,1,300,4|8,0:0|0:0,0:0:0
300,364,45913,2,0,P|288:260|288:260|104:196,1,300,2|8,0:0|0:0,0:0:0
60,108,47246,6,0,P|168:84,1,100,2|0,0:0|0:0,0:0:0
244,136,47913,2,0,P|348:76,1,100,2|8,0:0|0:0,0:0:0
416,140,48579,2,0,P|492:56,1,100,2|0,0:0|0:0,0:0:0
384,48,49246,2,0,P|272:32,1,100
260,132,49913,6,0,P|88:88,1,150,4|2,0:0|0:0,0:0:0
44,176,50746,2,0,P|160:204,1,100,2|4,0:0|0:0,0:0:0
240,224,51413,1,2,0:0:0
340,244,51746,1,4,0:0:0
436,268,52079,2,0,P|436:152,1,100
256,192,52579,12,0,53913,0:0:0
64,148,55246,6,0,P|196:76|252:72,1,200,12|8,0:0|0:0,0:0:0
340,96,56246,1,8,0:0:0
424,172,56579,2,8,P|312:220,1,100
312,308,57246,2,8,P|208:276,1,100
124,244,57913,6,8,P|160:160|16:168,1,300
48,264,59246,2,8,P|120:364,1,100
206,345,59913,1,8,0:0:0
305,345,60246,1,8,0:0:0
404,344,60579,6,8,P|462:262,1,100
364,192,61246,2,8,P|320:116|404:60,1,200
256,204,62579,1,8,0:0:0
256,304,62913,1,8,0:0:0
156,324,63246,6,8,P|116:248|12:220,1,200
56,24,64579,2,8,P|96:100|200:128,1,200
400,116,65913,6,8,P|428:220|408:320,2,200
256,256,67913,1,8,0:0:0
99,309,68579,6,8,P|84:220|112:116,2,200
256,184,70579,2,8,P|256:72,1,100
160,56,71246,6,8,P|256:20|256:20|364:60,1,200
352,252,72579,2,8,P|256:288|256:288|148:248,1,200
256,76,73913,6,8,P|256:192,2,100
356,76,74913,1,8,0:0:0
156,76,75579,2,8,P|156:176,1,100
255,349,76579,1,12,0:0:0
76,324,87246,6,0,P|168:272,2,100,2|8|2,0:0|0:0|0:0,0:0:0
76,224,88246,1,8,0:0:0
80,124,88579,2,0,P|172:176,2,100,2|8|2,0:0|0:0|0:0,0:0:0
156,60,89579,1,8,0:0:0
256,44,89913,6,0,P|256:144,1,100,2|8,0:0|0:0,0:0:0
344,96,90579,1,2,0:0:0
420,160,90913,2,0,P|392:224|392:224|392:364,1,200,8|8,0:0|0:0,0:0:0
303,306,91913,2,0,P|255:282|255:282|203:310,1,100,0|8,0:0|0:0,0:0:0
120,354,92579,6,0,P|120:224|120:224|92:160,1,200,4|0,0:0|0:0,0:0:0
160,84,93579,1,8,0:0:0
260,84,93913,2,0,P|300:204|352:40|436:108,1,200,2|2,0:0|0:0,0:0:0
392,296,95246,6,0,P|256:264|92:308,1,300,2|8,0:0|0:0,0:0:0
120,140,96579,2,0,P|256:172|420:128,1,300,8|2,0:0|0:0,0:0:0
464,52,97913,6,0,P|356:40|248:72,1,200,4|2,0:0|0:0,0:0:0
176,100,98913,1,0,0:0:0
124,200,99246,2,0,P|232:193|333:142,1,200,2|2,0:0|0:0,0:0:0
396,212,100246,1,0,0:0:0
400,336,100579,6,0,P|288:288,1,100,2|0,0:0|0:0,0:0:0
212,320,101246,2,0,P|136:244,1,100,2|8,0:0|0:0,0:0:0
44,220,101913,2,0,P|8:112,1,100,2|0,0:0|0:0,0:0:0
112,132,102579,2,0,P|116:88|72:56,1,100,2|12,0:0|0:0,0:0:0
180,20,103246,6,0,P|256:84|256:84|336:20,1,200,4|0,0:0|0:0,0:0:0
432,44,104246,1,8,0:0:0
392,136,104579,2,0,P|312:192|312:192|312:296,1,200
256,376,105579,1,8,0:0:0
256,192,105913,12,0,107246,0:0:0
208,316,108579,2,8,P|256:336|256:336|308:312,3,100
348,228,109912,6,8,P|388:128|344:44,1,200
256,80,110912,1,8,0:0:0
161,50,111245,2,8,P|124:128|164:228,1,200
256,264,112245,1,0,0:0:0
168,328,112578,2,8,P|256:368|256:368|372:320,1,200
344,56,113912,6,8,P|256:16|256:16|140:64,1,200
256,112,114912,1,8,0:0:0
164,152,115245,2,8,P|108:212|244:328,1,300
220,232,116578,2,8,P|344:204|404:40,1,300
308,52,117912,5,8,0:0:0
108,48,118578,1,8,0:0:0
284,144,119245,5,8,0:0:0
184,316,119912,1,8,0:0:0
168,116,120578,6,8,P|256:68|340:116,1,200
256,172,121578,1,8,0:0:0
340,224,121912,2,8,P|252:272|168:224,1,200
100,156,122912,1,8,0:0:0
88,256,123245,2,8,P|144:344|144:344|256:344,1,200
428,280,124578,6,8,P|372:192|372:192|260:192,1,200
176,204,125578,1,8,0:0:0
92,148,125912,2,8,P|160:100|228:-4,1,200
428,148,127245,6,8,P|360:100|292:-4,1,200
256,96,128245,1,8,0:0:0
256,196,128578,2,8,P|256:304,3,100
356,292,129913,1,4,0:0:0
64,136,140579,6,0,P|132:108|132:108|104:60|212:24,1,200,4|2,0:0|0:0,0:0:0
256,112,141579,1,8,0:0:0
306,26,141913,2,0,P|408:60|380:108|380:108|448:136,1,200,2|2,0:0|0:0,0:0:0
344,308,143246,6,0,P|256:264|256:264|160:312,2,200,2|2|2,0:0|0:0|0:0,0:0:0
256,188,145079,2,0,P|256:36,1,150,0|8,0:0|0:0,0:0:0
164,80,145913,6,0,P|108:140|244:256,1,300,2|8,0:0|0:0,0:0:0
220,160,147246,2,0,P|316:168|340:264,1,200
416,324,148246,1,0,0:0:0
320,348,148580,5,2,0:0:0
152,260,149246,1,6,0:0:0
348,196,149913,1,4,0:0:0
232,72,150580,1,8,0:0:0
448,72,151246,6,0,P|484:120|492:272,1,200,4|2,0:0|0:0,0:0:0
400,228,152246,1,8,0:0:0
344,144,152579,2,0,P|308:192|300:344,1,200,2|2,0:0|0:0,0:0:0
392,348,153579,1,8,0:0:0
416,252,153913,6,0,P|476:188|476:188|476:60,1,200,2|2,0:0|0:0,0:0:0
300,168,155246,2,0,P|236:228|236:228|108:228,1,200,2|2,0:0|0:0,0:0:0
120,128,156246,1,8,0:0:0
204,76,156579,6,0,P|256:68|256:68|312:76,3,100,2|8|2|8,0:0|0:0|0:0|0:0,0:0:0
396,116,157913,2,0,P|388:64|388:64|396:8,1,100,2|8,0:0|0:0,0:0:0
488,56,158579,2,0,P|494:102|494:102|486:154,1,100,2|8,0:0|0:0,0:0:0
256,192,159246,12,0,161913,0:0:0
460,252,172579,6,8,P|352:252|352:252|208:100,1,300
304,56,173912,1,8,0:0:0
212,20,174246,1,8,0:0:0
128,76,174579,2,8,P|80:132|80:132|80:172,1,100
80,260,175246,6,8,P|192:260,1,100
248,332,175913,2,8,P|364:332,1,100
428,276,176579,2,8,P|428:64,1,200
332,104,177579,1,8,0:0:0
248,48,177913,6,8,P|148:48,2,100
240,148,178913,1,8,0:0:0
164,212,179246,2,8,P|227:258|253:391,1,200
356,352,180246,1,8,0:0:0
436,292,180579,6,8,P|400:240|440:112,1,200
256,24,181912,2,8,P|300:28|356:-8,1,100
356,100,182579,2,8,P|292:132|280:172,1,100
260,252,183246,5,8,0:0:0
312,336,183579,2,8,P|380:248,1,100
416,168,184246,1,0,0:0:0
312,108,184579,6,8,P|244:152|272:272,1,200
384,280,185579,2,8,P|316:192,1,100
312,108,186246,1,0,0:0:0
224,56,186579,1,8,0:0:0
148,136,186913,2,8,P|200:144|200:144|248:172,2,100
164,236,187913,1,8,0:0:0
264,256,188246,1,8,0:0:0
364,240,188579,6,8,P|364:348,2,100
300,164,189579,1,8,0:0:0
264,256,189912,2,8,P|212:272|212:272|164:256,2,100
344,196,190913,1,0,0:0:0
256,148,191246,6,8,P|256:44,1,100
160,72,191913,2,0,P|160:228,2,150
76,128,193246,1,0,0:0:0
72,280,193746,6,0,P|236:280,1,150
324,280,194579,1,0,0:0:0
440,184,195079,6,0,P|276:184,1,150
188,184,195912,1,0,0:0:0
68,96,196413,6,0,P|232:96,1,150
320,96,197246,1,0,0:0:0
256,192,197913,12,0,199246,0:0:0
112,128,209913,6,8,P|192:96|140:24,1,200
160,224,211246,2,8,P|128:304|56:252,1,200
256,224,212579,1,8,0:0:0
256,24,213246,1,8,0:0:0
404,160,213913,2,8,P|456:264,1,100
364,304,214579,2,8,P|260:352,1,100
180,304,215246,6,8,P|80:128,1,200
176,96,216246,1,0,0:0:0
276,88,216579,2,8,P|416:160|416:160|416:308,1,300
316,308,217913,5,8,0:0:0
156,188,218579,2,0,P|156:24,2,150
64,144,219913,1,0,0:0:0
148,324,220579,6,0,P|220:236,1,100,0|2,0:0|0:0,0:0:0
256,336,221246,2,2,P|256:228,1,100,0|2,0:0|0:0,0:0:0
364,324,221913,2,0,P|292:236,1,100,0|2,0:0|0:0,0:0:0
256,156,222579,1,2,0:0:0
256,56,222913,1,4,0:0:0
