osu file format v10

[General]
AudioFilename: Merryxmas.mp3
AudioLeadIn: 2000
PreviewTime: 54901
Countdown: 0
SampleSet: Soft
StackLeniency: 0.7
Mode: 0
LetterboxInBreaks: 0

[Editor]
DistanceSpacing: 1
BeatDivisor: 4
GridSize: 4

[Metadata]
Title:Merry * Xmas
TitleUnicode:Merry ☆ Xmas
Artist:Madaiko
ArtistUnicode:Madaiko
Creator:HanzeR
Version:Hentai
Source:Vocaloid
Tags:Hatsune Miku Hentai Christmas
BeatmapID:193069
BeatmapSetID:66112

[Difficulty]
HPDrainRate:6
CircleSize:4
OverallDifficulty:7
ApproachRate:9
SliderMultiplier:1.9
SliderTickRate:1

[Events]
//Background and Video events
0,0,"mikusexmas.jpeg"
//Break Periods
//Storyboard Layer 0 (Background)
//Storyboard Layer 1 (Fail)
//Storyboard Layer 2 (Pass)
//Storyboard Layer 3 (Foreground)
//Storyboard Sound Samples
//Background Colour Transformations
3,100,163,162,255

[TimingPoints]
580,333.333333333333,4,2,1,80,1,0
1913,-100,4,2,2,50,0,0
7163,-100,4,2,2,60,0,0
9913,-100,4,2,2,30,0,0
10246,-100,4,2,2,40,0,0
10579,-100,4,2,2,50,0,0
10913,-100,4,2,2,60,0,0
11163,-100,4,2,1,80,0,0
12579,-100,4,2,1,80,0,1
16913,-90.9090909090909,4,2,1,80,0,1
17246,-80,4,2,1,80,0,1
17579,-66.6666666666667,4,2,1,80,0,1
17913,-100,4,2,1,80,0,1
23246,-100,4,2,1,80,0,0
34246,-66.6666666666667,4,2,1,80,0,0
34496,-100,4,2,1,80,0,0
43913,-100,4,2,1,40,0,0
43996,-100,4,2,1,60,0,0
44079,-100,4,2,1,70,0,0
44163,-100,4,2,1,80,0,0
44246,-100,4,2,1,70,0,0
44329,-100,4,2,1,60,0,0
44413,-100,4,2,1,50,0,0
44496,-100,4,2,1,40,0,0
44579,-200,4,2,1,50,0,0
49913,-100,4,2,1,60,0,0
50913,-90.9090909090909,4,2,1,70,0,0
51246,-83.3333333333333,4,2,1,80,0,0
51579,-76.9230769230769,4,2,1,90,0,0
52246,-71.4285714285714,4,2,1,100,0,0
52579,-66.6666666666667,4,2,1,100,0,0
54079,-100,4,2,1,70,0,0
55246,-100,4,2,1,80,0,1
59579,-90.9090909090909,4,2,1,80,0,1
59913,-80,4,2,1,80,0,1
60246,-66.6666666666667,4,2,1,80,0,1
60579,-100,4,2,1,80,0,1
65579,-66.6666666666667,4,2,1,80,0,1
65829,-100,4,2,1,80,0,1
70579,-100,4,2,1,80,0,1
76246,-50,4,2,1,80,0,1
76579,-100,4,2,1,80,0,1
87246,-100,4,2,1,80,0,0
97913,-200,4,2,1,80,0,0
103246,-100,4,2,1,50,0,0
103746,-90.9090909090909,4,2,1,60,0,0
104246,-83.3333333333333,4,2,1,70,0,0
104913,-76.9230769230769,4,2,1,80,0,0
105579,-71.4285714285714,4,2,1,85,0,0
105913,-66.6666666666667,4,2,1,80,0,0
107246,-66.6666666666667,4,2,1,50,0,0
108079,-66.6666666666667,4,2,1,70,0,0
108579,-100,4,2,1,80,0,1
112913,-90.9090909090909,4,2,1,80,0,1
113246,-80,4,2,1,80,0,1
113579,-66.6666666666667,4,2,1,80,0,1
113913,-100,4,2,1,80,0,1
118913,-50,4,2,1,80,0,1
119246,-100,4,2,1,80,0,1
123329,-90.9090909090909,4,2,1,80,0,1
123746,-80,4,2,1,80,0,1
124079,-66.6666666666667,4,2,1,100,0,1
124496,-100,4,2,1,100,0,1
129579,-50,4,2,1,100,0,1
129913,-100,4,2,1,80,0,0
137913,-100,4,2,1,40,0,0
138246,-100,4,2,1,50,0,0
138579,-100,4,2,1,60,0,0
138913,-100,4,2,1,70,0,0
139079,-100,4,2,1,80,0,0
140413,-100,4,2,1,70,0,0
160413,-100,4,2,1,40,0,0
161913,-100,4,2,2,65,0,0
167246,-100,4,2,0,30,0,0
171246,-100,4,2,0,30,0,0
171329,-100,4,2,1,80,0,0
172246,-50,4,2,1,80,0,0
172579,-100,4,2,1,80,0,1
176913,-90.9090909090909,4,2,1,80,0,1
177246,-80,4,2,1,80,0,1
177496,-66.6666666666667,4,2,1,80,0,1
177913,-100,4,2,1,80,0,1
187579,-90.9090909090909,4,2,1,80,0,1
187913,-80,4,2,1,90,0,1
188246,-66.6666666666667,4,2,1,100,0,1
188579,-100,4,2,1,80,0,1
197579,-50,4,2,1,80,0,1
197829,-100,4,2,1,80,0,1
220579,-100,4,2,0,60,0,0
222746,-100,4,2,1,80,0,0

[Colours]
Combo1 : 128,128,255
Combo2 : 255,128,128
Combo3 : 128,255,255
Combo4 : 128,255,128

[HitObjects]
80,56,580,2,0,B|108:152,1,95,8|2,0:0|0:0,0:0:0
112,176,829,1,0,0:0:0
120,204,913,1,0,0:0:0
140,224,996,1,0,0:0:0
164,236,1079,2,0,P|240:224|264:200,1,95
276,228,1328,2,0,B|256:176,1,47.5,0|0,0:0|0:0,0:0:0
296,32,1579,1,4,0:0:0
296,32,1913,6,0,B|368:32|368:32|392:40|392:60,1,95,4|0,0:0|0:0,0:0:0
496,148,2246,2,0,B|424:148|424:148|400:156|400:176,1,95,2|0,0:0|0:0,0:0:0
312,196,2579,1,0,0:0:0
320,112,2746,1,0,0:0:0
388,44,2913,1,2,0:0:0
404,160,3079,6,0,B|420:216|400:272,1,95,8|0,0:0|0:0,0:0:0
312,288,3413,2,0,B|292:236|320:176,1,95,8|2,0:0|0:0,0:0:0
320,112,3746,1,0,0:0:0
300,40,3913,2,0,B|228:40|228:40|204:48|204:68,1,95,0|0,0:0|0:0,0:0:0
152,112,4246,2,0,B|80:112|80:112|56:104|56:84,1,95,10|0,0:0|0:0,0:0:0
208,40,4579,6,0,B|252:72|252:140,1,95,8|0,0:0|0:0,0:0:0
208,284,4913,2,0,B|164:252|164:184,1,95,2|0,0:0|0:0,0:0:0
152,112,5246,1,8,0:0:0
208,40,5413,1,8,0:0:0
300,40,5579,1,10,0:0:0
364,112,5746,1,8,0:0:0
304,284,5913,6,0,B|300:344|256:360|256:360|216:344|208:280,1,190,8|2,0:0|0:0,0:0:0
200,168,6413,2,0,B|224:80|296:80|320:176,1,190,8|8,0:0|0:0,0:0:0
120,176,6913,2,0,B|120:280,1,95,12|0,0:0|0:0,0:0:0
44,100,7246,5,4,0:0:0
132,80,7413,1,0,0:0:0
156,262,7579,2,0,B|128:232|120:176,1,95,10|0,0:0|0:0,0:0:0
132,80,7913,1,8,0:0:0
200,168,8079,2,2,B|228:198|236:254,1,95,0|10,0:0|0:0,0:0:0
256,348,8413,1,0,0:0:0
312,216,8579,6,0,B|283:185|275:129,1,95,8|0,0:0|0:0,0:0:0
268,36,8913,1,10,0:0:0
364,144,9079,2,0,B|392:174|400:230,1,95,0|8,0:0|0:0,0:0:0
408,348,9413,1,0,0:0:0
312,216,9579,2,0,B|260:216|212:216,1,95,10|0,0:0|0:0,0:0:0
256,192,9913,12,0,11079,0:0:0
428,236,11246,6,0,B|448:304|404:372|344:336|352:276|384:268,1,190,8|8,0:0|0:0,0:0:0
380,176,11746,1,2,0:0:0
380,176,11829,1,2,0:0:0
380,176,11913,1,2,0:0:0
256,44,12079,1,2,0:0:0
212,32,12163,1,2,0:0:0
164,28,12246,1,8,0:0:0
116,32,12329,1,8,0:0:0
72,52,12413,1,8,0:0:0
44,92,12496,1,8,0:0:0
36,140,12579,6,0,B|56:188|36:240,1,95,12|0,0:0|0:0,0:0:0
140,348,12913,2,0,B|120:300|140:248,1,95,8|2,0:0|0:0,0:0:0
116,160,13246,2,0,B|163:140|212:160,2,95,8|2|8,0:0|0:0|0:0,0:0:0
132,256,13746,1,2,0:0:0
280,208,13913,2,0,B|300:160|284:108,1,95,8|0,0:0|0:0,0:0:0
412,56,14246,1,8,0:0:0
468,188,14413,2,0,B|504:256|448:324|376:292,1,190,2|2,0:0|0:0,0:0:0
284,284,14913,2,0,B|200:344,1,95,8|2,0:0|0:0,0:0:0
160,75,15246,6,0,B|176:144|172:212|132:256,1,190,8|8,0:0|0:0,0:0:0
351,75,15913,2,0,B|336:144|340:212|380:256,1,190,8|8,0:0|0:0,0:0:0
188,332,16579,6,0,B|140:248,1,95,8|2,0:0|0:0,0:0:0
284,284,16913,6,0,B|368:220,1,104.500003189087,8|2,0:0|0:0,0:0:0
164,152,17246,6,0,B|98:49,1,118.75,12|0,0:0|0:0,0:0:0
336,152,17579,6,0,B|384:-18,1,142.500005435944,8|0,0:0|0:0,0:0:0
396,320,17913,6,0,B|369:363|313:359,1,95,8|2,0:0|0:0,0:0:0
400,232,18246,2,0,B|430:192|482:192,1,95,8|2,0:0|0:0,0:0:0
336,152,18579,2,0,B|268:156|244:208,2,95,8|2|8,0:0|0:0|0:0,0:0:0
252,96,19079,2,0,B|168:28,1,95,2|8,0:0|0:0,0:0:0
56,64,19413,1,2,0:0:0
148,136,19579,2,0,B|180:176|168:232,1,95,8|2,0:0|0:0,0:0:0
56,352,19913,2,0,B|28:312|40:256,1,95,8|2,0:0|0:0,0:0:0
170,226,20246,2,0,B|204:191|261:193,1,95,8|2,0:0|0:0,0:0:0
324,256,20579,6,0,B|408:188,1,95,8|2,0:0|0:0,0:0:0
148,136,20913,2,0,B|64:68,1,95,8|2,0:0|0:0,0:0:0
256,284,21246,2,0,B|256:180,2,95,8|2|0,0:0|0:0|0:0,0:0:0
212,48,21746,2,0,B|260:16|312:52,1,95,8|0,0:0|0:0,0:0:0
256,360,22079,1,8,0:0:0
256,284,22246,1,8,0:0:0
256,96,22579,1,8,0:0:0
420,112,22913,5,8,0:0:0
420,112,22996,1,8,0:0:0
420,112,23079,1,2,0:0:0
420,112,23163,1,0,0:0:0
420,112,23246,1,2,0:0:0
404,244,23413,5,0,0:0:0
344,172,23579,1,8,0:0:0
256,208,23746,1,0,0:0:0
336,264,23913,1,0,0:0:0
280,124,24079,1,2,0:0:0
164,180,24246,1,8,0:0:0
256,208,24413,1,0,0:0:0
344,172,24579,6,0,B|394:150|417:110,1,95,2|0,0:0|0:0,0:0:0
424,16,24913,2,0,B|374:38|351:78,1,95,8|0,0:0|0:0,0:0:0
280,124,25246,2,0,B|240:87|233:42,1,95,0|0,0:0|0:0,0:0:0
40,124,25579,2,0,B|92:64|180:100|164:188,1,190,8|2,0:0|0:0,0:0:0
76,208,26079,6,0,B|92:260|152:272,1,95,0|8,0:0|0:0,0:0:0
232,300,26413,1,0,0:0:0
280,124,26579,1,0,0:0:0
164,176,26746,1,2,0:0:0
220,252,26913,1,8,0:0:0
272,172,27079,1,8,0:0:0
184,140,27246,6,0,B|172:92|172:92|172:44|188:44,1,95,2|0,0:0|0:0,0:0:0
331,47,27579,2,0,B|340:44|340:92|340:92|328:140,1,95,8|0,0:0|0:0,0:0:0
256,352,27913,2,0,B|256:256,1,95,0|2,0:0|0:0,0:0:0
256,160,28246,1,8,0:0:0
256,160,28329,1,8,0:0:0
256,160,28413,1,8,0:0:0
256,160,28496,1,8,0:0:0
256,160,28579,1,4,0:0:0
120,104,28746,5,0,0:0:0
212,80,28913,1,8,0:0:0
256,161,29079,1,0,0:0:0
44,152,29246,2,0,B|104:228,1,95,0|2,0:0|0:0,0:0:0
44,152,29579,2,0,B|56:56,1,95,8|8,0:0|0:0,0:0:0
164,32,29913,1,2,0:0:0
256,12,30079,1,0,0:0:0
348,32,30246,1,8,0:0:0
256,104,30413,1,0,0:0:0
184,164,30579,6,0,B|96:216,1,95,0|2,0:0|0:0,0:0:0
312,216,30913,2,0,B|362:126,1,95,8|0,0:0|0:0,0:0:0
360,132,31163,1,8,0:0:0
360,132,31246,1,2,0:0:0
476,236,31413,5,0,0:0:0
476,236,31579,2,0,B|448:332,1,95,8|0,0:0|0:0,0:0:0
336,308,31913,2,0,B|312:210,1,95,0|2,0:0|0:0,0:0:0
236,268,32246,2,0,B|183:346,1,95,8|0,0:0|0:0,0:0:0
48,264,32579,6,0,B|37:169,2,95,2|0|8,0:0|0:0|0:0,0:0:0
136,232,33079,1,0,0:0:0
339,144,33246,2,0,B|256:192,1,95,0|2,0:0|0:0,0:0:0
172,144,33579,2,0,B|256:192,1,95,8|2,0:0|0:0,0:0:0
254,191,33913,1,2,0:0:0
256,256,34246,6,0,B|256:108,1,142.500005435944,12|0,0:0|0:0,0:0:0
424,24,34746,5,2,0:0:0
372,104,34913,1,8,0:0:0
304,40,35079,1,0,0:0:0
308,156,35246,6,0,B|288:216|256:232|252:176,1,95,2|0,0:0|0:0,0:0:0
256,49,35579,1,12,0:0:0
356,32,35746,1,0,0:0:0
308,156,35913,2,0,B|316:208|316:208|292:256,1,95,0|2,0:0|0:0,0:0:0
200,244,36246,2,0,B|181:206|181:206|189:154,1,95,8|8,0:0|0:0,0:0:0
172,108,36496,1,8,0:0:0
132,80,36579,1,2,0:0:0
120,240,36746,1,2,0:0:0
120,240,36913,6,0,B|139:289|139:289|174:312,1,95,12|0,0:0|0:0,0:0:0
337,312,37246,2,0,B|372:289|372:289|392:240,2,95,0|2|8,0:0|0:0|0:0,0:0:0
256,360,37746,1,0,0:0:0
256,360,38079,2,0,B|240:312|240:312|256:260,1,95,8|8,0:0|0:0,0:0:0
256,24,38413,1,4,0:0:0
256,24,38579,2,0,B|272:72|272:72|256:124,1,95,0|2,0:0|0:0,0:0:0
256,192,38913,1,8,0:0:0
256,192,38996,1,8,0:0:0
256,192,39079,1,8,0:0:0
136,72,39413,5,2,0:0:0
224,104,39579,1,8,0:0:0
256,192,39746,1,0,0:0:0
160,184,39913,1,0,0:0:0
320,120,40079,1,2,0:0:0
160,184,40246,1,8,0:0:0
320,120,40413,1,2,0:0:0
224,104,40579,6,0,B|256:68|256:68|268:40|248:20,1,95,2|0,0:0|0:0,0:0:0
320,120,40913,2,0,B|288:156|288:156|276:184|296:204,1,95,12|0,0:0|0:0,0:0:0
300,296,41246,2,0,B|348:268|356:224,1,95,0|2,0:0|0:0,0:0:0
212,296,41579,2,0,B|164:268|156:224,1,95,8|0,0:0|0:0,0:0:0
108,212,41829,1,8,0:0:0
96,164,41913,1,2,0:0:0
80,72,42079,5,2,0:0:0
168,32,42246,1,8,0:0:0
224,104,42413,1,8,0:0:0
224,104,42496,1,8,0:0:0
224,104,42579,1,0,0:0:0
316,80,42746,1,2,0:0:0
368,160,42913,1,8,0:0:0
368,160,43079,1,2,0:0:0
412,244,43246,6,8,P|456:324,2,63.3333333333333
312,292,43579,2,8,P|288:376,2,63.3333333333333
160,360,43913,1,2,0:0:0
96,352,44024,1,2,0:0:0
60,300,44135,1,2,0:0:0
76,240,44246,5,2,0:0:0
136,220,44357,1,2,0:0:0
184,260,44468,1,2,0:0:0
192,312,44579,6,0,B|188:276|188:276|208:256|180:216,1,95,4|0,0:0|0:0,0:0:0
144,196,45079,1,2,0:0:0
108,164,45246,1,2,0:0:0
100,116,45413,1,0,0:0:0
128,80,45579,1,8,0:0:0
160,60,45746,2,8,B|211:53|233:3,1,95,0|0,0:0|0:0,0:0:0
312,68,46246,6,0,B|292:128,1,47.5,0|2,0:0|0:0,0:0:0
424,128,46579,2,0,B|370:161,1,47.5,2|0,0:0|0:0,0:0:0
424,264,46913,2,0,B|361:254,1,47.5,8|0,0:0|0:0,0:0:0
256,260,47246,2,0,B|232:232|232:232|216:256|168:240,1,95,0|0,0:0|0:0,0:0:0
132,240,47746,1,2,0:0:0
40,188,47913,2,0,B|80:152,1,47.5,2|0,0:0|0:0,0:0:0
164,156,48246,1,8,0:0:0
136,76,48413,6,0,B|152:-4|220:-28|284:32,1,190,0|2,0:0|0:0,0:0:0
220,84,49246,6,0,B|252:128,1,47.5
284,288,49579,2,0,B|252:244,1,47.5,12|0,0:0|0:0,0:0:0
184,312,49913,6,0,B|124:220,1,95,0|0,0:0|0:0,0:0:0
256,248,50246,1,8,0:0:0
360,260,50413,6,0,B|420:168,1,95,4|0,0:0|0:0,0:0:0
256,248,50746,1,2,0:0:0
256,248,50913,1,8,0:0:0
164,180,51079,6,0,B|83:92,1,118.75,4|0,0:0|0:0,0:0:0
256,248,51413,1,2,0:0:0
256,248,51579,1,8,0:0:0
324,144,51746,6,0,B|372:25,1,123.499994346619,4|0,0:0|0:0,0:0:0
256,248,52079,1,2,0:0:0
212,124,52246,6,0,B|156:-8,1,132.999995941162,12|12,0:0|0:0,0:0:0
156,272,52579,6,0,P|212:252|212:252|224:236|180:196|256:164|328:196|288:236|300:252|300:252|380:272,3,285.000010871888,4|8|8|8,0:0|0:0|0:0|0:0,0:0:0
256,368,53746,1,8,0:0:0
124,72,54079,5,0,0:0:0
312,192,54413,1,0,0:0:0
200,192,54579,1,0,0:0:0
384,68,54829,1,0,0:0:0
384,68,55079,1,0,0:0:0
460,268,55246,6,0,B|360:268,1,95,8|0,0:0|0:0,0:0:0
316,264,55496,1,0,0:0:0
344,228,55579,2,0,B|272:140,1,95,8|2,0:0|0:0,0:0:0
164,80,55913,2,0,B|220:80|288:80,1,95,8|2,0:0|0:0,0:0:0
353,80,56246,2,0,B|297:80|229:80,1,95,8|2,0:0|0:0,0:0:0
128,232,56579,2,0,B|176:200|188:144,2,95,8|0|8,0:0|0:0|0:0,0:0:0
36,212,57079,2,0,B|21:252|47:304,1,95,2|8,0:0|0:0,0:0:0
180,292,57413,5,2,0:0:0
272,264,57579,1,8,0:0:0
324,344,57746,1,2,0:0:0
412,304,57913,2,0,B|403:261|355:229,1,95,8|0,0:0|0:0,0:0:0
308,236,58163,1,0,0:0:0
272,264,58246,1,8,0:0:0
184,176,58413,5,2,0:0:0
184,176,58496,1,0,0:0:0
184,176,58579,2,0,B|128:152|92:128,1,95,8|2,0:0|0:0,0:0:0
256,32,58913,1,8,0:0:0
256,324,59079,1,2,0:0:0
176,288,59246,6,0,B|120:264|84:240,1,95,8|2,0:0|0:0,0:0:0
91,244,59579,6,0,B|132:192|88:136,1,104.500003189087,8|2,0:0|0:0,0:0:0
96,148,59913,6,0,B|196:64,1,118.75,12|2,0:0|0:0,0:0:0
188,72,60246,6,0,B|256:36|256:36|328:76,1,142.500005435944,12|2,0:0|0:0,0:0:0
376,140,60579,6,0,B|376:204|376:204|348:240,1,95,12|2,0:0|0:0,0:0:0
147,230,60913,2,0,B|132:204|132:204|132:140,1,95,8|2,0:0|0:0,0:0:0
316,64,61246,2,0,B|271:110|271:110|272:144,2,95,8|2|8,0:0|0:0|0:0,0:0:0
412,60,61746,6,0,B|472:152,1,95,2|8,0:0|0:0,0:0:0
384,192,62079,1,2,0:0:0
460,248,62246,2,0,B|408:336,1,95,8|2,0:0|0:0,0:0:0
304,260,62579,2,0,B|276:164,1,95,8|2,0:0|0:0,0:0:0
180,260,62913,2,0,B|137:345,1,95,8|2,0:0|0:0,0:0:0
56,272,63246,6,0,B|112:184|48:88,1,190,8|8,0:0|0:0,0:0:0
168,116,63746,1,2,0:0:0
256,320,63913,1,8,0:0:0
344,116,64079,1,2,0:0:0
256,248,64246,1,8,0:0:0
256,248,64413,1,2,0:0:0
168,116,64579,6,0,B|196:88|228:92|228:132|220:152,1,95,8|2,0:0|0:0,0:0:0
344,116,64913,2,0,B|316:88|284:92|284:132|292:152,1,95,8|2,0:0|0:0,0:0:0
256,320,65246,2,0,B|256:220,1,95,8|2,0:0|0:0,0:0:0
212,64,65579,6,0,B|224:0|268:0|300:24|304:56|292:88,1,142.500005435944,12|2,0:0|0:0,0:0:0
361,223,65913,6,0,B|337:175|321:207|321:207|297:155,1,95,8|2,0:0|0:0,0:0:0
260,160,66163,1,0,0:0:0
208,176,66246,2,0,B|193:207|193:207|177:175|153:223,1,95,8|2,0:0|0:0,0:0:0
160,320,66579,2,0,B|288:320,1,95,8|2,0:0|0:0,0:0:0
350,321,66913,2,0,B|222:321,1,95,8|2,0:0|0:0,0:0:0
132,232,67246,2,0,B|216:168,1,95,8|2,0:0|0:0,0:0:0
288,120,67579,1,8,0:0:0
360,228,67746,2,0,B|444:164,1,95,2|8,0:0|0:0,0:0:0
364,108,68079,5,2,0:0:0
435,170,68246,1,8,0:0:0
496,96,68413,1,2,0:0:0
320,52,68579,1,8,0:0:0
272,48,68663,1,0,0:0:0
232,72,68746,1,0,0:0:0
136,56,68913,1,8,0:0:0
44,76,69079,1,2,0:0:0
104,152,69246,5,8,0:0:0
152,320,69413,1,2,0:0:0
176,228,69579,1,8,0:0:0
192,136,69746,2,0,B|244:176|296:112,1,95,2|8,0:0|0:0,0:0:0
368,104,70079,5,2,0:0:0
448,156,70246,1,8,0:0:0
368,208,70413,1,2,0:0:0
448,156,70579,1,12,0:0:0
456,252,70746,1,2,0:0:0
364,312,70913,2,0,B|280:252,1,95,12|2,0:0|0:0,0:0:0
192,136,71246,6,0,B|176:232,1,95,8|2,0:0|0:0,0:0:0
152,320,71579,2,0,B|80:248,1,95,8|2,0:0|0:0,0:0:0
20,180,71913,1,8,0:0:0
92,120,72079,1,2,0:0:0
36,44,72246,1,8,0:0:0
192,136,72413,6,0,B|208:40,1,95,2|8,0:0|0:0,0:0:0
256,192,72746,1,2,0:0:0
320,248,72913,2,0,B|304:344,1,95,8|2,0:0|0:0,0:0:0
180,232,73246,2,0,B|100:288,1,95,8|2,0:0|0:0,0:0:0
192,136,73579,2,0,B|95:120,1,95,8|2,0:0|0:0,0:0:0
328,140,73913,6,0,B|384:44|504:36,1,190,8|8,0:0|0:0,0:0:0
472,84,74329,1,8,0:0:0
440,120,74413,1,8,0:0:0
424,164,74496,1,8,0:0:0
420,212,74579,1,8,0:0:0
412,308,74746,2,0,B|364:284|312:300,1,95,2|0,0:0|0:0,0:0:0
192,136,75079,5,8,0:0:0
256,336,75413,1,8,0:0:0
256,240,75579,1,8,0:0:0
320,136,75913,1,0,0:0:0
80,140,76246,6,0,B|24:128|24:64|60:28|112:32|132:80,1,190,8|2,0:0|0:0,0:0:0
304,44,76579,6,0,B|256:56|204:44,1,95,8|2,0:0|0:0,0:0:0
192,140,76913,2,0,B|144:152|92:140,1,95,8|2,0:0|0:0,0:0:0
188,260,77246,2,0,B|230:234|258:189,1,95,8|2,0:0|0:0,0:0:0
324,260,77579,2,0,B|281:234|253:189,1,95,8|2,0:0|0:0,0:0:0
320,140,77913,2,0,B|368:152|420:140,2,95,8|2|8,0:0|0:0|0:0,0:0:0
209,45,78413,2,0,B|256:56|304:44,1,95,2|8,0:0|0:0,0:0:0
256,128,78746,1,0,0:0:0
256,228,78913,2,0,B|256:336,1,95,8|2,0:0|0:0,0:0:0
152,224,79246,6,0,B|192:184|184:152|184:152|204:128,1,95,8|2,0:0|0:0,0:0:0
360,224,79579,2,0,B|320:184|328:152|328:152|319:142,1,95,8|2,0:0|0:0,0:0:0
192,144,79913,2,8,B|179:145|179:145|164:175|108:180,1,95,8|2,0:0|0:0,0:0:0
404,180,80246,2,0,B|391:177|391:177|376:147|320:142,1,95,8|2,0:0|0:0,0:0:0
180,80,80579,5,8,0:0:0
256,188,80746,1,2,0:0:0
344,88,80913,1,8,0:0:0
256,188,81079,1,2,0:0:0
100,24,81413,5,2,0:0:0
412,24,81579,1,12,0:0:0
472,328,81913,6,0,B|424:232,1,95,8|2,0:0|0:0,0:0:0
340,276,82246,2,0,B|297:360,1,95,8|2,0:0|0:0,0:0:0
232,292,82579,2,0,B|204:192,1,95,8|2,0:0|0:0,0:0:0
120,244,82913,2,0,B|94:335,1,95,8|2,0:0|0:0,0:0:0
70,32,83246,2,0,B|96:124,2,95,8|2|8,0:0|0:0|0:0,0:0:0
70,32,83746,2,0,B|120:44|164:32,1,95,2|8,0:0|0:0,0:0:0
436,232,84246,2,0,B|384:252|384:308,1,95,8|2,0:0|0:0,0:0:0
384,304,84579,6,0,B|360:252|392:200,1,95,8|2,0:0|0:0,0:0:0
472,168,84913,2,2,B|452:114|392:100,1,95,8|2,0:0|0:0,0:0:0
324,152,85246,2,0,B|299:99|332:48,1,95,8|2,0:0|0:0,0:0:0
324,60,85496,1,0,0:0:0
324,60,85579,1,2,0:0:0
256,264,85746,2,0,B|256:156,1,95,8|0,0:0|0:0,0:0:0
176,116,86079,5,8,0:0:0
256,88,86246,1,8,0:0:0
416,188,86579,1,8,0:0:0
416,60,86746,1,2,0:0:0
416,60,86829,1,2,0:0:0
416,60,86913,1,8,0:0:0
416,60,86996,1,8,0:0:0
416,60,87079,1,2,0:0:0
360,136,87246,1,2,0:0:0
396,248,87413,5,0,0:0:0
304,220,87579,1,8,0:0:0
260,304,87746,1,0,0:0:0
388,280,87913,1,0,0:0:0
280,212,88079,1,2,0:0:0
268,332,88246,1,8,0:0:0
412,336,88413,2,0,B|456:296|456:240,1,95,0|2,0:0|0:0,0:0:0
384,192,88746,5,0,0:0:0
460,132,88913,2,0,B|460:89|416:49,1,95,8|0,0:0|0:0,0:0:0
288,176,89246,1,0,0:0:0
356,108,89413,1,2,0:0:0
288,176,89579,1,8,0:0:0
416,48,89746,2,0,B|364:56|328:16,1,95,8|2,0:0|0:0,0:0:0
268,92,90079,5,0,0:0:0
192,36,90246,1,8,0:0:0
144,116,90413,1,0,0:0:0
52,96,90579,1,0,0:0:0
28,188,90746,1,2,0:0:0
216,192,90913,1,8,0:0:0
60,280,91079,6,0,B|108:296|136:352,1,95,8|2,0:0|0:0,0:0:0
132,340,91413,2,0,B|154:294|134:235,1,95,0|8,0:0|0:0,0:0:0
80,176,91746,1,0,0:0:0
136,24,91913,2,0,B|158:69|138:128,1,95,0|2,0:0|0:0,0:0:0
216,192,92246,1,8,0:0:0
216,192,92329,1,8,0:0:0
216,192,92413,1,8,0:0:0
216,192,92496,1,8,0:0:0
216,192,92579,1,4,0:0:0
280,60,92746,5,0,0:0:0
368,20,92913,1,8,0:0:0
424,96,93079,1,0,0:0:0
332,124,93246,1,0,0:0:0
400,56,93413,1,2,0:0:0
480,108,93579,1,8,0:0:0
424,188,93746,1,8,0:0:0
332,208,93913,1,2,0:0:0
332,208,94246,6,0,B|360:156|328:120,1,95,8|0,0:0|0:0,0:0:0
308,32,94579,2,0,B|256:44|256:104,1,95,0|2,0:0|0:0,0:0:0
180,208,94913,2,0,B|148:156|188:112,1,95,8|0,0:0|0:0,0:0:0
192,80,95163,1,8,0:0:0
160,48,95246,1,2,0:0:0
72,84,95413,5,0,0:0:0
72,84,95579,2,0,B|36:192,1,95,8|0,0:0|0:0,0:0:0
180,208,95913,2,0,B|215:316,1,95,0|2,0:0|0:0,0:0:0
76,356,96246,2,0,B|68:248,1,95,8|8,0:0|0:0,0:0:0
72,84,96579,6,8,P|104:140,2,63.3333333333333
220,24,96913,2,8,P|232:96,2,63.3333333333333
376,56,97246,1,2,0:0:0
428,92,97357,1,2,0:0:0
456,148,97468,1,2,0:0:0
460,212,97579,1,2,0:0:0
448,276,97691,1,2,0:0:0
424,336,97802,1,2,0:0:0
396,364,97913,6,0,B|368:332|328:356|328:356|304:340,1,95,4|0,0:0|0:0,0:0:0
268,324,98413,1,2,0:0:0
228,296,98579,1,2,0:0:0
228,248,98746,1,0,0:0:0
264,216,98913,1,8,0:0:0
304,192,99079,6,0,B|280:160|280:160|316:128|288:96,1,95,0|0,0:0|0:0,0:0:0
196,36,99579,2,0,B|184:88,1,47.5,0|2,0:0|0:0,0:0:0
72,124,99913,2,0,B|87:175,1,47.5,2|0,0:0|0:0,0:0:0
160,268,100246,2,0,B|135:315,1,47.5,8|0,0:0|0:0,0:0:0
256,344,100579,2,0,B|248:312|292:272|320:288,1,95,2|0,0:0|0:0,0:0:0
356,308,101079,1,2,0:0:0
392,340,101246,2,2,B|448:332,1,47.5,2|0,0:0|0:0,0:0:0
439,333,101746,1,0,0:0:0
440,332,101913,2,0,B|480:276|480:276|416:236|456:156,1,190,2|2,0:0|0:0,0:0:0
440,76,102913,6,0,B|420:56|380:64,1,47.5,4|0,0:0|0:0,0:0:0
300,52,103246,6,0,B|244:44|196:84,1,95,4|0,0:0|0:0,0:0:0
256,192,103579,1,8,0:0:0
228,312,103746,6,0,B|284:320|336:276,1,104.500003189087,4|0,0:0|0:0,0:0:0
256,192,104079,1,2,0:0:0
256,192,104246,1,8,0:0:0
208,76,104413,6,0,B|159:105|148:172,1,104.500003189087,4|0,0:0|0:0,0:0:0
256,192,104746,1,2,0:0:0
256,192,104913,1,8,0:0:0
332,288,105079,6,0,B|396:262|408:186,1,123.499994346619,4|0,0:0|0:0,0:0:0
256,192,105413,1,2,0:0:0
148,160,105579,6,8,B|99:211|114:294,1,132.999995941162,12|0,0:0|0:0,0:0:0
324,108,105913,2,0,P|304:28|304:28|256:100|208:28|208:28|192:108,3,285.000010871888,4|8|8|8,0:0|0:0|0:0|0:0,0:0:0
256,232,107079,1,8,0:0:0
124,312,107413,5,0,0:0:0
312,192,107663,1,0,0:0:0
200,192,107913,1,0,0:0:0
384,316,108163,1,0,0:0:0
384,316,108413,1,0,0:0:0
376,224,108579,6,0,B|348:228|328:216|316:192|316:192|276:192,1,95,12|0,0:0|0:0,0:0:0
256,164,108829,1,0,0:0:0
217,192,108913,2,0,B|196:192|196:192|184:216|164:228|136:224,1,95,8|2,0:0|0:0,0:0:0
164,344,109246,2,0,B|212:324|276:344,1,95,8|2,0:0|0:0,0:0:0
352,344,109579,2,0,B|304:324|240:344,1,95,8|2,0:0|0:0,0:0:0
376,224,109913,6,0,B|440:132,1,95,8|2,0:0|0:0,0:0:0
256,248,110246,1,8,0:0:0
136,224,110413,2,0,B|72:132,1,95,2|8,0:0|0:0,0:0:0
120,60,110746,1,2,0:0:0
256,124,110913,1,8,0:0:0
392,60,111079,1,2,0:0:0
376,224,111246,6,0,B|368:176|332:136,1,95,8|2,0:0|0:0,0:0:0
296,52,111579,1,8,0:0:0
252,28,111663,1,0,0:0:0
204,28,111746,1,2,0:0:0
156,32,111829,1,0,0:0:0
120,60,111913,2,0,P|96:116|88:168,1,95,8|2,0:0|0:0,0:0:0
184,152,112246,1,8,0:0:0
124,232,112413,1,0,0:0:0
220,224,112579,6,0,B|304:140,1,95,8|2,0:0|0:0,0:0:0
248,312,112913,6,0,B|336:220,1,104.500003189087,8|2,0:0|0:0,0:0:0
352,312,113246,6,0,B|444:208,1,118.75,8|2,0:0|0:0,0:0:0
420,364,113579,6,8,B|516:236,1,142.500005435944,8|2,0:0|0:0,0:0:0
444,136,113913,6,0,B|424:84|452:40,1,95,12|0,0:0|0:0,0:0:0
356,56,114246,1,8,0:0:0
356,56,114413,1,2,0:0:0
304,136,114579,2,0,B|255:109|248:57,1,95,8|2,0:0|0:0,0:0:0
152,52,114913,1,8,0:0:0
56,76,115079,6,0,B|104:102|111:154,1,95,2|8,0:0|0:0,0:0:0
36,212,115413,1,2,0:0:0
110,149,115579,1,8,0:0:0
160,232,115746,1,2,0:0:0
36,344,115913,6,0,B|84:317|91:265,1,95,8|2,0:0|0:0,0:0:0
90,270,116246,2,0,B|79:315|116:357,1,95,8|2,0:0|0:0,0:0:0
176,284,116579,2,0,B|256:236|256:236|340:284,1,190,8|8,0:0|0:0,0:0:0
339,283,117079,1,2,0:0:0
393,359,117246,2,0,B|430:317|420:272,1,95,8|2,0:0|0:0,0:0:0
368,192,117579,1,8,0:0:0
340,284,117746,1,2,0:0:0
452,152,117913,6,0,B|476:100,2,47.5,8|0|2,0:0|0:0|0:0,0:0:0
256,108,118246,2,0,B|256:12,1,95,8|2,0:0|0:0,0:0:0
60,152,118579,2,0,B|36:100,2,47.5,8|0|2,0:0|0:0|0:0,0:0:0
216,176,118913,2,0,P|236:240|240:156,1,190
412,64,119246,6,0,B|458:170,1,95,12|0,0:0|0:0,0:0:0
400,328,119579,2,0,B|372:215,1,95,8|2,0:0|0:0,0:0:0
300,164,119913,2,0,B|277:256,1,95,8|2,0:0|0:0,0:0:0
256,348,120246,1,8,0:0:0
200,272,120413,1,2,0:0:0
400,328,120579,6,0,B|452:300|440:240,1,95,8|2,0:0|0:0,0:0:0
442,249,120913,1,8,0:0:0
388,144,121079,2,0,B|371:87|421:53,1,95,2|8,0:0|0:0,0:0:0
324,28,121413,1,2,0:0:0
256,96,121579,1,8,0:0:0
196,24,121746,1,2,0:0:0
52,132,121913,5,8,0:0:0
100,232,122079,1,2,0:0:0
116,232,122163,1,0,0:0:0
128,240,122246,1,8,0:0:0
136,252,122329,1,0,0:0:0
136,268,122413,1,2,0:0:0
132,280,122496,1,0,0:0:0
124,292,122579,6,0,B|172:272|216:296,1,95,8|2,0:0|0:0,0:0:0
252,384,122913,1,8,0:0:0
388,292,123079,2,0,B|340:272|296:296,1,95,2|8,0:0|0:0,0:0:0
312,196,123413,1,2,0:0:0
216,212,123579,6,0,B|160:196|140:140,1,104.500003189087,8|2,0:0|0:0,0:0:0
244,124,123912,6,0,B|196:72|220:4,1,118.75,8|2,0:0|0:0,0:0:0
324,108,124245,6,0,B|304:28|376:-16,1,142.500005435944,8|2,0:0|0:0,0:0:0
312,196,124579,6,0,B|328:292,1,95,8|2,0:0|0:0,0:0:0
412,248,124912,2,0,B|484:176,1,95,8|2,0:0|0:0,0:0:0
384,160,125246,1,8,0:0:0
452,92,125412,1,2,0:0:0
388,20,125579,1,8,0:0:0
324,108,125746,6,0,B|308:12,1,95,2|8,0:0|0:0,0:0:0
256,192,126079,1,2,0:0:0
328,256,126246,2,0,B|312:352,1,95,8|2,0:0|0:0,0:0:0
212,280,126579,2,0,B|132:336,1,95,8|2,0:0|0:0,0:0:0
156,188,126912,2,0,B|59:172,1,95,8|2,0:0|0:0,0:0:0
48,76,127246,6,0,B|104:28|184:40|220:112,1,190,4|8,0:0|0:0,0:0:0
248,132,127663,1,8,0:0:0
276,176,127746,1,8,0:0:0
268,228,127829,1,8,0:0:0
256,276,127913,6,0,B|304:248|356:288,1,95,8|2,0:0|0:0,0:0:0
420,328,128246,1,0,0:0:0
256,276,128413,1,8,0:0:0
92,328,128746,1,8,0:0:0
72,192,128913,1,8,0:0:0
452,192,129246,1,8,0:0:0
356,28,129579,6,8,B|318:41|304:100|349:146|409:132|418:84,1,190,0|0,0:0|0:0,0:0:0
452,192,129913,6,0,B|452:264|452:264|456:284|472:288|480:276,1,95,4|0,0:0|0:0,0:0:0
368,352,130246,2,0,B|368:280|368:280|364:260|348:256|340:268,1,95,8|0,0:0|0:0,0:0:0
320,172,130579,1,0,0:0:0
396,112,130746,1,0,0:0:0
452,192,130913,1,2,0:0:0
320,172,131079,2,0,B|325:164|321:180|301:184|301:184|229:184,1,95,2|0,0:0|0:0,0:0:0
144,108,131413,2,0,B|138:115|142:99|162:95|162:95|234:95,1,95,8|0,0:0|0:0,0:0:0
324,92,131746,1,8,0:0:0
324,92,131829,1,8,0:0:0
324,92,131913,1,8,0:0:0
408,52,132079,1,2,0:0:0
464,132,132246,6,0,B|480:184|464:236,1,95,2|2,0:0|0:0,0:0:0
428,328,132579,2,0,B|406:277|369:254,1,95,2|0,0:0|0:0,0:0:0
276,272,132913,6,0,B|262:230|278:178,1,95,8|0,0:0|0:0,0:0:0
324,92,133246,1,2,0:0:0
396,28,133413,1,2,0:0:0
456,100,133579,1,2,0:0:0
388,164,133746,1,2,0:0:0
320,40,133913,1,2,0:0:0
192,40,134079,1,8,0:0:0
192,40,134163,1,8,0:0:0
192,40,134246,1,0,0:0:0
208,200,134413,2,0,B|212:260|256:276|256:276|296:260|303:199,1,190,0|2,0:0|0:0,0:0:0
388,164,134913,2,0,B|388:268,1,95,8|0,0:0|0:0,0:0:0
360,348,135246,5,4,0:0:0
276,308,135413,1,0,0:0:0
388,164,135579,2,0,B|386:205|352:250,1,95,2|0,0:0|0:0,0:0:0
276,308,135913,1,2,0:0:0
276,212,136079,2,0,B|277:170|311:125,1,95,2|8,0:0|0:0,0:0:0
388,68,136413,1,0,0:0:0
224,100,136579,6,0,B|222:142|188:187,1,95,2|0,0:0|0:0,0:0:0
116,252,136913,1,2,0:0:0
96,160,137079,2,0,B|97:118|131:73,1,95,0|2,0:0|0:0,0:0:0
208,16,137413,1,0,0:0:0
224,100,137579,2,0,B|260:136|294:170,1,95,8|0,0:0|0:0,0:0:0
256,192,137913,12,0,139079,0:0:0
408,282,139246,6,0,B|470:248|487:169|420:152|383:200|400:228,1,190,8|8,0:0|0:0,0:0:0
332,290,139746,1,2,0:0:0
332,290,139829,1,2,0:0:0
332,290,139913,1,2,0:0:0
151,296,140079,1,2,0:0:0
111,274,140163,1,2,0:0:0
74,242,140246,1,8,0:0:0
43,206,140329,1,0,0:0:0
40,160,140413,6,0,B|92:172|140:160,1,95,4|2,0:0|0:0,0:0:0
288,52,140913,1,8,0:0:0
388,64,141079,1,0,0:0:0
288,52,141246,1,2,0:0:0
464,136,141413,1,2,0:0:0
372,156,141579,1,8,0:0:0
464,232,141746,2,0,B|472:176|464:132,1,95,0|2,0:0|0:0,0:0:0
372,156,142079,5,0,0:0:0
388,64,142246,1,8,0:0:0
288,52,142413,2,0,B|268:108|276:160,1,95,0|0,0:0|0:0,0:0:0
264,240,142746,2,8,B|212:209|185:164,1,95,0|8,0:0|0:0,0:0:0
128,48,143079,2,0,B|64:64|40:144|84:216,1,190,0|0,0:0|0:0,0:0:0
112,296,143579,5,8,0:0:0
124,288,143663,1,0,0:0:0
140,288,143746,1,0,0:0:0
152,296,143829,1,0,0:0:0
156,308,143913,2,0,B|208:288|256:320,1,95,2|2,0:0|0:0,0:0:0
400,312,144246,1,8,0:0:0
396,204,144413,2,0,B|340:202|306:249,1,95,0|2,0:0|0:0,0:0:0
248,312,144746,1,0,0:0:0
244,216,144913,1,8,0:0:0
156,180,145079,6,0,B|224:152|236:100,1,95,0|2,0:0|0:0,0:0:0
396,204,145413,2,0,B|328:232|316:284,1,95,2|8,0:0|0:0,0:0:0
456,120,145746,5,0,0:0:0
456,104,145829,1,8,0:0:0
456,88,145913,2,0,B|412:64|400:16,1,95,2|0,0:0|0:0,0:0:0
324,72,146246,2,0,B|368:96|380:144,1,95,8|0,0:0|0:0,0:0:0
300,196,146579,1,2,0:0:0
380,144,146746,1,2,0:0:0
440,216,146913,1,8,0:0:0
420,352,147079,6,0,B|376:328|360:276,1,95,0|2,0:0|0:0,0:0:0
300,196,147413,1,0,0:0:0
276,288,147579,1,8,0:0:0
180,280,147746,2,0,B|165:327|121:351,1,95,0|2,0:0|0:0,0:0:0
88,264,148079,1,0,0:0:0
144,188,148246,6,0,B|158:140|202:116,1,95,8|0,0:0|0:0,0:0:0
128,56,148579,2,0,B|113:103|69:127,1,95,2|0,0:0|0:0,0:0:0
208,32,148913,1,8,0:0:0
204,116,149079,2,0,B|252:130|296:106,1,95,0|2,0:0|0:0,0:0:0
296,12,149413,1,2,0:0:0
476,160,149579,1,8,0:0:0
436,24,149746,1,8,0:0:0
304,96,149913,5,8,0:0:0
340,88,149996,1,8,0:0:0
376,100,150079,1,8,0:0:0
400,128,150163,1,8,0:0:0
400,164,150246,1,8,0:0:0
376,192,150329,1,8,0:0:0
352,224,150413,5,8,0:0:0
368,260,150496,1,8,0:0:0
356,296,150579,1,2,0:0:0
320,312,150663,1,8,0:0:0
288,292,150746,1,8,0:0:0
252,292,150829,1,8,0:0:0
224,316,150913,1,12,0:0:0
72,284,151079,6,0,B|112:252|100:184,1,95,2|0,0:0|0:0,0:0:0
48,120,151413,1,0,0:0:0
132,76,151579,2,8,B|183:77|217:17,1,95,8|0,0:0|0:0,0:0:0
420,40,151913,2,8,B|368:38|334:98,1,95,2|2,0:0|0:0,0:0:0
424,136,152246,1,8,0:0:0
364,208,152413,6,8,B|415:206|449:266,1,95,0|2,0:0|0:0,0:0:0
360,304,152746,1,0,0:0:0
240,212,152913,2,8,B|188:213|154:153,1,95,8|0,0:0|0:0,0:0:0
72,164,153246,2,8,B|115:137|175:171,1,95,2|2,0:0|0:0,0:0:0
240,120,153579,2,8,B|188:118|154:178,1,95,8|0,0:0|0:0,0:0:0
163,166,153913,6,0,B|141:219|169:327|169:327|197:311,1,190,2|8,0:0|0:0,0:0:0
364,208,154413,2,0,B|385:154|357:46|357:46|329:62,1,190,0|2,0:0|0:0,0:0:0
220,212,155079,6,0,B|220:280|220:280|228:312|256:288,1,95,0|0,0:0|0:0,0:0:0
256,32,155413,1,0,0:0:0
192,108,155579,1,8,0:0:0
320,112,155746,2,0,B|372:84|364:28,1,95,0|2,0:0|0:0,0:0:0
428,148,156079,1,2,0:0:0
492,232,156246,2,0,B|440:260|448:316,1,95,8|0,0:0|0:0,0:0:0
360,272,156579,5,4,0:0:0
336,300,156663,1,0,0:0:0
300,316,156746,1,0,0:0:0
264,308,156829,1,0,0:0:0
248,276,156913,1,8,0:0:0
256,240,156996,1,0,0:0:0
268,204,157079,1,0,0:0:0
264,164,157163,1,0,0:0:0
236,140,157246,5,2,0:0:0
200,132,157329,1,0,0:0:0
168,152,157413,1,2,0:0:0
140,176,157496,1,0,0:0:0
104,172,157579,1,8,0:0:0
80,144,157663,1,0,0:0:0
76,108,157746,1,0,0:0:0
92,76,157829,1,0,0:0:0
116,44,157913,5,2,0:0:0
148,28,157996,1,0,0:0:0
180,48,158079,1,0,0:0:0
220,52,158163,1,0,0:0:0
248,28,158246,2,0,B|296:48|356:28,1,95,8|0,0:0|0:0,0:0:0
436,44,158579,1,2,0:0:0
384,124,158746,1,2,0:0:0
452,188,158913,2,0,B|480:231|470:294,1,95,8|0,0:0|0:0,0:0:0
360,314,159246,2,8,B|296:307|249:254|249:254|230:245|172:188|184:112|288:84|352:158|358:261|168:252|168:252|125:250|95:209,1,570,4|8,0:0|0:0,0:0:0
256,192,160413,12,0,161746,0:0:0
256,192,161913,5,0,0:0:0
256,192,162246,1,2,0:0:0
228,208,162579,5,0,0:0:0
256,160,162746,1,0,0:0:0
284,208,162913,1,2,0:0:0
196,224,163079,5,0,0:0:0
256,120,163246,1,0,0:0:0
316,224,163413,1,0,0:0:0
256,328,163746,1,0,0:0:0
256,160,164079,5,0,0:0:0
236,204,164246,1,2,0:0:0
284,208,164413,1,0,0:0:0
168,252,164579,5,0,0:0:0
352,252,164746,1,0,0:0:0
256,80,164913,1,2,0:0:0
208,224,165079,5,0,0:0:0
312,224,165246,1,0,0:0:0
256,124,165413,1,0,0:0:0
256,192,165579,5,2,0:0:0
256,192,165746,12,0,166913,0:0:0
136,252,167246,6,0,B|192:264|212:316,1,95,0|0,0:0|0:0,0:0:0
256,192,167579,1,8,0:0:0
303,307,167913,2,0,B|320:264|376:252,1,95,0|0,0:0|0:0,0:0:0
256,192,168246,1,8,0:0:0
376,132,168413,6,0,B|320:120|303:76,1,95,0|0,0:0|0:0,0:0:0
256,192,168746,1,0,0:0:0
256,192,168913,1,8,0:0:0
208,76,169079,2,0,B|192:120|136:132,1,95,0|0,0:0|0:0,0:0:0
256,192,169579,1,8,0:0:0
163,289,169913,6,0,B|220:281|250:316,1,95,0|0,0:0|0:0,0:0:0
256,192,170246,1,8,0:0:0
339,283,170413,2,0,B|340:237|389:207,1,95,0|0,0:0|0:0,0:0:0
256,192,170746,1,0,0:0:0
256,192,170913,1,8,0:0:0
376,132,171079,6,0,B|320:120|303:76,1,95,0|0,0:0|0:0,0:0:0
256,20,171413,1,8,0:0:0
252,356,171579,1,8,0:0:0
256,96,171913,1,8,0:0:0
212,312,172246,6,0,B|195:276|227:224|291:224|324:276|304:316,1,190,8|0,0:0|0:0,0:0:0
440,192,172579,6,0,B|332:192,1,95,8|0,0:0|0:0,0:0:0
316,156,172829,1,0,0:0:0
296,200,172913,2,0,B|336:296,1,95,8|2,0:0|0:0,0:0:0
179,287,173246,2,0,B|216:200,1,95,8|2,0:0|0:0,0:0:0
252,112,173579,2,0,B|215:199,1,95,8|2,0:0|0:0,0:0:0
124,232,173913,5,8,0:0:0
84,148,174079,1,2,0:0:0
160,92,174246,1,8,0:0:0
252,112,174413,2,0,B|296:80|296:32,1,95,2|8,0:0|0:0,0:0:0
348,112,174746,1,2,0:0:0
440,96,174913,1,8,0:0:0
468,188,175079,1,2,0:0:0
376,216,175246,5,8,0:0:0
404,124,175413,1,2,0:0:0
492,164,175579,1,8,0:0:0
488,260,175746,1,2,0:0:0
404,304,175913,5,8,0:0:0
344,232,176079,1,2,0:0:0
428,188,176246,1,8,0:0:0
332,184,176413,6,0,B|372:144|352:92,1,95,2|8,0:0|0:0,0:0:0
256,132,176746,1,2,0:0:0
180,184,176913,6,0,B|140:128|168:72,1,104.500003189087,8|2,0:0|0:0,0:0:0
432,132,177246,6,0,B|476:68|432:4,1,118.75,8|2,0:0|0:0,0:0:0
180,184,177579,6,0,B|136:112|188:48,1,142.500005435944,8|2,0:0|0:0,0:0:0
28,220,177913,6,0,B|76:196|136:232,1,95,8|2,0:0|0:0,0:0:0
116,348,178246,2,0,B|132:297|200:280,1,95,8|2,0:0|0:0,0:0:0
284,364,178579,2,0,B|260:316|295:256,1,95,8|2,0:0|0:0,0:0:0
332,184,178913,1,8,0:0:0
456,360,179079,2,0,B|439:310|389:298,1,95,2|8,0:0|0:0,0:0:0
288,272,179413,5,2,0:0:0
332,184,179579,1,8,0:0:0
420,216,179746,1,2,0:0:0
428,120,179913,2,0,B|500:32,1,95,8|2,0:0|0:0,0:0:0
488,46,180246,2,0,B|440:68|392:40,1,95,8|2,0:0|0:0,0:0:0
324,124,180579,2,0,B|308:180|256:200|200:180|188:120,1,190,8|8,0:0|0:0,0:0:0
256,20,181079,1,2,0:0:0
256,112,181246,2,0,B|256:228,2,95,8|2|8,0:0|0:0|0:0,0:0:0
328,48,181746,1,4,0:0:0
360,132,181913,5,8,0:0:0
396,144,181996,1,0,0:0:0
432,156,182079,1,2,0:0:0
468,168,182163,1,0,0:0:0
504,176,182246,1,8,0:0:0
468,188,182329,5,0,0:0:0
432,200,182412,1,2,0:0:0
396,212,182496,1,0,0:0:0
360,228,182579,1,8,0:0:0
392,248,182662,1,0,0:0:0
428,260,182745,1,2,0:0:0
464,276,182829,1,0,0:0:0
480,312,182913,2,0,B|436:300|436:300|380:316,1,95,8|2,0:0|0:0,0:0:0
208,296,183246,6,0,B|232:252|232:252|220:204,1,95,8|2,0:0|0:0,0:0:0
256,192,183496,1,0,0:0:0
292,208,183579,2,0,B|281:251|281:251|305:295,1,95,8|2,0:0|0:0,0:0:0
308,120,183913,2,0,B|252:32,1,95,8|2,0:0|0:0,0:0:0
204,120,184246,2,0,B|260:32,1,95,8|2,0:0|0:0,0:0:0
372,176,184579,6,0,B|412:136|408:80,1,95,8|2,0:0|0:0,0:0:0
456,228,184913,1,8,0:0:0
368,256,185079,2,0,B|328:296|332:352,1,95,2|8,0:0|0:0,0:0:0
268,272,185413,1,2,0:0:0
184,316,185579,1,8,0:0:0
140,232,185746,1,2,0:0:0
88,152,185913,5,8,0:0:0
104,108,185996,1,0,0:0:0
128,88,186079,1,2,0:0:0
156,64,186163,1,0,0:0:0
192,48,186246,1,8,0:0:0
228,40,186329,1,0,0:0:0
268,40,186413,2,0,B|284:100|256:160,1,95,2|8,0:0|0:0,0:0:0
248,168,186663,5,0,0:0:0
284,172,186746,1,2,0:0:0
320,180,186829,1,0,0:0:0
356,192,186913,1,8,0:0:0
388,212,186996,1,0,0:0:0
412,240,187079,6,0,B|460:196|448:120,1,95,2|8,0:0|0:0,0:0:0
356,192,187413,1,2,0:0:0
304,256,187579,6,0,B|248:168,1,104.500003189087,8|2,0:0|0:0,0:0:0
76,148,187913,6,0,B|124:24,1,118.75,12|2,0:0|0:0,0:0:0
324,52,188246,6,0,B|384:100|360:184,1,142.500005435944,12|2,0:0|0:0,0:0:0
440,320,188579,6,0,B|388:300|328:328,1,95,12|2,0:0|0:0,0:0:0
240,320,188913,2,0,B|262:269|324:246,1,95,8|2,0:0|0:0,0:0:0
396,220,189246,1,8,0:0:0
306,253,189413,1,2,0:0:0
284,164,189579,1,8,0:0:0
372,132,189746,6,0,B|320:52,1,95,2|8,0:0|0:0,0:0:0
284,164,190079,1,2,0:0:0
212,40,190246,2,0,B|206:135,1,95,8|2,0:0|0:0,0:0:0
168,308,190579,2,0,B|140:216,1,95,8|2,0:0|0:0,0:0:0
116,92,190913,2,8,B|64:172,1,95,8|2,0:0|0:0,0:0:0
64,171,191246,6,0,B|127:167|147:239,1,95,8|2,0:0|0:0,0:0:0
168,308,191579,1,8,0:0:0
208,332,191663,1,0,0:0:0
256,340,191746,1,2,0:0:0
304,340,191829,1,0,0:0:0
352,336,191913,2,0,B|320:280|352:224,1,95,8|2,0:0|0:0,0:0:0
420,192,192246,1,8,0:0:0
368,112,192413,5,8,0:0:0
284,152,192746,1,8,0:0:0
428,228,192913,1,8,0:0:0
392,64,193246,1,8,0:0:0
248,252,193413,1,8,0:0:0
248,252,193496,1,8,0:0:0
248,252,193579,1,8,0:0:0
140,224,193746,5,12,0:0:0
264,168,194079,1,8,0:0:0
332,280,194245,1,8,0:0:0
104,240,194579,1,8,0:0:0
368,320,194746,1,8,0:0:0
368,320,194829,1,8,0:0:0
368,320,194913,1,8,0:0:0
368,320,194996,1,8,0:0:0
368,320,195079,5,4,0:0:0
280,108,195413,1,8,0:0:0
60,260,195580,1,8,0:0:0
408,360,195913,1,8,0:0:0
316,40,196413,5,8,0:0:0
44,340,196746,1,8,0:0:0
488,272,196912,1,8,0:0:0
96,72,197246,1,8,0:0:0
256,260,197579,2,0,B|236:244|236:244|272:244|272:244|236:232|236:232|260:180|236:124,1,190,8|2,0:0|0:0,0:0:0
228,140,197829,5,2,0:0:0
216,132,197913,1,8,0:0:0
204,124,197996,1,8,0:0:0
196,112,198079,1,2,0:0:0
192,96,198163,1,2,0:0:0
192,80,198246,5,2,0:0:0
196,64,198329,1,2,0:0:0
200,52,198413,1,8,0:0:0
208,40,198496,1,2,0:0:0
220,32,198579,1,2,0:0:0
236,28,198663,1,2,0:0:0
252,28,198746,1,2,0:0:0
388,28,198913,5,12,0:0:0
416,52,198996,1,2,0:0:0
432,88,199079,1,2,0:0:0
428,124,199163,1,2,0:0:0
408,156,199246,6,0,B|360:136|308:160,1,95,12|0,0:0|0:0,0:0:0
280,188,199496,1,0,0:0:0
324,208,199579,2,0,B|360:248|324:304,1,95,8|2,0:0|0:0,0:0:0
188,152,199913,2,0,B|288:196|284:188,1,95,8|2,0:0|0:0,0:0:0
320,100,200246,2,0,B|280:201|277:193,1,95,8|2,0:0|0:0,0:0:0
252,276,200579,5,8,0:0:0
172,224,200746,1,2,0:0:0
108,296,200913,1,8,0:0:0
36,232,201079,2,0,B|84:184|88:92|44:48,1,190,2|2,0:0|0:0,0:0:0
144,72,201579,2,0,B|196:84|244:64,1,95,8|2,0:0|0:0,0:0:0
320,100,201913,2,0,B|336:58|382:30,1,95,8|2,0:0|0:0,0:0:0
404,156,202246,6,8,B|421:197|409:249,1,95,8|2,0:0|0:0,0:0:0
316,320,202579,2,8,B|298:278|310:226,1,95,8|2,0:0|0:0,0:0:0
320,100,202913,2,0,B|303:58|257:30,1,95,8|2,0:0|0:0,0:0:0
56,224,203246,2,0,B|120:232|188:176|192:112,1,190,8|8,0:0|0:0,0:0:0
144,284,203746,2,0,B|201:253|224:168|191:114,1,190,2|2,0:0|0:0,0:0:0
272,156,204246,2,0,B|247:108|206:105|176:126,1,95,8|2,0:0|0:0,0:0:0
108,160,204579,6,0,P|112:104|84:68,1,95,8|2,0:0|0:0,0:0:0
208,24,204913,2,0,P|256:40|256:40|320:20,1,95,8|2,0:0|0:0,0:0:0
420,73,205246,2,0,P|400:104|404:160,2,95,10|2|8,0:0|0:0|0:0,0:0:0
496,132,205746,1,2,0:0:0
496,132,206079,1,2,0:0:0
496,132,206246,6,0,B|528:170|501:221,1,95,8|2,0:0|0:0,0:0:0
440,332,206579,2,0,B|380:248,1,95,8|2,0:0|0:0,0:0:0
384,256,206913,2,0,B|388:300|352:344,1,95,8|2,0:0|0:0,0:0:0
159,343,207246,2,0,B|124:300|128:256,1,95,8|2,0:0|0:0,0:0:0
127,254,207580,2,0,B|72:332,1,95,8|2,0:0|0:0,0:0:0
88,188,207913,2,0,B|132:152|176:192,2,95,8|2|8,0:0|0:0|0:0,0:0:0
256,192,208413,5,4,0:0:0
256,4,208746,1,2,0:0:0
256,336,208913,1,8,0:0:0
256,264,209246,1,8,0:0:0
256,264,209329,1,8,0:0:0
256,264,209413,1,8,0:0:0
344,300,209579,5,8,0:0:0
380,332,209663,1,8,0:0:0
428,328,209746,1,2,0:0:0
460,292,209829,1,2,0:0:0
444,248,209913,6,0,B|412:192|456:140,1,95,8|2,0:0|0:0,0:0:0
360,208,210246,2,0,B|297:191|292:123,1,95,8|2,0:0|0:0,0:0:0
160,52,210579,2,0,B|256:52,1,95,8|2,0:0|0:0,0:0:0
352,52,210913,2,0,B|256:52,1,95,8|2,0:0|0:0,0:0:0
216,144,211246,6,0,B|200:200|152:208,2,95,8|2|8,0:0|0:0|0:0,0:0:0
68,157,211746,2,0,B|96:196|68:248,1,95,2|8,0:0|0:0,0:0:0
40,336,212079,1,2,0:0:0
124,336,212246,2,0,B|136:280|188:272,1,95,8|2,0:0|0:0,0:0:0
252,344,212579,2,0,B|280:236,1,95,8|2,0:0|0:0,0:0:0
356,200,212913,6,0,B|404:281,1,95,8|2,0:0|0:0,0:0:0
456,148,213246,2,0,B|382:87,1,95,8|2,0:0|0:0,0:0:0
188,120,213579,2,0,B|282:129,1,95,8|2,0:0|0:0,0:0:0
252,226,213913,2,0,B|314:240|359:316|341:377,1,190,8|8,0:0|0:0,0:0:0
356,200,214413,2,0,B|399:247|392:335|342:375,1,190,2|2,0:0|0:0,0:0:0
432,364,214913,2,0,B|392:400|353:389|332:359,1,95,8|2,0:0|0:0,0:0:0
264,328,215246,6,0,B|232:280|168:288,1,95,12|2,0:0|0:0,0:0:0
96,320,215579,2,0,B|48:288|56:224,1,95,8|2,0:0|0:0,0:0:0
60,128,215913,2,0,B|116:141|130:204,2,95,8|2|8,0:0|0:0|0:0,0:0:0
184,289,216413,2,0,B|232:278|258:227,1,95,2|8,0:0|0:0,0:0:0
255,129,216746,1,2,0:0:0
328,289,216913,2,0,B|279:278|254:227,1,95,8|2,0:0|0:0,0:0:0
190,58,217246,2,0,B|130:143,1,95,8|2,0:0|0:0,0:0:0
322,58,217579,2,0,B|382:143,1,95,8|2,0:0|0:0,0:0:0
416,308,217913,6,0,B|367:267|318:294,1,95,8|2,0:0|0:0,0:0:0
152,318,218246,1,8,0:0:0
165,313,218329,1,8,0:0:0
173,301,218413,1,8,0:0:0
177,287,218496,1,8,0:0:0
170,274,218579,2,0,B|211:234|204:181,1,95,8|2,0:0|0:0,0:0:0
144,116,218913,1,0,0:0:0
254,48,219079,5,8,0:0:0
330,171,219413,1,8,0:0:0
255,94,219579,1,8,0:0:0
257,366,219913,2,0,B|257:266,1,95,8|0,0:0|0:0,0:0:0
256,175,220246,5,8,0:0:0
256,175,220329,1,8,0:0:0
256,175,220413,1,2,0:0:0
256,175,220496,1,2,0:0:0
256,175,220579,2,2,B|256:77,1,95,0|0,0:0|0:0,0:0:0
256,344,220913,2,0,B|256:249,1,95,2|0,0:0|0:0,0:0:0
310,158,221246,2,0,B|269:120|253:71,1,95,0|0,0:0|0:0,0:0:0
202,158,221579,2,0,B|242:120|254:80,1,95,2|0,0:0|0:0,0:0:0
257,5,221913,5,0,0:0:0
256,175,222079,1,0,0:0:0
256,80,222413,1,0,0:0:0
167,249,222746,1,2,0:0:0
345,135,222913,2,0,B|345:229,1,95,8|0,0:0|0:0,0:0:0
