osu file format v10

[General]
AudioFilename: Merryxmas.mp3
AudioLeadIn: 2000
PreviewTime: 54901
Countdown: 0
SampleSet: Soft
StackLeniency: 0.7
Mode: 0
LetterboxInBreaks: 0

[Editor]
Bookmarks: 31797
DistanceSpacing: 1
BeatDivisor: 4
GridSize: 4

[Metadata]
Title:Merry * Xmas
TitleUnicode:Merry ☆ Xmas
Artist:Madaiko
ArtistUnicode:Madaiko
Creator:HanzeR
Version:Exciting
Source:Vocaloid
Tags:Hatsune Miku Hentai Christmas
BeatmapID:193224
BeatmapSetID:66112

[Difficulty]
HPDrainRate:3
CircleSize:4
OverallDifficulty:3
ApproachRate:6
SliderMultiplier:1.6
SliderTickRate:1

[Events]
//Background and Video events
0,0,"sexmis.jpg"
//Break Periods
2,7113,11529
2,76612,86363
2,129779,139529
2,162113,171529
2,199446,208863
//Storyboard Layer 0 (Background)
//Storyboard Layer 1 (Fail)
//Storyboard Layer 2 (Pass)
//Storyboard Layer 3 (Foreground)
//Storyboard Sound Samples
//Background Colour Transformations
3,100,163,162,255

[TimingPoints]
580,333.333333333333,4,2,0,80,1,0
12579,-100,4,2,1,80,0,1
23246,-100,4,2,1,80,0,0
55246,-100,4,2,1,80,0,1
76246,-100,4,2,1,5,0,1
76579,-100,4,2,1,80,0,0
108579,-100,4,2,1,80,0,1
129913,-100,4,2,1,80,0,0
172579,-100,4,2,1,80,0,1
199246,-100,4,2,1,80,0,0
209913,-100,4,2,1,80,0,1
220579,-100,4,2,0,80,0,0
222746,-100,4,2,1,80,0,0

[Colours]
Combo1 : 128,128,255
Combo2 : 255,128,128
Combo3 : 128,255,255
Combo4 : 128,255,128

[HitObjects]
188,232,580,2,0,P|212:280|300:280|324:232,1,160,0|0,0:0|0:0,0:0:0
324,152,1079,2,0,P|300:104|212:104|188:152,1,160
116,188,1579,2,0,P|36:188,2,80,0|0|4,0:0|0:0|0:0,0:0:0
256,192,2246,6,0,P|318:147|307:67,1,160
240,112,2746,1,0,0:0:0
240,112,2913,2,0,P|172:64,1,80
48,124,3413,2,0,P|124:152|168:216,1,160
176,296,3913,2,0,P|218:356|288:316,1,160
380,196,4579,5,2,0:0:0
256,96,4913,1,0,0:0:0
408,48,5246,1,2,0:0:0
292,176,5579,5,0,0:0:0
444,128,5913,1,2,0:0:0
320,28,6246,1,2,0:0:0
168,84,6579,5,2,0:0:0
116,160,6746,1,0,0:0:0
160,240,6913,1,6,0:0:0
52,104,12579,6,8,P|110:160|208:140,1,160,8|8,0:0|0:0,0:0:0
252,112,13080,1,2,0:0:0
256,192,13246,2,8,P|314:248|412:228,1,160
456,200,13746,1,2,0:0:0
404,140,13913,6,0,P|376:108|376:60,1,80,8|0,0:0|0:0,0:0:0
324,8,14246,2,0,P|296:40|296:88,1,80,8|2,0:0|0:0,0:0:0
244,140,14580,2,0,P|216:108|216:60,1,80,8|2,0:0|0:0,0:0:0
132,56,14913,1,8,0:0:0
100,212,15246,5,8,0:0:0
200,336,15579,1,8,0:0:0
348,272,15913,2,8,P|376:300|428:296,1,80,8|2,0:0|0:0,0:0:0
412,220,16246,1,8,0:0:0
372,64,16580,6,0,P|332:68|304:44,2,80,8|2|8,0:0|0:0|0:0,0:0:0
416,132,17080,1,2,0:0:0
256,144,17413,6,0,P|248:172|264:196|256:224,1,80,2|8,0:0|0:0,0:0:0
204,72,17913,6,0,P|156:128|64:100,1,160,8|8,0:0|0:0,0:0:0
77,274,18580,2,0,P|155:260|203:316,1,160,8|8,0:0|0:0,0:0:0
308,316,19246,2,0,P|356:260|435:274,1,160,8|8,0:0|0:0,0:3:0
184,284,20079,6,0,P|157:309|109:305,1,80,2|8,0:0|0:0,0:0:0
206,137,20579,2,0,P|188:104|184:60,2,80,10|2|8,0:0|0:0|0:0,0:0:0
224,216,21079,1,2,0:0:0
264,284,21246,2,0,P|308:292|344:284,1,80,8|2,0:0|0:0,0:0:0
444,160,21746,1,6,0:0:0
256,192,21913,12,0,22913,0:0:0
24,44,23246,1,0,0:0:0
104,48,23413,2,0,P|140:24|180:24,2,80,0|8|0,0:0|0:0|0:0,0:0:0
164,104,23913,2,0,P|140:152|112:164,1,80,0|2,0:0|0:0,0:0:0
52,116,24246,2,0,P|32:160|40:200,1,80,8|0,0:0|0:0,0:0:0
56,268,24579,2,0,P|96:328|177:323,1,160,2|8,0:0|0:0,0:0:0
336,320,25246,2,0,P|416:325|456:265,1,160,0|8,0:0|0:0,0:0:0
204,84,26079,6,0,P|120:100|60:40,1,160
32,144,26579,2,0,P|32:200|12:244,1,80,0|2,0:0|0:0,0:0:0
24,304,26913,2,0,P|76:296|112:312,1,80,8|8,0:0|0:0,0:0:0
124,228,27246,2,0,P|128:152|120:136,3,80,2|0|8|0,0:0|0:0|0:0|0:0,0:0:0
112,72,27913,2,0,P|160:20|240:48,1,160,0|8,0:0|0:0,0:0:0
404,216,28746,6,0,P|348:212|308:320,1,160
224,324,29246,2,0,P|140:260,1,80,2|0,0:0|0:0,0:0:0
84,296,29579,2,0,P|28:216,1,80,8|0,0:0|0:0,0:0:0
112,200,29913,2,0,P|136:132|44:76,1,160,2|8,0:0|0:0,0:0:0
228,140,30579,2,8,P|262:211|334:212,1,160,0|8,0:0|0:0,0:0:0
180,28,31413,6,2,P|256:8|256:8|344:32,1,160
404,68,31913,1,0,0:0:0
460,216,32246,1,8,0:0:0
328,304,32579,2,0,P|288:228|200:236,1,160,2|8,0:0|0:0,0:0:0
148,364,33246,2,8,P|80:368|32:292,1,160,0|8,0:0|0:0,0:0:0
256,36,34246,5,4,0:0:0
256,228,34913,5,8,0:0:0
112,296,35246,2,0,P|72:216,2,80,0|0|4,0:0|0:0|0:0,0:0:0
188,316,35746,1,0,0:0:0
176,236,35913,2,0,P|196:152,1,80,0|2,0:0|0:0,0:0:0
116,152,36246,2,0,P|68:84,1,80,12|8,2:0|0:0,0:0:0
208,4,36746,6,0,P|216:44|216:44|196:96,2,80,2|4|4,0:0|0:0|0:0,0:0:0
288,12,37246,2,0,P|328:28|328:28|388:16,1,80,0|2,0:0|0:0,0:0:0
444,24,37579,1,8,0:0:0
444,24,37746,1,0,0:0:0
412,180,38079,6,0,P|332:196|300:284,1,160,8|4,0:0|0:0,0:0:0
220,260,38579,2,0,P|186:195|106:179,1,160,0|8,0:0|0:0,0:0:0
344,216,39413,6,0,P|392:292,2,80,2|8|0,0:0|0:0|0:0,0:0:0
344,136,39913,2,0,P|416:180,1,80,0|2,0:0|0:0,0:0:0
480,132,40246,2,0,P|444:96|444:96|400:76,1,80,8|0,0:0|0:0,0:0:0
348,44,40580,2,0,P|256:48|208:4,1,160,2|8,0:0|0:0,0:0:0
68,80,41246,2,0,P|104:260,1,160,0|8,0:0|0:0,0:0:0
328,300,42080,6,0,P|336:232|440:232,1,160,2|8,0:0|0:0,0:0:0
492,164,42580,2,0,P|468:132|476:88,1,80,0|2,0:0|0:0,0:0:0
512,24,42913,2,0,P|480:8|412:28,1,80,8|0,0:0|0:0,0:0:0
396,80,43246,2,0,P|372:108|332:120,3,80,0|0|8|0,0:0|0:0|0:0|0:0,0:0:0
328,40,43913,2,0,P|256:16|168:48,1,160,2|0,0:0|0:0,0:0:0
76,160,44580,6,0,P|156:188|160:272,1,160,4|0,0:0|0:0,0:0:0
88,244,45080,1,2,0:0:0
104,324,45246,2,0,P|24:296|12:229,1,160,2|8,0:0|0:0,0:0:0
64,76,45913,6,0,P|160:64|200:8,1,160,2|0,0:0|0:0,0:0:0
312,128,46580,2,0,P|412:96,1,80,2|0,0:0|0:0,0:0:0
428,172,46913,2,0,P|320:208,1,80,8|0,0:0|0:0,0:0:0
272,204,47246,6,0,P|304:268|404:272,1,160,2|0,0:0|0:0,0:0:0
492,168,47913,2,0,P|392:24,1,160,2|8,0:0|0:0,0:0:0
240,40,48580,2,0,P|160:72|160:72|104:148,1,160,2|0,0:0|0:0,0:0:0
152,288,49246,2,0,P|220:208|216:136,1,160,2|4,0:0|0:0,0:0:0
104,48,49913,6,0,P|68:132,2,80,4|0|8,0:0|0:0|0:0,0:0:0
176,84,50413,1,0,0:0:0
320,156,50746,2,0,P|396:200,2,80
168,204,51413,2,0,P|132:288,1,80
196,332,51746,2,0,P|232:304|372:328,1,160,2|2,0:0|0:0,0:0:0
412,340,52246,1,8,0:0:0
256,192,52580,12,0,53913,0:0:0
68,84,55246,6,0,P|152:28,1,80,8|2,0:0|0:0,0:0:0
164,116,55580,2,0,P|264:84,1,80,8|2,0:0|0:0,0:0:0
204,212,55913,2,0,P|128:208|92:284,1,160,0|8,0:0|0:0,0:0:0
308,212,56580,2,0,P|384:208|421:274,1,160,8|8,0:0|0:0,0:0:0
256,272,57246,1,8,0:0:0
136,164,57580,1,8,0:0:0
44,32,57913,6,0,P|124:68,2,80
12,104,58413,1,0,0:0:0
80,136,58580,2,0,P|132:144|164:132,1,80,8|2,0:0|0:0,0:0:0
208,76,58913,1,8,0:0:0
368,92,59246,5,8,0:0:0
252,204,59580,1,8,0:0:0
404,248,59913,1,8,0:0:0
140,296,60246,1,8,0:0:0
24,184,60580,6,0,P|60:120|152:112,1,160,8|8,0:0|0:0,0:0:0
188,172,61079,1,2,0:0:0
260,136,61246,2,0,P|328:110|404:163,1,160,8|8,0:0|0:0,0:0:0
448,216,61746,2,0,P|368:244|324:172,1,160,2|2,0:0|0:0,0:0:0
260,136,62246,2,0,P|232:108|184:88,1,80,8|2,0:0|0:0,0:0:0
124,124,62580,2,0,P|112:72|128:32,2,80,8|2|8,0:0|0:0|0:0,0:0:0
96,280,63246,6,0,P|164:232|244:284,1,160,8|8,0:0|0:0,0:0:0
388,272,63913,2,0,P|292:192|304:148,1,160,8|8,0:0|0:0,0:0:0
452,188,64580,2,0,P|424:100|424:100|448:20,1,160,8|8,0:0|0:0,0:0:0
292,92,65246,2,0,P|252:104|252:104|192:88,2,80,8|2|8,0:0|0:0|0:0,0:0:0
320,248,65913,6,0,P|296:200|208:200|184:248,1,160,8|8,0:0|0:0,0:0:0
396,196,66580,2,0,P|476:196,1,80,8|2,0:0|0:0,0:0:0
440,268,66913,2,0,P|332:268,1,80,8|2,0:0|0:0,0:0:0
272,272,67246,1,8,0:0:0
160,160,67580,6,0,P|98:205|109:285,1,160,8|8,0:0|0:0,0:0:0
176,244,68080,1,2,0:0:0
176,244,68246,2,0,P|264:272,1,80,8|2,0:0|0:0,0:0:0
304,208,68580,2,8,P|228:180|184:116,1,160
344,96,69246,2,8,P|300:33|224:5,1,160
132,188,69913,5,10,0:0:0
256,288,70246,1,8,0:0:0
104,336,70580,1,10,0:0:0
220,208,70913,1,8,0:0:0
68,256,71246,5,10,0:0:0
192,356,71580,1,10,0:0:0
344,300,71913,1,10,0:0:0
396,224,72080,1,2,0:0:0
352,144,72246,1,10,0:0:0
276,104,72413,6,2,P|200:48|200:48|96:48,1,160
92,128,72913,2,0,P|184:128,1,80,8|2,0:0|0:0,0:0:0
172,208,73246,2,0,P|80:208,1,80,8|2,0:0|0:0,0:0:0
92,288,73580,2,0,P|184:288,1,80,8|2,0:0|0:0,0:0:0
252,288,73913,6,8,P|292:248|376:324|340:180|480:212,1,240,8|2,0:0|0:0,0:0:0
444,284,74580,1,8,0:0:0
444,284,74746,1,2,0:0:0
256,200,75080,2,2,P|256:28,1,160
176,56,75580,1,8,0:0:0
336,56,75913,1,8,0:0:0
228,172,76246,6,0,P|268:152|292:176,1,80,8|2,0:0|0:0,0:0:0
64,76,87413,5,0,0:0:0
124,128,87579,1,8,0:0:0
192,272,87913,2,0,P|120:320,3,80,0|2|8|0,0:0|0:0|0:0|0:0,0:0:0
284,284,88746,5,2,0:0:0
344,232,88913,1,8,0:0:0
412,88,89246,2,0,P|340:40,3,80,0|2|8|0,0:0|0:0|0:0|0:0,0:0:0
212,128,90079,6,0,P|296:112|356:172,1,160
416,200,90579,2,0,P|416:144|436:100,1,80,0|2,0:0|0:0,0:0:0
464,52,90913,2,0,P|412:60|376:44,1,80,8|8,0:0|0:0,0:0:0
312,28,91246,2,0,P|308:104|316:120,2,80
232,24,91746,1,0,0:0:0
172,80,91913,2,0,P|224:128|196:208,1,160,0|8,0:0|0:0,3:0:0
4,104,92746,6,0,P|60:108|100:0,1,160
188,32,93246,2,0,P|272:96,1,80,0|2,0:0|0:0,0:0:0
324,44,93579,2,0,P|380:124,1,80,8|8,0:0|0:0,0:0:0
400,184,93913,2,0,P|376:252|468:308,1,160,2|8,0:0|0:0,0:0:0
284,244,94579,2,0,P|250:173|178:172,1,160,0|8,0:0|0:0,0:0:0
332,356,95413,6,0,P|256:376|256:376|168:352,1,160
108,316,95913,1,0,0:0:0
52,168,96246,1,8,0:0:0
184,80,96579,2,0,P|224:156|312:148,1,160,8|8,0:0|0:0,0:0:0
364,20,97246,2,0,P|432:16|480:92,1,160,2|2,0:0|0:0,0:0:0
320,96,97913,6,0,P|260:36|184:144|72:64,1,240,4|2,0:0|0:0,0:0:0
48,144,98579,1,2,0:0:0
256,156,98913,1,8,0:0:0
400,88,99246,6,0,P|440:168,2,80
324,68,99746,1,0,0:0:0
336,148,99913,2,0,P|316:232,1,80,2|0,0:0|0:0,0:0:0
396,232,100246,2,0,P|444:300,1,80,8|0,0:0|0:0,0:0:0
380,344,100579,2,0,P|348:318|348:318|330:265,1,80,2|0,0:0|0:0,0:0:0
264,320,100913,2,0,P|224:304|224:304|164:316,1,80,0|2,0:0|0:0,0:0:0
108,332,101246,1,2,0:0:0
108,332,101413,1,0,0:0:0
60,180,101746,5,0,0:0:0
60,180,101913,2,0,P|140:164|172:76,1,160,2|0,0:0|0:0,0:0:0
338,99,102579,2,0,P|372:164|452:180,1,160,2|0,0:0|0:0,0:0:0
168,168,103246,6,0,P|120:92,2,80,0|0|8,0:0|0:0|0:0,0:0:0
168,248,103746,2,0,P|96:204,1,80,2|0,0:0|0:0,0:0:0
32,252,104079,2,0,P|68:288|68:288|112:308,1,80,2|8,0:0|0:0,0:0:0
164,340,104413,2,0,P|256:336|304:380,1,160,4|0,0:0|0:0,0:0:0
444,304,105079,2,0,P|408:124,1,160,0|2,0:0|0:0,0:0:0
352,96,105579,2,0,P|272:32,1,80,8|0,0:0|0:0,0:0:0
256,192,105913,12,0,107246,0:0:0
184,84,108579,6,8,P|176:152|72:152,1,160
16,312,109246,2,0,P|40:344|32:388,1,80,8|2,0:0|0:0,0:0:0
108,344,109579,2,0,P|140:360|208:340,1,80,8|2,0:0|0:0,0:0:0
160,280,109912,2,0,P|184:252|224:240,2,80,10|2|8,0:0|0:0|0:0,0:0:0
184,356,110412,2,2,P|256:380|344:348,1,160
412,344,110913,1,0,0:0:0
424,172,111246,6,8,P|344:200|340:284,1,160
412,260,111746,1,2,0:0:0
412,344,111912,2,8,P|492:316|504:249,1,160
348,208,112413,2,8,P|252:196|212:140,1,160
172,216,112913,6,0,P|72:248,1,80,2|8,0:0|0:0,0:0:0
60,168,113246,2,0,P|168:132,1,80,2|8,0:0|0:0,0:0:0
216,148,113579,2,8,P|184:84|84:80,1,160
28,212,114246,6,0,P|128:356,1,160,8|0,0:0|0:0,0:0:0
280,356,114913,1,0,0:0:0
360,332,115079,2,2,P|440:300|440:300|496:224,1,160
428,184,115579,6,0,P|464:160|504:160,1,80,8|2,0:0|0:0,0:0:0
496,80,115913,2,0,P|442:73|421:51,1,80,8|2,0:0|0:0,0:0:0
360,8,116246,2,0,P|340:52|348:92,1,80,8|2,0:0|0:0,0:0:0
264,100,116579,2,8,P|304:160|385:155,1,160
240,224,117246,2,8,P|160:229|120:169,1,160
208,52,117913,2,0,P|124:68|64:8,3,160,8|8|8|8,0:0|0:0|0:0|0:0,0:0:0
52,216,119246,6,0,P|52:272|32:316,1,80,8|2,0:0|0:0,0:0:0
120,320,119579,2,0,P|172:312|208:328,1,80,8|2,0:0|0:0,0:0:0
136,236,119912,2,0,P|140:160|132:144,3,80,8|2|8|2,0:0|0:0|0:0|0:0,0:0:0
116,80,120579,2,8,P|164:28|244:56,1,160
216,128,121079,6,2,P|272:132|312:24,1,160
400,64,121579,2,0,P|484:128,1,80,8|2,0:0|0:0,0:0:0
416,212,121913,2,0,P|360:132,3,80,8|2|8|2,0:0|0:0|0:0|0:0,0:0:0
280,136,122579,2,8,P|304:68|212:12,1,160
200,136,123078,6,2,P|234:207|306:208,1,160
180,28,123579,2,8,P|256:8|256:8|344:32,1,160
460,216,124246,1,8,0:0:0
328,304,124579,6,8,P|288:228|200:236,1,160
148,364,125246,2,8,P|80:368|32:292,1,160
40,140,125913,1,8,0:0:0
168,48,126246,1,8,0:0:0
328,48,126579,2,8,P|384:136|336:184|380:232,1,160
284,220,127079,5,2,0:0:0
220,268,127246,2,0,P|180:188,3,80,8|2|8|2,0:0|0:0|0:0|0:0,0:0:0
104,212,127913,2,0,P|124:128,1,80,8|2,0:0|0:0,0:0:0
188,88,128246,2,0,P|140:20,1,80,8|2,0:0|0:0,0:0:0
240,36,128746,6,0,P|220:71|220:71|171:98,1,80
328,160,129246,2,0,P|348:197|348:197|415:217,1,80,8|2,0:0|0:0,0:0:0
455,230,129579,1,8,0:0:0
44,72,140579,5,4,0:0:0
88,240,140913,2,0,P|128:224|168:176,1,80,8|0,0:0|0:0,0:0:0
136,108,141246,2,0,P|204:124|252:216,1,160,2|8,0:0|0:0,0:0:0
232,276,141746,2,0,P|281:342|368:328,1,160
416,292,142246,1,0,0:0:0
464,224,142413,2,0,P|415:158|328:172,1,160,0|2,0:0|0:0,0:0:0
184,136,143079,6,0,P|116:208|40:152|40:152|80:64,1,240,0|8,0:0|0:0,0:0:0
256,40,143913,1,2,0:0:0
256,40,144079,1,2,0:0:0
308,192,144413,2,0,P|376:120|452:176|452:176|412:264,1,240,0|8,0:0|0:0,0:0:0
364,304,145079,2,0,P|260:280,1,80,0|2,0:0|0:0,0:0:0
244,356,145413,2,0,P|340:380,1,80,2|8,0:0|0:0,0:0:0
400,364,145746,5,0,0:0:0
428,336,145829,1,0,0:0:0
432,296,145913,2,0,P|464:232|408:200|436:132,1,160,2|8,0:0|0:0,0:0:0
308,40,146579,1,0,0:0:0
308,200,146913,5,8,0:0:0
348,132,147079,2,0,P|436:80,1,80,0|2,0:0|0:0,0:0:0
200,244,147746,5,0,0:0:0
128,280,147912,2,0,P|40:332,1,80,2|2,0:0|0:0,0:0:0
40,244,148246,2,0,P|0:140,1,80,8|0,0:0|0:0,0:0:0
80,128,148579,2,0,P|152:104|152:104|136:64|224:48,1,160,2|2,0:0|0:0,0:0:0
308,52,149079,2,0,P|376:64|360:104|360:104|432:128,1,160,0|2,0:0|0:0,0:0:0
392,284,149746,1,8,0:0:0
324,240,149913,2,0,P|256:200|256:200|176:248,3,160,8|8|2|4,0:0|0:0|0:0|0:0,0:0:0
112,212,151079,6,0,P|152:144|152:144|104:64,1,160,2|0,0:0|0:0,0:0:0
180,36,151579,2,0,P|224:112,1,80,8|0,0:0|0:0,0:0:0
291,105,151913,2,0,P|332:36,1,80,2|2,0:0|0:0,0:0:0
412,32,152246,1,8,0:0:0
392,108,152413,6,0,P|350:177|350:177|390:245,1,160
344,312,152913,2,0,P|276:252,1,80,8|0,0:0|0:0,0:0:0
208,284,153246,2,0,P|140:356,1,80,2|0,0:0|0:0,0:0:0
96,284,153579,2,0,P|60:208,1,80,8|0,0:0|0:0,0:0:0
32,136,153913,6,0,P|92:112|128:24,1,160,2|0,0:0|0:0,0:0:0
40,48,154413,2,0,P|176:172,1,160,0|2,0:0|0:0,0:0:0
292,240,155079,2,0,P|360:312,2,80,0|2|0,0:0|0:0|0:0,0:0:0
232,188,155579,1,8,0:0:0
156,168,155746,2,0,P|256:60|344:184,1,320
396,228,156579,6,0,P|460:308,2,80,4|0|8,0:0|0:0|0:0,0:0:0
348,164,157079,1,0,0:0:0
296,224,157246,2,0,P|196:276,2,80
220,176,157746,1,0,0:0:0
220,96,157913,2,0,P|132:72,2,80,0|8|0,0:0|0:0|0:0,0:0:0
252,72,158329,1,0,0:0:0
288,56,158413,2,0,P|384:52|424:124,1,160,2|0,0:0|0:0,0:0:0
448,172,158913,1,0,0:0:0
256,192,159246,12,0,161913,0:0:0
444,300,172579,6,0,P|360:356,1,80,8|2,0:0|0:0,0:0:0
348,268,172913,2,0,P|248:300,1,80,8|2,0:0|0:0,0:0:0
308,172,173246,2,8,P|384:176|420:100,1,160
204,172,173913,2,8,P|128:176|91:110,1,160
256,112,174579,1,8,0:0:0
376,220,174913,1,8,0:0:0
468,352,175246,6,0,P|388:316,3,80,8|2|8|2,0:0|0:0|0:0|0:0,0:0:0
432,248,175913,2,0,P|380:240|348:252,1,80,8|2,0:0|0:0,0:0:0
304,308,176246,1,8,0:0:0
144,292,176579,5,8,0:0:0
260,180,176913,1,8,0:0:0
108,136,177246,1,8,0:0:0
372,88,177579,1,8,0:0:0
480,204,177913,6,8,P|444:268|352:276,1,160
324,212,178413,1,2,0:0:0
252,248,178579,2,8,P|184:274|108:221,1,160
64,168,179079,2,2,P|144:140|188:212,1,160
252,248,179579,2,0,P|280:276|328:296,1,80,8|2,0:0|0:0,0:0:0
388,260,179913,2,0,P|400:312|384:352,2,80,8|2|8,0:0|0:0|0:0,0:0:0
416,104,180579,6,8,P|348:152|268:100,1,160
124,112,181246,2,8,P|220:192|208:236,1,160
60,196,181913,2,8,P|88:284|88:284|64:364,1,160
220,292,182579,2,0,P|260:280|260:280|320:296,2,80,8|2|8,0:0|0:0|0:0,0:0:0
192,136,183246,6,8,P|216:184|304:184|328:136,1,160,0|0,0:0|0:0,0:0:0
116,188,183913,2,0,P|36:188,1,80,8|2,0:0|0:0,0:0:0
72,116,184246,2,0,P|180:116,1,80,8|2,0:0|0:0,0:0:0
240,112,184579,1,8,0:0:0
352,224,184913,6,8,P|414:179|403:99,1,160
336,140,185413,1,2,0:0:0
336,140,185579,2,0,P|248:112,1,80,8|2,0:0|0:0,0:0:0
208,176,185913,6,0,P|284:204|328:268,1,160,8|8,0:0|0:0,0:0:0
172,300,186579,2,8,P|214:360|284:320,1,160
380,196,187246,1,10,0:0:0
256,96,187579,1,8,0:0:0
408,48,187913,1,10,0:0:0
292,176,188246,1,8,0:0:0
444,128,188579,5,10,0:0:0
320,28,188913,1,8,0:0:0
168,84,189246,1,8,0:0:0
116,160,189413,1,2,0:0:0
160,240,189579,1,10,0:0:0
236,280,189746,6,2,P|312:336|312:336|416:336,1,160
420,256,190246,2,0,P|328:256,1,80,8|2,0:0|0:0,0:0:0
340,176,190579,2,0,P|432:176,1,80,0|2,0:0|0:0,0:0:0
420,96,190913,2,0,P|328:96,1,80,8|2,0:0|0:0,0:0:0
260,96,191246,6,0,P|220:136|136:60|172:204|32:172,1,240,8|2,0:0|0:0,0:0:0
64,96,191913,1,8,0:0:0
64,96,192079,1,2,0:0:0
108,252,192413,5,2,0:0:0
108,252,192746,1,2,0:0:0
108,252,192913,1,8,0:0:0
256,192,193246,1,8,0:0:0
404,252,193746,5,2,0:0:0
404,252,194079,1,2,0:0:0
404,252,194246,1,8,0:0:0
256,192,194579,1,8,0:0:0
40,92,195079,5,2,0:0:0
168,80,195413,1,8,0:0:0
168,80,195579,1,8,0:0:0
324,52,195913,1,8,0:0:0
388,200,196413,5,2,0:0:0
256,248,196746,1,2,0:0:0
256,328,196913,1,8,0:0:0
256,52,197246,1,8,0:0:0
256,192,197579,12,0,199246,0:0:0
56,136,209913,6,0,P|148:76,1,80,8|2,0:0|0:0,0:0:0
140,172,210246,2,0,P|220:208,1,80,8|2,0:0|0:0,0:0:0
256,272,210579,2,0,P|336:224,3,80,8|2|8|2,0:0|0:0|0:0|0:0,0:0:0
396,192,211246,2,8,P|340:112|400:60,1,160
144,71,211913,2,8,P|172:112|116:192,1,160
68,344,212579,6,0,P|140:268,1,80,8|2,0:0|0:0,0:0:0
204,288,212913,2,0,P|240:376,1,80,8|2,0:0|0:0,0:0:0
300,320,213246,2,0,P|336:236,1,80,8|2,0:0|0:0,0:0:0
400,292,213579,2,0,P|448:368,1,80,8|2,0:0|0:0,0:0:0
492,296,213913,2,8,P|472:200|472:200|496:116,1,160
396,16,214413,2,2,P|416:112|416:112|392:196,1,160
332,128,214913,2,8,P|256:100|256:100|172:136,1,160
36,192,215579,5,8,0:0:0
136,316,215913,2,0,P|224:292,2,80,8|2|8,0:0|0:0|0:0,0:0:0
56,324,216413,2,2,P|112:240|120:160,1,160
72,120,216913,2,0,P|120:44,1,80,8|2,0:0|0:0,0:0:0
184,92,217246,2,0,P|224:164,1,80,8|2,0:0|0:0,0:0:0
288,116,217579,2,0,P|356:32,1,80,8|2,0:0|0:0,0:0:0
388,120,217913,6,8,P|328:200|328:200|328:284,1,160
256,296,218413,1,2,0:0:0
184,260,218579,2,8,P|184:200|184:200|124:120,1,160
72,60,219079,1,2,0:0:0
256,24,219413,1,2,0:0:0
256,104,219579,1,8,0:0:0
260,264,219913,1,8,0:0:0
256,184,220079,2,0,P|164:184,2,80,2|8|2,0:0|0:0|0:0,0:0:0
336,184,220579,5,0,0:0:0
496,192,220913,1,2,0:0:0
412,336,221246,1,0,0:0:0
368,268,221413,1,2,0:0:0
300,224,221579,1,2,0:0:0
220,224,221746,1,0,0:0:0
152,268,221913,1,2,0:0:0
108,336,222079,1,0,0:0:0
256,296,222413,1,0,0:0:0
256,112,222746,6,0,P|256:20,1,80,2|4,0:0|0:0,0:0:0
