osu file format v13

[General]
AudioFilename: nutshell.mp3
AudioLeadIn: 0
PreviewTime: -1
Countdown: 0
SampleSet: None
StackLeniency: 0.7
Mode: 0
LetterboxInBreaks: 1
WidescreenStoryboard: 0

[Editor]
Bookmarks: 9162,12879,13908,26585,36275,36706,36773,37038,44870,45799,46397,47392,47923,51374,53100,55091,57215,65843,66507,87481,117613,125047,125180,126242,130357,148543
DistanceSpacing: 0.9
BeatDivisor: 4
GridSize: 4
TimelineZoom: 1

[Metadata]
Title:Kokoro Okarin
TitleUnicode:
Artist:Mad music
ArtistUnicode:
Creator:Liiraye
Version:Hard
Source:Steins;Gate
Tags:
BeatmapID:493179
BeatmapSetID:209542

[Difficulty]
HPDrainRate:4
CircleSize:5
OverallDifficulty:4
ApproachRate:8
SliderMultiplier:1.4
SliderTickRate:1

[Events]
//Background and Video events
Video,0,"Kokoro Okarin.avi"
//Break Periods
2,67769,74784
2,113300,116863
2,138388,146465
//Storyboard Layer 0 (Background)
//Storyboard Layer 1 (Fail)
//Storyboard Layer 2 (Pass)
//Storyboard Layer 3 (Foreground)
//Storyboard Sound Samples
//Background Colour Transformations
3,100,163,162,255

[TimingPoints]
667,265.486725663717,4,1,0,41,1,0

[Colours]
Combo1 : 255,0,255
Combo2 : 64,128,128
Combo3 : 44,44,44
Combo4 : 128,128,64
Combo5 : 128,64,64

[HitObjects]
144,128,8764,6,2,B|288:128,1,140
344,128,9162,1,2,0:0:0:0:
428,224,9428,5,0,0:0:0:0:
396,280,9560,2,0,B|300:340|196:272,1,210
212,212,10091,1,0,0:0:0:0:
248,160,10224,1,0,0:0:0:0:
300,124,10357,1,0,0:0:0:0:
444,248,10755,1,0,0:0:0:0:
320,244,11020,5,8,0:0:0:0:
292,188,11153,1,8,0:0:0:0:
404,80,11485,1,0,0:0:0:0:
416,140,11618,1,0,0:0:0:0:
408,252,11950,1,0,0:0:0:0:
220,260,12348,2,8,B|220:164,3,70
312,108,13012,5,0,0:0:0:0:
260,76,13144,1,0,0:0:0:0:
172,48,13410,6,2,B|140:240|204:304,1,262.5
320,320,14074,6,0,B|416:320,2,70
352,256,14472,6,0,B|288:128|288:128,1,140
328,80,14870,5,0,0:0:0:0:
456,80,15136,1,0,0:0:0:0:
276,128,15534,6,4,B|276:288,1,140
340,268,15932,2,4,B|339:126|341:127,1,140
404,128,16330,2,4,B|403:278|402:274,1,140
476,168,16861,5,0,0:0:0:0:
476,168,16994,1,0,0:0:0:0:
476,168,17127,1,0,0:0:0:0:
476,100,17658,5,0,0:0:0:0:
352,96,17923,2,0,B|352:0|352:32,2,70
288,100,18321,5,0,0:0:0:0:
168,56,18587,1,0,0:0:0:0:
124,100,18720,1,0,0:0:0:0:
80,144,18852,1,0,0:0:0:0:
208,148,19118,1,0,0:0:0:0:
332,144,19383,5,0,0:0:0:0:
384,184,19516,1,0,0:0:0:0:
384,248,19649,1,0,0:0:0:0:
332,280,19782,6,0,B|332:72,2,210
456,272,20843,1,0,0:0:0:0:
456,144,21109,1,0,0:0:0:0:
456,208,21242,1,4,0:0:0:0:
448,64,21640,6,4,B|352:64,1,70
320,64,21905,6,4,B|320:224,1,140
320,256,22304,6,4,B|160:256,1,140
128,256,22702,6,4,B|128:96,1,140
128,64,23100,6,4,B|288:64,1,140
320,64,23498,6,0,B|320:288,1,210
132,256,24295,5,0,0:0:0:0:
168,72,24693,1,0,0:0:0:0:
320,184,25091,1,0,0:0:0:0:
208,176,25622,1,0,0:0:0:0:
208,176,25888,1,0,0:0:0:0:
160,128,26153,6,0,B|96:32,2,105
288,128,26817,6,0,B|360:128,1,70
416,192,27215,5,0,0:0:0:0:
364,308,27481,1,0,0:0:0:0:
300,308,27613,1,0,0:0:0:0:
236,308,27746,1,0,0:0:0:0:
172,308,27879,1,0,0:0:0:0:
128,248,28012,1,0,0:0:0:0:
128,248,28277,2,0,B|115:218|275:378|435:186|211:90,2,385
160,128,30401,5,0,0:0:0:0:
256,64,30667,1,0,0:0:0:0:
320,96,30799,1,0,0:0:0:0:
440,56,31065,5,0,0:0:0:0:
440,180,31330,2,0,B|368:324|376:324,1,140
252,308,31861,1,0,0:0:0:0:
140,248,32127,6,0,B|140:96,1,140
140,44,32525,1,0,0:0:0:0:
72,140,32790,1,0,0:0:0:0:
72,204,32923,1,0,0:0:0:0:
140,308,33189,1,0,0:0:0:0:
224,212,33454,1,0,0:0:0:0:
412,212,33852,2,0,B|332:212,4,70
344,320,34649,5,0,0:0:0:0:
440,320,34848,2,0,B|408:160,1,157.5
384,64,35711,5,0,0:0:0:0:
320,64,35843,2,0,B|240:64,3,70
184,64,36374,6,0,B|104:64,1,70
120,128,36773,6,0,B|24:128,2,70
184,128,37171,5,0,0:0:0:0:
272,40,37436,5,0,0:0:0:0:
360,128,37702,5,0,0:0:0:0:
272,216,37967,5,0,0:0:0:0:
400,216,38233,5,0,0:0:0:0:
312,288,38498,6,2,B|232:288,1,70
160,192,38897,6,0,B|192:96|288:112|272:112,1,140
256,176,39295,2,0,B|144:144|176:64,2,140
360,184,40091,1,0,0:0:0:0:
416,248,40357,1,0,0:0:0:0:
288,248,40622,6,0,B|192:248,2,70
256,192,41087,12,0,42613,0:0:0:0:
188,92,42879,6,0,B|336:92|332:92,1,140
432,160,43410,5,0,0:0:0:0:
376,164,43543,1,0,0:0:0:0:
328,280,43808,5,0,0:0:0:0:
280,164,44074,1,0,0:0:0:0:
212,164,44472,6,0,B|160:164,6,35,0|0|0|0|0|0|0,0:0|0:0|0:0|0:0|0:0|0:0|0:0,0:0:0:0:
216,292,45136,1,0,0:0:0:0:
368,292,45534,6,0,B|456:292|464:208,1,140
384,64,46397,5,0,0:0:0:0:
260,64,46662,1,0,0:0:0:0:
212,108,46795,1,0,0:0:0:0:
64,52,47127,1,0,0:0:0:0:
0,152,47392,6,0,B|308:152|308:152,1,280
0,224,48454,2,0,B|388:204|124:256|124:256,1,280
24,308,49251,6,0,B|312:308,1,280
368,304,50047,5,0,0:0:0:0:
328,256,50180,1,0,0:0:0:0:
288,208,50313,1,0,0:0:0:0:
164,200,50578,6,0,B|80:224|152:156|268:80|140:140|52:200|80:176|68:160|144:128|140:220|216:80|136:100|100:120|100:120|72:124|188:48|200:84|108:60|108:60|108:60|108:60|108:60|108:60|108:60,1,420
236,64,51640,5,0,0:0:0:0:
360,64,51905,1,0,0:0:0:0:
408,104,52038,1,0,0:0:0:0:
408,232,52304,1,0,0:0:0:0:
316,144,52569,1,0,0:0:0:0:
224,232,52835,1,0,0:0:0:0:
128,312,53100,2,0,B|80:232,1,70
92,124,53498,1,0,0:0:0:0:
192,48,53764,1,0,0:0:0:0:
444,48,54295,6,0,B|444:128,3,70
444,180,54826,2,0,B|444:252|352:300|356:296,1,140
240,292,55357,2,0,B|164:292,2,70
320,172,55888,5,0,0:0:0:0:
348,228,56020,1,0,0:0:0:0:
384,172,56153,1,0,0:0:0:0:
352,116,56286,1,0,0:0:0:0:
316,172,56419,1,0,0:0:0:0:
284,116,56551,1,0,0:0:0:0:
252,172,56684,1,0,0:0:0:0:
220,116,56817,1,0,0:0:0:0:
188,172,56950,6,0,B|48:172,1,140
52,44,57481,1,0,0:0:0:0:
176,44,57746,1,0,0:0:0:0:
340,36,58012,1,0,0:0:0:0:
240,112,58277,1,0,0:0:0:0:
140,192,58543,1,0,0:0:0:0:
236,272,58808,1,0,0:0:0:0:
300,272,58941,1,0,0:0:0:0:
424,272,59206,2,0,B|424:184,2,70
316,208,59737,5,0,0:0:0:0:
200,160,60003,2,0,B|112:120,1,70
20,84,60401,1,0,0:0:0:0:
140,48,60667,1,0,0:0:0:0:
204,48,60799,1,0,0:0:0:0:
204,144,61065,1,0,0:0:0:0:
328,136,61330,1,0,0:0:0:0:
328,56,61596,2,0,B|188:28|120:144,1,210
116,176,62127,1,0,0:0:0:0:
108,240,62259,1,0,0:0:0:0:
224,300,62525,5,0,0:0:0:0:
356,164,62923,1,0,0:0:0:0:
224,32,63321,1,0,0:0:0:0:
88,164,63720,1,0,0:0:0:0:
224,296,64118,2,0,B|224:220,1,70
44,284,64649,1,0,0:0:0:0:
144,208,64914,1,0,0:0:0:0:
192,168,65047,1,0,0:0:0:0:
280,260,65313,2,0,B|392:464|480:248|480:248,1,280
380,92,66242,1,0,0:0:0:0:
252,92,66507,2,4,B|252:264,1,140
188,232,66905,2,4,B|188:84,1,140
124,92,67304,2,4,B|124:244,1,140
116,40,75534,6,0,B|256:40,1,140
320,40,75932,1,0,0:0:0:0:
384,40,76065,1,0,0:0:0:0:
296,128,76330,2,0,B|188:232|188:232,1,140
152,280,76860,1,0,0:0:0:0:
184,280,76928,1,0,0:0:0:0:
216,280,76994,1,0,0:0:0:0:
248,280,77127,1,0,0:0:0:0:
404,280,77392,1,0,0:0:0:0:
264,68,77923,5,0,0:0:0:0:
172,232,78321,1,0,0:0:0:0:
80,64,78720,1,0,0:0:0:0:
56,292,79782,5,0,0:0:0:0:
124,188,80047,1,0,0:0:0:0:
160,240,80180,1,0,0:0:0:0:
260,164,80445,1,0,0:0:0:0:
400,292,80843,5,0,0:0:0:0:
324,192,81109,1,0,0:0:0:0:
288,244,81242,1,0,0:0:0:0:
192,164,81507,1,0,0:0:0:0:
32,320,82171,2,0,B|32:36|296:36,1,420
460,40,83366,1,0,0:0:0:0:
188,248,84029,5,4,0:0:0:0:
188,248,84428,1,0,0:0:0:0:
256,128,85091,1,4,0:0:0:0:
256,128,85490,1,4,0:0:0:0:
320,248,86153,1,4,0:0:0:0:
320,248,86551,1,4,0:0:0:0:
256,160,87481,6,0,B|256:72,5,70
332,92,88277,5,4,0:0:0:0:
332,92,88675,1,4,0:0:0:0:
256,184,89339,1,4,0:0:0:0:
256,184,89737,1,4,0:0:0:0:
180,92,90401,1,4,0:0:0:0:
180,92,90799,1,4,0:0:0:0:
180,92,91463,2,0,B|56:92|56:260|180:260,1,280
224,260,92525,6,0,B|308:260,5,70
292,192,93587,2,0,B|212:192|212:192,5,70
160,236,94649,2,0,B|160:112|304:112,1,210
340,152,95180,2,0,B|340:292|196:292,1,210
256,192,95644,12,0,96242,0:0:0:0:
136,220,96773,6,0,B|352:220,1,210
248,144,97436,5,0,0:0:0:0:
140,76,97702,1,0,0:0:0:0:
328,76,98100,1,0,0:0:0:0:
328,140,98233,1,0,0:0:0:0:
328,204,98366,1,0,0:0:0:0:
136,212,98764,1,0,0:0:0:0:
108,264,98897,6,0,B|244:356|392:252,1,280
456,140,99693,5,0,0:0:0:0:
356,72,99959,1,0,0:0:0:0:
256,140,100224,1,0,0:0:0:0:
148,72,100490,2,0,B|24:152|72:288|192:360|248:296|248:296,1,350
356,308,101419,1,0,0:0:0:0:
480,308,101684,1,0,0:0:0:0:
412,104,102082,6,0,B|416:64|428:8|472:-28|520:-24|624:-24|732:104|596:264|472:276|376:264|280:172|484:48|472:-28|384:-40|328:-52|240:-48|164:60|168:120|240:224|292:240|388:208|408:136|416:84|408:80,1,945
132,32,104472,1,0,0:0:0:0:
132,96,104605,1,0,0:0:0:0:
132,284,105003,1,0,0:0:0:0:
32,204,105268,1,0,0:0:0:0:
32,108,105534,1,0,0:0:0:0:
96,108,105667,1,0,0:0:0:0:
220,108,105932,1,0,0:0:0:0:
308,200,106197,1,0,0:0:0:0:
444,68,106596,1,0,0:0:0:0:
444,132,106728,1,0,0:0:0:0:
444,196,106861,1,0,0:0:0:0:
444,324,107127,1,0,0:0:0:0:
320,324,107392,1,0,0:0:0:0:
132,328,107790,2,0,B|8:328|72:172,1,210
100,100,108454,1,0,0:0:0:0:
228,100,108720,1,0,0:0:0:0:
352,104,108985,6,2,B|404:172,1,70
396,224,109251,2,2,B|352:304,1,70
300,288,109516,1,0,0:0:0:0:
204,292,109715,1,0,0:0:0:0:
140,292,109848,1,0,0:0:0:0:
52,164,110180,1,0,0:0:0:0:
100,120,110313,2,0,B|232:32,2,140
140,176,110976,5,0,0:0:0:0:
328,180,111374,1,0,0:0:0:0:
456,180,111640,1,0,0:0:0:0:
452,84,111839,6,2,B|248:84,1,175
152,88,112436,1,0,0:0:0:0:
340,88,112835,1,0,0:0:0:0:
340,212,113100,1,0,0:0:0:0:
256,192,117613,5,0,0:0:0:0:
320,192,117746,1,0,0:0:0:0:
448,192,118012,1,0,0:0:0:0:
384,84,118277,1,0,0:0:0:0:
384,272,118675,2,0,B|296:272,1,70
188,272,119074,1,0,0:0:0:0:
64,272,119339,1,0,0:0:0:0:
244,92,119870,1,0,0:0:0:0:
244,220,120136,2,0,B|468:220|468:80,1,280
460,292,121197,5,0,0:0:0:0:
272,124,121728,1,0,0:0:0:0:
144,124,121994,1,0,0:0:0:0:
144,248,122259,1,0,0:0:0:0:
144,60,122658,1,0,0:0:0:0:
268,60,122923,1,0,0:0:0:0:
268,124,123056,1,0,0:0:0:0:
392,124,123321,2,4,B|392:220,1,70
388,320,123720,1,0,0:0:0:0:
268,192,124118,1,4,0:0:0:0:
392,192,124383,1,4,0:0:0:0:
96,304,125047,5,0,0:0:0:0:
268,304,125445,1,0,0:0:0:0:
444,236,125843,1,0,0:0:0:0:
252,232,126242,1,0,0:0:0:0:
360,164,126507,1,2,0:0:0:0:
460,88,126773,1,2,0:0:0:0:
336,88,127038,1,2,0:0:0:0:
208,88,127304,1,2,0:0:0:0:
132,188,127569,1,2,0:0:0:0:
196,188,127702,1,2,0:0:0:0:
320,188,127967,1,2,0:0:0:0:
196,188,128233,1,2,0:0:0:0:
384,188,128631,1,2,0:0:0:0:
352,64,128897,6,2,B|192:64,1,140
168,108,129295,2,2,B|120:160,2,70
444,72,130357,5,2,0:0:0:0:
356,164,130622,2,2,B|292:236,1,70
212,296,131020,6,0,B|116:296,1,70
16,296,131419,2,0,B|76:236,1,70
152,156,131817,1,0,0:0:0:0:
184,208,131950,1,0,0:0:0:0:
220,160,132082,1,0,0:0:0:0:
188,108,132215,1,0,0:0:0:0:
152,156,132348,1,0,0:0:0:0:
124,104,132481,1,0,0:0:0:0:
92,156,132613,1,0,0:0:0:0:
64,104,132746,1,0,0:0:0:0:
248,68,133144,5,0,0:0:0:0:
436,68,133543,1,0,0:0:0:0:
436,256,133941,1,0,0:0:0:0:
304,192,134737,1,0,0:0:0:0:
240,192,134870,1,0,0:0:0:0:
100,64,135268,5,0,0:0:0:0:
96,200,135534,2,0,B|172:200,1,70
244,148,135932,1,0,0:0:0:0:
368,148,136197,1,0,0:0:0:0:
432,40,136463,1,0,0:0:0:0:
432,164,136728,1,0,0:0:0:0:
388,212,136861,1,0,0:0:0:0:
280,276,137127,2,4,B|280:120,1,140
216,136,137525,2,4,B|216:288,1,140
152,276,137923,2,4,B|152:128,1,140
248,192,147215,5,0,0:0:0:0:
376,192,147481,1,0,0:0:0:0:
472,108,147746,1,0,0:0:0:0:
472,108,148543,1,0,0:0:0:0:
472,232,148808,1,0,0:0:0:0:
380,320,149074,2,0,B|304:320,1,70
188,320,149472,1,0,0:0:0:0:
20,232,149870,1,0,0:0:0:0:
20,104,150136,2,0,B|72:56,1,70
256,64,151463,1,0,0:0:0:0:
380,64,151728,1,0,0:0:0:0:
468,152,151994,1,0,0:0:0:0:
380,240,152259,1,0,0:0:0:0:
332,196,152392,1,0,0:0:0:0:
332,132,153056,2,0,B|280:76,1,70
160,80,153454,1,0,0:0:0:0:
80,180,153720,1,0,0:0:0:0:
268,184,154118,1,0,0:0:0:0:
260,192,155711,5,0,0:0:0:0:
136,192,155976,1,0,0:0:0:0:
36,112,156242,1,0,0:0:0:0:
36,112,157038,1,0,0:0:0:0:
36,240,157304,1,0,0:0:0:0:
132,320,157569,2,0,B|224:320,1,70
328,320,157967,1,0,0:0:0:0:
492,228,158366,1,0,0:0:0:0:
492,104,158631,2,0,B|436:56,1,70
256,60,159959,1,0,0:0:0:0:
132,60,160224,1,0,0:0:0:0:
48,156,160490,1,0,0:0:0:0:
128,252,160755,1,0,0:0:0:0:
172,204,160888,1,0,0:0:0:0:
172,144,161551,2,0,B|240:92,1,70
356,100,161950,1,0,0:0:0:0:
452,180,162215,1,0,0:0:0:0:
264,180,162613,1,0,0:0:0:0:
