osu file format v14

[General]
AudioFilename: fire.mp3
AudioLeadIn: 0
PreviewTime: 119822
Countdown: 0
SampleSet: None
StackLeniency: 0.7
Mode: 0
LetterboxInBreaks: 0
WidescreenStoryboard: 1

[Editor]
Bookmarks: 78937,109203,160196
DistanceSpacing: 1.2
BeatDivisor: 3
GridSize: 4
TimelineZoom: 1

[Metadata]
Title:Fire (feat. Jinsil)
TitleUnicode:화 (feat. 진실)
Artist:Mad Clown
ArtistUnicode:매드클라운
Creator:Nekomata
Version:Ember
Source:
Tags:kpop hani 하니 mad soul child 매드 소울 차일드 exid 이엑스아이디 piece of mine
BeatmapID:665414
BeatmapSetID:296291

[Difficulty]
HPDrainRate:4
CircleSize:3.5
OverallDifficulty:4
ApproachRate:4.5
SliderMultiplier:1.6
SliderTickRate:1

[Events]
//Background and Video events
0,0,"bg.jpg",0,0
Video,-235,"fire.avi"
//Break Periods
2,48340,50598
2,116305,118562
2,167278,169536
//Storyboard Layer 0 (Background)
//Storyboard Layer 1 (Fail)
//Storyboard Layer 2 (Pass)
//Storyboard Layer 3 (Foreground)
//Storyboard Sound Samples

[TimingPoints]
17876,530.973451327434,4,3,1,60,1,0
51858,-100,4,3,1,75,0,1
68849,-100,4,3,1,65,0,0
73097,-100,4,3,1,65,0,0
77345,-100,4,3,1,65,0,0
85840,-100,4,3,1,60,0,0
119822,-100,4,3,1,75,0,1
136814,-100,4,3,1,55,0,0
141061,-100,4,3,1,60,0,0
145309,-100,4,3,1,60,0,0
153805,-100,4,3,1,65,0,0
158052,-100,4,3,1,60,0,0
161769,-100,4,3,1,60,0,0
162300,-100,4,3,1,60,0,0
170796,-100,4,3,1,75,0,1
187787,-100,4,3,1,65,0,0
204778,-100,4,3,1,65,0,0
207964,-100,4,3,1,30,0,0

[Colours]
Combo1 : 125,30,32
Combo2 : 108,108,108
Combo3 : 176,176,176
Combo4 : 224,75,87

[HitObjects]
72,192,17875,6,0,P|136:236|220:236,1,160,6|8,0:0|0:0,0:0:0:0:
400,180,18937,2,0,P|412:256|372:328,1,160,2|8,0:0|0:0,0:0:0:0:
181,326,19999,2,0,P|142:257|154:179,1,160,2|8,0:0|0:0,0:0:0:0:
340,228,21061,1,2,0:0:0:0:
272,48,21592,2,0,P|224:68|192:112,1,106.666666666667,8|0,0:0|0:0,0:0:0:0:
192,176,22123,5,2,0:0:0:0:
384,148,22654,2,0,P|428:208|408:288,1,160,8|2,0:0|0:0,0:0:0:0:
220,264,23716,2,0,P|168:264|124:232,1,106.666666666667,8|0,0:0|0:0,0:0:0:0:
100,172,24247,2,0,P|136:104|216:84,2,160,2|8|2,0:0|0:0|0:0,0:0:0:0:
184,344,25840,1,8,0:0:0:0:
372,304,26371,37,2,0:0:0:0:
372,111,26902,2,0,B|340:67|296:47|296:47|268:68|240:68,1,160,8|2,0:0|0:0,0:0:0:0:
392,188,27964,2,0,P|440:152|452:108,1,106.666666666667,8|0,0:0|0:0,0:0:0:0:
451,44,28495,1,2,0:0:0:0:
316,180,29026,2,0,P|344:248|428:256,2,160,8|2|8,0:0|0:0|0:0,0:0:0:0:
152,284,30619,6,0,B|124:216|52:184|52:184|52:60,1,266.666666666667,2|0,0:0|0:0,0:0:0:0:
256,376,32743,37,2,0:0:0:0:
396,248,33274,1,8,0:0:0:0:
212,188,33805,1,2,0:0:0:0:
356,60,34336,1,8,0:0:0:0:
212,188,34867,6,0,P|144:224|64:208,1,160,6|8,0:0|0:0,0:0:0:0:
220,96,35929,2,0,P|288:128|300:212,1,160,2|8,0:0|0:0,0:0:0:0:
132,288,36991,2,0,P|60:256|44:180,2,160,2|8|2,0:0|0:0|0:0,0:0:0:0:
132,95,38583,1,8,0:0:0:0:
132,288,39114,38,0,P|208:312|284:288,1,160,2|8,0:0|0:0,0:0:0:0:
282,96,40176,2,0,P|208:72|132:95,1,160,2|8,0:0|0:0,0:0:0:0:
284,212,41238,2,0,P|360:240|432:216,2,160,2|8|2,0:0|0:0|0:0,0:0:0:0:
360,36,42831,1,8,0:0:0:0:
180,108,43362,6,0,B|148:72|164:16|164:16|132:28|100:24,1,160,2|8,0:0|0:0,0:0:0:0:
102,216,44424,2,0,B|134:252|118:308|118:308|150:296|182:300,1,160,2|8,0:0|0:0,0:0:0:0:
300,152,45486,1,2,0:0:0:0:
468,248,46017,1,8,0:0:0:0:
296,336,46548,2,0,P|244:332|200:300,1,106.666666666667,2|0,0:0|0:0,0:0:0:0:
172,244,47079,1,8,0:0:0:0:
196,52,47610,38,0,P|272:52|332:108,1,160,2|8,0:0|0:0,0:0:0:0:
272,188,51858,22,0,B|264:168|300:128|300:128|284:92,1,106.666666666667,6|0,0:0|0:0,0:0:0:0:
256,36,52389,1,8,0:0:0:0:
200,220,52920,2,0,P|252:264|342:224,1,160,2|8,0:0|0:0,0:0:0:0:
472,108,53982,2,0,P|436:72|384:56,1,106.666666666667,2|0,0:0|0:0,0:0:0:0:
328,88,54513,2,0,P|256:120|184:88,2,160,8|2|8,0:0|0:0|0:0,0:0:0:0:
148,160,56106,6,0,B|192:196|248:200|248:200|220:216|212:240,2,160,2|8|2,0:0|0:0|0:0,0:0:0:0:
328,88,57699,1,8,0:0:0:0:
408,260,58229,2,0,P|372:296|316:300,1,106.666666666667,2|0,0:0|0:0,0:0:0:0:
256,284,58760,1,8,0:0:0:0:
140,128,59291,2,0,P|180:92|232:88,1,106.666666666667,2|0,0:0|0:0,0:0:0:0:
292,108,59822,1,8,0:0:0:0:
408,260,60353,38,0,B|392:292|346:295|346:295|336:344|296:364,1,160,6|8,0:0|0:0,0:0:0:0:
108,344,61415,2,0,B|126:311|156:288|156:288|112:284|84:248,1,160,2|8,0:0|0:0,0:0:0:0:
260,320,62477,2,0,P|264:268|236:224,1,106.666666666667,2|0,0:0|0:0,0:0:0:0:
172,208,63008,2,0,B|124:188|120:152|120:152|160:148|192:120,2,160,8|2|8,0:0|0:0|0:0,0:0:0:0:
348,280,64601,5,2,0:0:0:0:
172,208,65132,1,8,0:0:0:0:
340,116,66725,37,2,0:0:0:0:
160,44,67256,1,8,0:0:0:0:
480,260,68318,2,0,P|444:220|392:200,1,106.666666666667,8|0,0:0|0:0,0:0:0:0:
332,192,68849,6,0,P|272:148|280:68,2,160,6|8|2,0:0|0:0|0:0,0:0:0:0:
492,300,70442,2,0,P|472:348|432:384,1,106.666666666667,8|0,0:0|0:0,0:0:0:0:
368,384,70973,1,2,0:0:0:0:
192,312,71504,1,8,0:0:0:0:
100,144,72035,2,0,B|140:172|156:228|156:228|196:216|220:227,1,160,2|8,0:0|0:0,0:0:0:0:
384,304,73097,22,0,P|432:280|452:232,1,106.666666666667,2|0,0:0|0:0,0:0:0:0:
448,168,73628,2,0,B|400:168|372:196|372:196|336:188|296:196,2,160,8|2|8,0:0|0:0|0:0,0:0:0:0:
268,100,75221,2,0,P|204:152|200:232,1,160,2|8,0:0|0:0,0:0:0:0:
356,120,76283,2,0,P|356:72|320:28,1,106.666666666667,2|0,0:0|0:0,0:0:0:0:
256,16,76814,1,8,0:0:0:0:
192,196,77345,6,0,P|148:136|160:52,2,160,6|8|2,0:0|0:0|0:0,0:0:0:0:
336,324,78937,2,0,P|372:284|380:232,1,106.666666666667,8|0,0:0|0:0,0:0:0:0:
380,168,79468,2,0,P|352:112|256:108,1,160,2|8,0:0|0:0,0:0:0:0:
236,296,80530,2,0,B|212:268|212:224|212:224|168:208|152:164,1,160,2|8,0:0|0:0,0:0:0:0:
336,108,81592,5,2,0:0:0:0:
156,40,82123,1,8,0:0:0:0:
480,244,83185,1,8,0:0:0:0:
296,184,83716,1,2,0:0:0:0:
432,48,84247,1,8,0:0:0:0:
198,352,85309,2,0,P|146:344|106:304,1,106.666666666667,8|0,0:0|0:0,0:0:0:0:
100,244,85840,6,0,P|120:168|188:128,2,160,6|8|2,0:0|0:0|0:0,0:0:0:0:
268,336,87433,2,0,P|312:360|368:356,1,106.666666666667,8|0,0:0|0:0,0:0:0:0:
428,336,87964,2,0,B|456:312|476:276|476:276|460:252,1,106.666666666667,2|0,0:0|0:0,0:0:0:0:
404,216,88495,1,8,0:0:0:0:
276,220,88849,2,0,P|244:124|296:32,1,213.333333333333,2|8,0:0|0:0,0:0:0:0:
448,144,90088,6,0,P|440:228|384:280,2,160,2|8|2,0:0|0:0|0:0,0:0:0:0:
300,268,91681,2,0,P|248:256|212:212,1,106.666666666667,8|0,0:0|0:0,0:0:0:0:
184,160,92212,2,0,P|148:112|56:80,2,160,2|8|2,0:0|0:0|0:0,0:0:0:0:
296,316,93805,2,0,P|340:288|372:240,1,106.666666666667,8|0,0:0|0:0,0:0:0:0:
372,180,94336,38,0,B|368:144|336:124|336:124|364:92|416:88,1,160,2|8,0:0|0:0,0:0:0:0:
232,144,95398,2,0,B|236:180|268:200|268:200|240:232|188:236,1,160,2|8,0:0|0:0,0:0:0:0:
212,44,96460,2,0,P|264:48|312:84,1,106.666666666667,2|0,0:0|0:0,0:0:0:0:
336,136,96991,1,8,0:0:0:0:
440,208,97345,2,0,B|392:272|316:260|316:260|276:284|248:272,1,213.333333333333,2|8,0:0|0:0,0:0:0:0:
96,156,98583,5,2,0:0:0:0:
76,348,99114,2,0,P|148:368|184:304,2,160,8|2|8,0:0|0:0|0:0,0:0:0:0:
256,192,100707,12,6,102831,0:0:0:0:
172,112,103893,37,2,0:0:0:0:
260,284,104424,1,8,0:0:0:0:
112,164,104955,1,2,0:0:0:0:
292,212,105486,1,8,0:0:0:0:
104,244,106017,1,2,0:0:0:0:
264,140,106548,1,8,0:0:0:0:
160,300,107079,6,0,P|228:336|288:288,1,160,2|8,0:0|0:0,0:0:0:0:
188,124,108141,2,0,P|120:108|72:176,1,160,2|8,0:0|0:0,0:0:0:0:
236,276,109203,2,0,P|312:280|364:220,2,160,2|8|2,0:0|0:0|0:0,0:0:0:0:
108,132,110796,1,8,0:0:0:0:
292,184,111327,37,2,0:0:0:0:
104,212,111858,1,8,0:0:0:0:
288,264,112389,1,2,0:0:0:0:
100,292,112920,1,8,0:0:0:0:
284,344,113451,2,0,P|344:320|360:232,1,160,2|8,0:0|0:0,0:0:0:0:
177,181,114513,2,0,P|117:205|101:293,1,160,2|8,0:0|0:0,0:0:0:0:
284,344,115575,6,0,P|364:344|428:292,1,160,2|8,0:0|0:0,0:0:0:0:
228,156,119822,22,0,P|176:140|144:100,1,106.666666666667,6|0,0:0|0:0,0:0:0:0:
128,40,120353,1,8,0:0:0:0:
320,36,120884,2,0,P|400:56|444:116,1,160,2|8,0:0|0:0,0:0:0:0:
264,180,121946,2,0,P|264:232|288:280,1,106.666666666667,2|0,0:0|0:0,0:0:0:0:
328,332,122477,2,0,P|404:352|456:292,2,160,8|2|8,0:0|0:0|0:0,0:0:0:0:
135,332,124070,38,0,P|59:352|7:292,2,160,2|8|2,0:0|0:0|0:0,0:0:0:0:
276,200,125663,2,0,P|236:172|172:168,1,106.666666666667,8|0,0:0|0:0,0:0:0:0:
116,160,126194,2,0,P|64:156|24:120,1,106.666666666667,2|0,0:0|0:0,0:0:0:0:
24,56,126725,2,0,B|88:44|88:44|112:80|172:80,2,160,8|2|8,0:0|0:0|0:0,0:0:0:0:
188,156,128318,6,0,P|240:116|228:28,2,160,6|8|2,0:0|0:0|0:0,0:0:0:0:
72,308,129911,2,0,B|97:327|131:325|131:325|172:348,1,106.666666666667,8|0,0:0|0:0,0:0:0:0:
228,372,130442,2,0,P|280:384|332:368,1,106.666666666667,2|0,0:0|0:0,0:0:0:0:
384,332,130973,2,0,P|436:268|448:192,2,160,8|2|8,0:0|0:0|0:0,0:0:0:0:
268,180,132566,37,2,0:0:0:0:
384,332,133097,1,8,0:0:0:0:
392,80,134690,5,2,0:0:0:0:
460,260,135221,1,8,0:0:0:0:
92,144,136283,2,0,B|96:200|96:200|116:224|144:224,1,106.666666666667,8|0,0:0|0:0,0:0:0:0:
204,224,136814,37,6,0:0:0:0:
376,312,137345,1,8,0:0:0:0:
328,124,137876,2,0,P|296:172|284:224,1,106.666666666667,2|0,0:0|0:0,0:0:0:0:
264,280,138406,2,0,P|220:304|164:296,1,106.666666666667,8|0,0:0|0:0,0:0:0:0:
108,268,138937,1,2,0:0:0:0:
108,76,139468,1,8,0:0:0:0:
252,204,139999,2,0,P|196:212|148:200,1,106.666666666667,2|0,0:0|0:0,0:0:0:0:
84,192,140530,2,0,P|40:225|29:275,1,106.666666666667,8|0,0:0|0:0,0:0:0:0:
56,332,141061,22,0,P|108:348|156:328,1,106.666666666667,2|0,0:0|0:0,0:0:0:0:
208,296,141592,1,8,0:0:0:0:
352,168,142123,2,0,P|355:114|368:60,1,106.666666666667,2|0,0:0|0:0,0:0:0:0:
331,9,142654,2,0,P|279:25|231:53,1,106.666666666667,8|0,0:0|0:0,0:0:0:0:
184,92,143185,2,0,B|124:128|67:104|67:104|40:136,1,160,2|8,0:0|0:0,0:0:0:0:
36,324,144247,2,0,B|112:304|144:324|144:324|184:296,1,160,2|8,0:0|0:0,0:0:0:0:
256,116,145309,22,0,B|284:116|308:136|308:136|336:132|360:136,1,106.666666666667,6|0,0:0|0:0,0:0:0:0:
420,132,145840,1,8,0:0:0:0:
240,204,146371,2,0,P|200:236|144:236,1,106.666666666667,2|0,0:0|0:0,0:0:0:0:
84,224,146902,1,8,0:0:0:0:
240,112,147433,2,0,P|200:84|144:88,1,106.666666666667,2|0,0:0|0:0,0:0:0:0:
84,112,147964,2,0,B|56:152|56:152|0:176|8:248,2,160,8|2|8,0:0|0:0|0:0,0:0:0:0:
264,40,149557,6,0,P|316:32|372:48,1,106.666666666667,2|0,0:0|0:0,0:0:0:0:
424,76,150088,1,8,0:0:0:0:
416,268,150619,2,0,P|364:260|324:224,1,106.666666666667,2|0,0:0|0:0,0:0:0:0:
296,168,151150,2,0,P|256:144|196:144,1,106.666666666667,8|0,0:0|0:0,0:0:0:0:
144,176,151681,2,0,B|120:216|136:256|136:256|172:272|192:308,1,160,2|8,0:0|0:0,0:0:0:0:
500,80,153274,2,0,P|492:128|456:172,1,106.666666666667,8|0,0:0|0:0,0:0:0:0:
393,155,153805,22,0,P|340:156|298:187,1,106.666666666667,6|0,0:0|0:0,0:0:0:0:
252,232,154336,2,0,P|208:180|204:92,2,160,8|2|8,0:0|0:0|0:0,0:0:0:0:
436,292,155929,2,0,P|476:260|488:208,1,106.666666666667,2|0,0:0|0:0,0:0:0:0:
476,144,156460,2,0,B|472:112|472:112|416:132|340:124,1,160,8|2,0:0|0:0,0:0:0:0:
232,280,157522,2,0,P|180:271|147:231,1,106.666666666667,8|0,0:0|0:0,0:0:0:0:
147,167,158052,22,0,P|179:127|235:119,2,106.666666666667,2|0|0,0:0|0:0|0:0,0:0:0:0:
275,179,159114,2,0,P|303:139|295:79,2,106.666666666667,2|0|0,0:0|0:0|0:0,0:0:0:0:
147,167,160176,1,2,0:0:0:0:
40,324,160707,1,8,0:0:0:0:
228,364,161238,2,0,B|272:348|312:360|312:360|344:328|376:320,1,160,2|8,0:0|0:0,0:0:0:0:
360,128,162300,22,0,B|368:96|400:80|400:80|384:48|356:48,1,106.666666666667,6|0,0:0|0:0,0:0:0:0:
308,40,162831,2,0,B|256:52|200:40|200:40|176:60|156:64,1,160,8|2,0:0|0:0,0:0:0:0:
52,228,163893,1,8,0:0:0:0:
212,332,164424,2,0,P|288:348|356:304,2,160,2|8|2,0:0|0:0|0:0,0:0:0:0:
260,144,166017,1,8,0:0:0:0:
446,194,166548,38,0,P|422:270|354:306,1,160,2|8,0:0|0:0,0:0:0:0:
272,244,170796,22,0,P|316:212|328:164,1,106.666666666667,6|0,0:0|0:0,0:0:0:0:
324,99,171327,1,8,0:0:0:0:
140,40,171858,2,0,P|100:76|88:128,1,106.666666666667,2|0,0:0|0:0,0:0:0:0:
88,192,172389,1,8,0:0:0:0:
272,244,172920,2,0,B|300:196|280:164|280:164|316:184|352:172,2,160,2|8|2,0:0|0:0|0:0,0:0:0:0:
124,368,174513,2,0,P|88:328|88:276,1,106.666666666667,8|0,0:0|0:0,0:0:0:0:
104,216,175044,6,0,B|140:244|180:236|180:236|180:284|216:312,2,160,2|8|2,0:0|0:0|0:0,0:0:0:0:
192,44,176637,2,0,P|248:44|296:64,1,106.666666666667,8|0,0:0|0:0,0:0:0:0:
344,104,177168,2,0,B|376:128|376:176|376:176|400:188,1,106.666666666667,2|0,0:0|0:0,0:0:0:0:
456,216,177699,2,0,B|488:232|488:232|476:284|400:312,2,160,8|2|8,0:0|0:0|0:0,0:0:0:0:
264,228,179291,38,0,P|212:224|176:184,1,106.666666666667,6|0,0:0|0:0,0:0:0:0:
180,120,179822,2,0,B|220:108|232:64|232:64|276:64|312:48,2,160,8|2|8,0:0|0:0|0:0,0:0:0:0:
12,216,181415,2,0,P|40:264|92:284,1,106.666666666667,2|0,0:0|0:0,0:0:0:0:
148,280,181946,2,0,P|200:276|252:292,1,106.666666666667,8|0,0:0|0:0,0:0:0:0:
316,296,182477,2,0,P|364:276|412:184,1,160,2|8,0:0|0:0,0:0:0:0:
276,48,183539,5,2,0:0:0:0:
96,112,184070,1,8,0:0:0:0:
404,340,185132,2,0,P|448:316|476:264,1,106.666666666667,8|0,0:0|0:0,0:0:0:0:
500,208,185663,1,2,0:0:0:0:
312,164,186194,2,0,B|264:188|264:236|264:236|228:220|196:232,1,160,8|2,0:0|0:0,0:0:0:0:
8,208,187256,2,0,B|16:168|52:140|52:140|52:116,1,106.666666666667,8|0,0:0|0:0,0:0:0:0:
52,51,187787,38,0,P|132:23|204:47,2,160,6|8|2,0:0|0:0|0:0,0:0:0:0:
148,216,189380,2,0,P|200:228|252:216,1,106.666666666667,8|0,0:0|0:0,0:0:0:0:
308,188,189911,2,0,P|356:116|356:44,1,160,2|8,0:0|0:0,0:0:0:0:
228,188,190973,2,0,P|264:256|344:260,1,160,2|8,0:0|0:0,0:0:0:0:
280,80,192035,6,0,P|228:68|176:80,1,106.666666666667,2|0,0:0|0:0,0:0:0:0:
116,96,192566,2,0,B|80:104|36:84|36:84|36:108,1,106.666666666667,8|0,0:0|0:0,0:0:0:0:
36,172,193097,1,2,0:0:0:0:
196,280,193628,1,8,0:0:0:0:
388,292,194159,2,0,P|416:252|416:196,1,106.666666666667,2|0,0:0|0:0,0:0:0:0:
404,132,194690,2,0,B|392:88|420:56|420:56|392:32|344:32,2,160,8|2|8,0:0|0:0|0:0,0:0:0:0:
212,132,196283,38,0,P|264:188|344:200,1,160,6|8,0:0|0:0,0:0:0:0:
220,52,197345,2,0,P|152:80|136:160,1,160,2|8,0:0|0:0,0:0:0:0:
296,52,198406,2,0,P|366:82|380:158,1,160,2|8,0:0|0:0,0:0:0:0:
244,294,199468,2,0,P|173:263|159:187,1,160,2|8,0:0|0:0,0:0:0:0:
348,224,200530,6,0,P|392:252|448:252,1,106.666666666667,2|0,0:0|0:0,0:0:0:0:
480,200,201061,2,0,P|456:156|404:128,1,106.666666666667,8|0,0:0|0:0,0:0:0:0:
344,124,201592,1,2,0:0:0:0:
216,268,202123,1,8,0:0:0:0:
276,84,202654,2,0,P|320:48|376:52,1,106.666666666667,2|0,0:0|0:0,0:0:0:0:
416,88,203185,1,8,0:0:0:0:
412,280,204778,5,2,0:0:0:0:
228,224,205309,1,8,0:0:0:0:
128,60,205840,2,0,B|172:64|192:48|192:48|216:52|232:72,1,106.666666666667,2|0,0:0|0:0,0:0:0:0:
260,120,206371,1,8,0:0:0:0:
376,272,206902,1,2,0:0:0:0:
188,320,207433,2,0,P|132:272|124:188,1,160,8|0,0:0|0:0,0:0:0:0:
