osu file format v5

[General]
AudioFilename: Macross_Frontier_OP.mp3
AudioLeadIn: 993
PreviewTime: -1
Countdown: 1
SampleSet: Normal
StackLeniency: 0.7
Mode: 0
LetterboxInBreaks: 1
EditorBookmarks: 0,16581,22377,35331,37888,62604

[Metadata]
Title:Triangular
Artist:Macross frontier
Creator:Clowkusanagi
Version:Hard
Source:Macross Frontier
Tags:

[Difficulty]
HPDrainRate:7
CircleSize:7
OverallDifficulty:7
SliderMultiplier:1
SliderTickRate:2

[Events]
//Background and Video events
0,0,"macrossF_OST1_nyan_furo_cover.jpg"
//Break Periods
//Storyboard Layer 0 (Background)
//Storyboard Layer 1 (Failing)
//Storyboard Layer 2 (Passing)
//Storyboard Layer 3 (Foreground)
//Storyboard Sound Samples
//Background Colour Transformations
3,100,163,162,255

[TimingPoints]
8400,340.909090909091,4,1,0,47,1

[HitObjects]
416,224,8399,1,0
352,288,8740,1,0
288,320,9081,1,0
256,320,9252,1,0
224,320,9422,1,0
192,288,9593,6,2,B|96:224,1,100
64,224,10104,1,0
64,192,10275,2,2,B|160:128,1,100
192,128,10786,1,4
64,128,11809,5,0
96,96,11979,1,0
160,64,12320,2,0,B|320:64,1,150
352,96,13172,1,0
416,128,13513,1,0
352,160,13854,6,2,B|224:256,2,150
288,160,15218,2,2,B|416:64,2,150
192,160,16581,1,4
448,256,17263,5,0
416,288,17434,1,0
352,320,17775,2,0,B|192:320,1,150
192,288,18627,1,0
128,256,18968,1,0
192,224,19309,6,2,B|320:128,2,150
256,224,20672,2,2,B|128:320,2,150
320,224,22036,1,4
160,160,22718,5,0
224,96,23059,1,0
224,96,23229,1,0
288,96,23570,1,0
288,96,23740,1,0
352,160,24081,1,0
320,224,24422,1,0
352,288,24763,5,0
288,288,25104,1,0
288,288,25275,2,0,B|160:288|160:192,1,150
96,192,26127,5,0
160,128,26468,1,0
160,128,26638,1,0
224,96,26979,1,0
224,96,27150,1,0
224,96,27320,2,2,B|288:96|288:224,1,150
256,192,28172,5,0
256,192,28343,1,0
256,192,28513,1,0
256,192,28684,1,0
96,256,29195,5,0
96,192,29536,1,0
128,128,29877,1,0
192,96,30218,2,2,B|320:96|320:256,2,200
320,128,32263,5,0
352,160,32434,1,0
384,192,32604,1,0
416,224,32775,2,0,B|416:320|320:320,1,150
288,320,33456,1,0
96,224,33968,5,0
128,192,34138,2,0,B|288:96,1,150
256,160,34820,1,0
352,192,35161,1,0
64,320,35672,5,0
160,320,36013,1,0
160,320,36184,1,0
256,320,36525,1,0
320,320,36865,1,0
384,320,37206,2,2,B|480:320|448:320,1,50,0|2
96,160,38400,5,0
160,160,38740,1,0
224,128,39081,1,0
224,128,39252,1,0
224,128,39422,2,0,B|352:128,1,100
352,224,40104,5,0
256,288,40445,1,0
256,288,40615,1,0
256,288,40786,2,0,B|128:288,2,100
128,128,41809,5,0
192,128,42150,1,0
224,128,42320,1,0
288,160,42661,1,0
288,160,42831,1,0
288,160,43002,1,0
416,288,43343,1,0
384,288,43513,2,0,B|160:288,1,200
160,256,44536,5,0
224,192,44877,1,0
224,192,45047,2,0,B|64:192|96:64|192:64,1,250
187,66,46240,1,0
320,64,46581,1,0
256,128,47093,5,0
256,160,47263,1,0
256,224,47775,5,0
224,256,47946,1,0
256,288,48116,1,0
288,256,48286,2,0,B|416:256|416:96,1,200
414,130,49138,1,0
256,256,49990,5,0
192,192,50331,1,0
160,192,50502,1,0
96,160,51013,1,0
96,64,51354,1,0
160,64,51700,2,0,B|288:64,1,100
224,224,52722,6,0,B|96:224,2,100
288,192,53740,2,0,B|352:192,4,50
224,160,54763,2,0,B|96:160,2,100
288,128,55790,2,0,B|416:128,2,100
256,96,56643,1,0
224,96,56813,1,0
192,128,56984,1,0
192,160,57154,1,0
224,192,57325,1,0
256,192,57495,1,0
352,128,58177,5,0
320,64,58518,1,0
288,64,58688,2,0,B|224:64|224:192,1,150
224,224,59540,1,0
192,256,59881,1,0
256,192,60222,12,4,61927
256,96,62945,6,0,B|256:224,3,100
384,96,64309,1,0
416,160,64650,1,0
384,224,64990,1,0
320,256,65331,1,0
224,256,65672,5,2
160,224,66013,1,2
160,224,66184,1,2
96,160,66525,1,2
96,160,66695,1,2
160,96,67036,5,2
224,64,67377,1,2
224,64,67547,1,2
288,64,67888,1,2
288,64,68059,1,2
320,128,68404,6,0,B|192:128,3,100
192,128,69768,1,0
128,192,70109,1,0
128,256,70450,1,0
192,320,70790,1,0
256,320,71131,5,2
320,288,71472,1,2
320,288,71643,1,2
352,224,71984,1,2
352,224,72154,1,2
352,128,72495,5,2
320,64,72836,1,2
320,64,73006,1,2
224,64,73347,1,2
224,64,73518,1,2
256,160,73859,6,2,B|256:288,4,100
320,224,75563,1,0
320,128,75904,1,0
256,96,76245,1,0
192,128,76586,5,0
192,192,76927,1,0
192,192,77097,1,0
192,256,77438,1,0
192,256,77609,1,0
256,320,77950,5,0
320,320,78290,1,0
320,320,78461,1,0
384,256,78802,1,0
384,256,78972,2,2,B|384:128,1,100
352,96,79654,5,0
352,96,79820,1,0
252,96,80331,2,0,B|128:96,1,100
160,160,81013,2,0,B|160:224|288:256,2,150
352,96,82381,5,0
288,64,82722,1,0
256,64,82893,1,0
224,64,83063,1,0
192,96,83234,2,0,B|288:128,1,100
320,128,83745,1,0
320,160,83915,2,0,B|224:192,1,100
192,192,84427,1,0
128,160,84768,6,0,B|128:96,2,50
160,160,85279,6,0,B|160:224,2,50
192,160,85790,6,4,B|320:160|320:288,2,200
