osu file format v12

[General]
AudioFilename: [Leopard-Raws] Machine-Doll wa Kizutsukanai ED2 (MX 1280x720 x264 AAC).mp3
AudioLeadIn: 0
PreviewTime: 44859
Countdown: 3
SampleSet: Soft
StackLeniency: 0.6
Mode: 0
LetterboxInBreaks: 1
EpilepsyWarning: 1
WidescreenStoryboard: 1

[Editor]
Bookmarks: 23390,49265
DistanceSpacing: 2
BeatDivisor: 4
GridSize: 4

[Metadata]
Title:Maware! Setsugetsuka
TitleUnicode:回レ!雪月花
Artist:Machine-doll wa kizutsukanai
ArtistUnicode:機巧少女は傷つかない
Creator:VY1 Mizki
Version:Insane AR10
Source:機巧少女は傷つかない
Tags:potnota, 回レ回レ回レ回レ回レ回レ
BeatmapID:314751
BeatmapSetID:123063

[Difficulty]
HPDrainRate:8
CircleSize:4
OverallDifficulty:6
ApproachRate:10
SliderMultiplier:1.99999990463257
SliderTickRate:1

[Events]
//Background and Video events
Video,0,"magare.avi"
0,0,"ep_503342_0.jpg",0,0
//Break Periods
2,64090,69440
//Storyboard Layer 0 (Background)
//Storyboard Layer 1 (Fail)
//Storyboard Layer 2 (Pass)
//Storyboard Layer 3 (Foreground)
//Storyboard Sound Samples
//Background Colour Transformations
3,100,128,0,0

[TimingPoints]
882,375,4,2,0,100,1,0
10741,-133.333333333333,4,2,0,100,0,0
12048,-200,4,2,0,100,0,0
12985,-200,4,2,0,100,0,0
22538,-66.6666666666667,4,2,0,100,0,0
23007,-100,4,2,0,100,0,0
27141,-100,4,2,0,100,0,0
28641,-133.333333333333,4,2,0,100,0,0
48703,375,4,2,0,100,1,0
48703,-66.6666666666667,4,2,0,100,0,0
51327,-100,4,2,0,100,0,0
62859,-66.6666666666667,4,2,0,100,0,0
74484,-200,4,2,0,100,0,0
74765,-66.6666666666667,4,2,0,100,0,0
80859,-200,4,2,0,100,0,0

[HitObjects]
150,274,882,1,8,0:0:0:0:
143,266,975,1,0,0:0:0:0:
136,258,1069,1,0,0:0:0:0:
304,29,1257,1,0,0:0:0:0:
408,268,1444,6,0,L|301:348,1,99.9999952316285
104,209,1819,2,0,L|94:74,1,99.9999952316285
312,51,2194,6,0,B|353:54|386:64|428:82,1,99.9999952316285
192,192,2569,1,0,0:0:0:0:
416,320,2757,1,0,0:0:0:0:
96,32,2944,1,0,0:0:0:0:
262,203,3132,1,0,0:0:0:0:
89,305,3319,1,0,0:0:0:0:
280,247,3507,6,0,P|341:217|363:173,1,99.9999952316285
222,43,3882,2,0,P|176:62|134:98,1,99.9999952316285
434,128,4257,5,0,0:0:0:0:
146,273,4444,1,0,0:0:0:0:
396,249,4819,2,0,L|347:257,2,49.9999976158143
277,87,5194,5,0,0:0:0:0:
355,180,5382,1,0,0:0:0:0:
204,312,5569,1,0,0:0:0:0:
380,220,5757,2,0,B|355:266|312:304|306:302,1,99.9999952316285
42,125,6132,6,0,P|60:71|99:34,1,99.9999952316285
470,251,6507,2,0,P|452:305|413:342,1,99.9999952316285
197,341,6882,2,0,P|143:323|106:284,1,99.9999952316285
260,149,7257,1,0,0:0:0:0:
359,322,7632,5,0,0:0:0:0:
259,334,7819,1,0,0:0:0:0:
206,332,7913,1,0,0:0:0:0:
161,312,8007,1,0,0:0:0:0:
86,244,8194,2,0,B|61:198|50:155|57:105,1,99.9999952316285
126,78,8569,5,0,0:0:0:0:
416,288,8757,1,0,0:0:0:0:
127,78,8944,1,0,0:0:0:0:
416,288,9132,1,0,0:0:0:0:
268,335,9319,2,0,B|320:320|360:289|379:263,1,99.9999952316285
230,40,9694,2,0,P|177:61|122:109,1,99.9999952316285
152,299,10069,5,0,0:0:0:0:
342,239,10257,2,0,L|311:280,1,49.9999976158143
129,128,10444,2,0,L|174:86,1,49.9999976158143
238,309,10819,5,0,0:0:0:0:
238,309,10913,1,0,0:0:0:0:
365,123,11194,1,0,0:0:0:0:
365,123,11288,1,0,0:0:0:0:
140,120,11569,1,0,0:0:0:0:
140,120,11663,1,0,0:0:0:0:
365,250,11944,5,0,0:0:0:0:
257,193,12132,6,0,L|237:174,8,24.9999988079071
170,35,13069,5,0,0:0:0:0:
108,224,13257,1,0,0:0:0:0:
279,327,13444,1,0,0:0:0:0:
381,80,13819,5,0,0:0:0:0:
356,74,13913,1,0,0:0:0:0:
331,71,14007,1,0,0:0:0:0:
305,69,14100,1,0,0:0:0:0:
280,71,14194,1,0,0:0:0:0:
256,77,14288,1,0,0:0:0:0:
232,84,14382,1,0,0:0:0:0:
124,285,14569,5,0,0:0:0:0:
152,294,14663,1,0,0:0:0:0:
177,300,14757,1,0,0:0:0:0:
202,303,14850,1,0,0:0:0:0:
228,305,14944,1,0,0:0:0:0:
253,304,15038,1,0,0:0:0:0:
277,297,15132,1,0,0:0:0:0:
374,289,15319,2,0,L|348:252,1,24.9999988079071
431,189,15507,2,0,L|452:156,1,24.9999988079071
367,118,15694,2,0,L|344:88,1,24.9999988079071
453,58,15882,2,0,L|472:24,1,24.9999988079071
273,140,16163,5,0,0:0:0:0:
273,140,16257,2,0,P|247:218|225:234,1,99.9999952316285
259,324,16819,5,0,0:0:0:0:
293,304,16913,1,0,0:0:0:0:
324,279,17007,1,0,0:0:0:0:
349,248,17100,1,0,0:0:0:0:
367,212,17194,1,0,0:0:0:0:
376,173,17288,1,0,0:0:0:0:
373,133,17382,1,0,0:0:0:0:
341,68,17569,5,0,0:0:0:0:
312,39,17663,1,0,0:0:0:0:
273,26,17757,1,0,0:0:0:0:
233,30,17850,1,0,0:0:0:0:
194,40,17944,1,0,0:0:0:0:
157,55,18038,1,0,0:0:0:0:
127,82,18132,1,0,0:0:0:0:
105,156,18319,5,0,0:0:0:0:
106,195,18413,1,0,0:0:0:0:
128,240,18507,2,0,L|176:192,1,49.9999976158143
256,160,18882,5,0,0:0:0:0:
256,160,19069,1,0,0:0:0:0:
256,160,19257,1,0,0:0:0:0:
256,160,19444,1,0,0:0:0:0:
332,264,19819,5,0,0:0:0:0:
332,68,20007,1,0,0:0:0:0:
184,268,20194,1,0,0:0:0:0:
184,64,20382,1,0,0:0:0:0:
104,156,20569,1,0,0:0:0:0:
408,160,20757,1,0,0:0:0:0:
25,357,21132,5,0,0:0:0:0:
52,327,21225,1,0,0:0:0:0:
74,293,21319,1,0,0:0:0:0:
89,256,21413,1,0,0:0:0:0:
100,217,21507,1,0,0:0:0:0:
105,177,21600,1,0,0:0:0:0:
107,136,21694,1,0,0:0:0:0:
355,317,21882,5,0,0:0:0:0:
193,42,22069,1,0,0:0:0:0:
263,250,22257,1,0,0:0:0:0:
277,182,22444,1,0,0:0:0:0:
52,168,22632,2,0,L|100:104,3,74.9999992847443
95,108,23007,2,0,B|134:78|179:69|206:72,1,99.9999952316285
215,136,23382,2,0,B|176:166|131:175|104:172,1,99.9999952316285
260,318,23757,5,0,0:0:0:0:
415,191,23944,1,0,0:0:0:0:
261,318,24132,1,0,0:0:0:0:
216,136,24319,1,0,0:0:0:0:
416,192,24507,1,0,0:0:0:0:
264,320,24694,1,0,0:0:0:0:
216,136,24882,1,0,0:0:0:0:
296,200,25257,5,0,0:0:0:0:
224,224,25632,5,0,0:0:0:0:
314,23,25913,1,0,0:0:0:0:
433,182,26194,1,0,0:0:0:0:
302,332,26382,5,0,0:0:0:0:
256,312,26475,1,0,0:0:0:0:
212,292,26569,1,0,0:0:0:0:
398,32,26757,1,0,0:0:0:0:
79,350,26944,1,0,0:0:0:0:
82,83,27319,6,0,L|30:37,1,37.4999996423721
404,107,27694,2,0,L|443:59,1,37.4999996423721
145,287,28069,2,0,L|110:324,1,37.4999996423721
360,224,28444,2,0,L|348:174,2,37.4999996423721
84,42,28819,1,0,0:0:0:0:
360,225,29007,1,0,0:0:0:0:
360,225,29100,1,0,0:0:0:0:
360,225,29194,1,0,0:0:0:0:
415,27,29382,5,0,0:0:0:0:
83,44,29569,1,0,0:0:0:0:
362,224,29757,1,0,0:0:0:0:
160,288,29944,6,0,B|112:272|96:240|96:208,1,74.9999992847443
304,80,30319,1,0,0:0:0:0:
304,80,30413,1,0,0:0:0:0:
304,80,30507,1,0,0:0:0:0:
64,176,30694,1,0,0:0:0:0:
192,256,30882,5,0,0:0:0:0:
224,272,30975,1,0,0:0:0:0:
256,272,31069,1,0,0:0:0:0:
380,184,31257,1,0,0:0:0:0:
257,32,31632,5,0,0:0:0:0:
220,96,31819,1,0,0:0:0:0:
301,130,32007,1,0,0:0:0:0:
177,200,32194,1,0,0:0:0:0:
385,244,32382,1,0,0:0:0:0:
105,350,32569,1,0,0:0:0:0:
259,32,32757,5,0,0:0:0:0:
88,44,33319,5,0,0:0:0:0:
86,63,33413,1,0,0:0:0:0:
84,83,33507,1,0,0:0:0:0:
102,142,33694,5,0,0:0:0:0:
109,170,33788,1,0,0:0:0:0:
117,198,33882,1,0,0:0:0:0:
128,225,33975,1,0,0:0:0:0:
144,252,34069,1,0,0:0:0:0:
171,291,34163,1,0,0:0:0:0:
208,306,34257,1,0,0:0:0:0:
267,259,34444,5,0,0:0:0:0:
257,220,34538,1,0,0:0:0:0:
224,195,34632,1,0,0:0:0:0:
183,192,34725,1,0,0:0:0:0:
150,215,34819,1,0,0:0:0:0:
144,254,34913,1,0,0:0:0:0:
148,292,35007,1,0,0:0:0:0:
462,36,35194,5,0,0:0:0:0:
264,108,35382,1,0,0:0:0:0:
264,108,35475,1,0,0:0:0:0:
424,208,35663,1,0,0:0:0:0:
160,96,35850,5,0,0:0:0:0:
160,96,35944,1,0,0:0:0:0:
64,208,36132,1,0,0:0:0:0:
352,272,36319,2,0,P|304:288|272:304,2,74.9999992847443
352,272,36788,1,0,0:0:0:0:
368,256,36882,5,0,0:0:0:0:
384,240,36975,1,0,0:0:0:0:
400,224,37069,1,0,0:0:0:0:
416,80,37257,2,0,L|368:48,4,37.4999996423721
272,48,37819,5,0,0:0:0:0:
216,54,37913,1,0,0:0:0:0:
169,84,38007,1,0,0:0:0:0:
145,135,38100,1,0,0:0:0:0:
139,191,38194,1,0,0:0:0:0:
231,308,38382,5,0,0:0:0:0:
472,130,38663,1,0,0:0:0:0:
93,36,38944,1,0,0:0:0:0:
45,332,39319,5,0,0:0:0:0:
52,295,39413,1,0,0:0:0:0:
64,260,39507,1,0,0:0:0:0:
86,229,39600,1,0,0:0:0:0:
109,199,39694,2,0,L|144:168,6,37.4999996423721
194,125,40444,1,0,0:0:0:0:
296,78,40632,1,0,0:0:0:0:
463,42,40819,5,0,0:0:0:0:
431,62,40913,1,0,0:0:0:0:
406,90,41007,1,0,0:0:0:0:
391,124,41100,1,0,0:0:0:0:
381,160,41194,1,0,0:0:0:0:
312,292,41382,5,0,0:0:0:0:
376,312,41475,1,0,0:0:0:0:
164,192,41663,1,0,0:0:0:0:
112,164,41757,1,0,0:0:0:0:
112,64,41944,5,0,0:0:0:0:
112,64,42038,1,0,0:0:0:0:
112,64,42132,1,0,0:0:0:0:
224,160,42319,5,0,0:0:0:0:
224,160,42413,1,0,0:0:0:0:
403,72,42694,1,0,0:0:0:0:
313,274,42882,1,0,0:0:0:0:
79,193,43069,1,0,0:0:0:0:
180,42,43257,1,0,0:0:0:0:
234,294,43444,1,0,0:0:0:0:
98,262,43632,2,0,L|208:157,1,149.999998569489
332,104,44382,5,0,0:0:0:0:
36,52,44757,1,0,0:0:0:0:
180,316,45132,1,0,0:0:0:0:
268,108,45413,1,0,0:0:0:0:
44,132,45694,5,0,0:0:0:0:
188,92,45882,1,0,0:0:0:0:
140,232,46069,1,0,0:0:0:0:
108,84,46257,1,0,0:0:0:0:
140,232,46444,1,0,0:0:0:0:
248,76,46632,2,0,B|292:96|292:96|292:72|292:72|312:96|312:96|312:72|312:72|332:96|332:96|332:72|332:72|352:96|352:96|352:72|352:72|372:88|372:88|424:108,1,299.999997138977
132,92,47569,5,0,0:0:0:0:
132,92,47663,1,0,0:0:0:0:
132,92,47757,1,0,0:0:0:0:
256,60,47944,5,0,0:0:0:0:
256,60,48038,1,0,0:0:0:0:
256,60,48132,1,0,0:0:0:0:
376,92,48319,5,0,0:0:0:0:
376,92,48413,1,0,0:0:0:0:
376,92,48507,1,0,0:0:0:0:
372,248,48704,1,0,0:0:0:0:
140,325,48891,2,0,P|102:304|40:192,1,149.999998569489
365,31,49265,2,0,P|403:52|465:164,1,149.999998569489
304,320,49641,5,0,0:0:0:0:
192,300,49828,2,0,B|120:256|96:204|96:188,1,149.999998569489
100,92,50204,1,0,0:0:0:0:
360,260,50391,1,0,0:0:0:0:
292,56,50578,2,0,B|232:96|184:144|164:172,1,149.999998569489
220,44,50954,5,0,0:0:0:0:
220,44,51046,1,0,0:0:0:0:
220,44,51141,1,0,0:0:0:0:
260,136,51328,1,0,0:0:0:0:
128,48,51515,6,0,P|80:64|48:104,1,99.9999952316285
48,100,51890,2,0,P|96:116|128:156,1,99.9999952316285
128,156,52265,2,0,P|80:172|48:212,1,99.9999952316285
52,208,52640,2,0,P|100:224|132:264,1,99.9999952316285
256,192,53016,12,0,53766,0:0:0:0:
256,192,54141,5,0,0:0:0:0:
400,80,54516,1,0,0:0:0:0:
368,224,54704,2,0,B|320:208|304:160|289:151,1,99.9999952316285
208,80,55079,2,0,P|160:64|101:77,1,99.9999952316285
48,192,55454,2,0,P|80:240|119:266,1,99.9999952316285
240,272,55829,5,0,0:0:0:0:
336,160,56016,2,0,P|304:96|272:80,1,74.9999992847443
160,64,56391,1,0,0:0:0:0:
144,208,56579,1,0,0:0:0:0:
321,296,56765,2,0,P|388:264|398:229,1,99.9999952316285
432,48,57141,2,0,P|384:32|352:32,1,74.9999992847443
256,192,57516,12,0,58453,0:0:0:0:
141,57,58546,6,0,P|94:78|86:90,4,49.9999976158143
275,165,59015,6,0,P|322:144|330:132,4,49.9999976158143
178,288,59484,6,0,P|131:309|123:321,4,49.9999976158143
332,306,59953,6,0,P|379:285|387:273,4,49.9999976158143
240,28,60703,2,0,P|179:152|135:177,1,149.999992847443
176,158,61078,2,0,P|270:189|321:248,1,149.999992847443
306,223,61453,2,0,P|328:169|344:146,1,49.9999976158143
150,68,61828,5,0,0:0:0:0:
326,160,62015,1,0,0:0:0:0:
122,156,62203,1,0,0:0:0:0:
311,72,62390,1,0,0:0:0:0:
188,230,62578,1,0,0:0:0:0:
188,230,62671,1,0,0:0:0:0:
419,46,62953,5,0,0:0:0:0:
176,45,63140,2,0,B|101:79|70:151,1,149.999998569489
293,340,63515,2,0,B|368:306|399:234,2,149.999998569489
126,69,69890,6,0,B|86:144|98:224|183:261,1,224.999997854233
182,259,70265,6,0,B|257:219|337:231|374:316,1,224.999997854233
371,310,70640,6,0,B|331:235|343:155|428:118,1,224.999997854233
185,110,71203,5,0,0:0:0:0:
232,83,71296,1,0,0:0:0:0:
185,110,71390,2,0,B|119:160|92:212|92:251,1,149.999998569489
418,280,71953,5,0,0:0:0:0:
371,307,72046,1,0,0:0:0:0:
351,259,72140,1,0,0:0:0:0:
314,98,72328,5,0,0:0:0:0:
192,249,72515,1,0,0:0:0:0:
110,230,72703,1,0,0:0:0:0:
446,49,72890,1,0,0:0:0:0:
402,224,73078,1,0,0:0:0:0:
64,87,73265,1,0,0:0:0:0:
65,163,73453,1,0,0:0:0:0:
165,299,73828,6,0,P|240:324|300:284,2,149.999998569489
318,40,74390,1,0,0:0:0:0:
107,255,74578,2,0,L|86:273,4,24.9999988079071
359,91,75140,1,0,0:0:0:0:
61,46,75328,1,0,0:0:0:0:
239,285,75515,1,0,0:0:0:0:
425,341,75703,2,0,P|470:254|464:198,4,149.999998569489
382,44,76640,5,0,0:0:0:0:
103,154,76828,1,0,0:0:0:0:
334,329,77203,5,0,0:0:0:0:
227,271,77296,1,0,0:0:0:0:
256,149,77390,1,0,0:0:0:0:
235,40,77953,5,0,0:0:0:0:
342,98,78046,1,0,0:0:0:0:
313,220,78140,1,0,0:0:0:0:
144,304,78328,5,0,0:0:0:0:
80,208,78515,1,0,0:0:0:0:
96,96,78703,1,0,0:0:0:0:
288,304,78890,2,0,L|192:192,1,74.9999992847443
240,245,79171,2,0,L|336:133,1,74.9999992847443
304,32,79453,1,0,0:0:0:0:
316,322,79828,5,0,0:0:0:0:
104,60,80015,5,0,0:0:0:0:
454,91,80203,5,0,0:0:0:0:
96,145,80390,1,0,0:0:0:0:
379,61,80578,1,0,0:0:0:0:
87,227,80765,1,0,0:0:0:0:
165,339,80953,5,0,0:0:0:0:
287,38,81140,2,0,L|261:66,1,24.9999988079071
75,325,81515,2,0,L|101:297,1,24.9999988079071
457,149,81890,2,0,L|429:123,1,24.9999988079071
