osu file format v5

[General]
AudioFilename: The Great Giana Sisters (Long Version).mp3
AudioLeadIn: 0
PreviewTime: -1
Countdown: 1
SampleSet: Soft
StackLeniency: 0.7
Mode: 0
LetterboxInBreaks: 1

[Metadata]
Title:The Great Gianna Sisters
Artist:Machinae Supremacy
Creator:Sushi971
Version:Supremacy
Source:
Tags:

[Difficulty]
HPDrainRate:7
CircleSize:5
OverallDifficulty:7
SliderMultiplier:1.4
SliderTickRate:2

[Events]
//Background and Video events
0,0,"The Great Giana Sisters (Long Version)-BG.png"
//Break Periods
2,49287,59529
2,125530,137482
2,155516,165704
2,206315,209717
//Storyboard Layer 0 (Background)
//Storyboard Layer 1 (Failing)
//Storyboard Layer 2 (Passing)
//Storyboard Layer 3 (Foreground)
//Storyboard Sound Samples
//Background Colour Transformations
3,100,163,162,255

[TimingPoints]
21902,478.908089555813,4,2,0,100,1
41027,352.837400764481,4,1,0,100,1
59318,-100,4,2,0,100,0
72018,-100,4,1,0,100,0
91463,-200,4,1,0,100,0
94638,-100,4,2,0,100,0
102399,-100,4,1,0,100,0
210570,479.884827641366,4,2,0,100,1
256635,-200,4,2,0,100,0

[Colours]
Combo1 : 0,255,128
Combo2 : 0,0,255
Combo3 : 0,255,255
Combo4 : 0,128,192

[HitObjects]
256,192,21901,1,0
256,96,22380,1,0
344,144,22859,1,0
344,240,23338,1,0
256,288,23817,1,0
168,248,24296,1,0
168,152,24775,1,0
256,104,25254,2,2,B|352:152|256:216,1,140
168,208,26212,5,0
96,272,26691,1,0
24,208,27169,1,0
96,136,27648,1,0
168,208,28127,1,0
264,208,28606,1,0
360,208,29085,2,2,B|464:176|240:136|424:104,1,140,4|2
288,64,30043,5,0
192,64,30522,1,0
120,128,31001,1,0
120,224,31480,1,0
192,296,31959,1,0
288,296,32437,1,0
352,224,32916,2,2,B|448:184|344:112,1,140,2|2
256,128,33874,5,0
184,192,34353,1,0
256,264,34832,1,0
328,192,35311,1,0
400,264,35790,1,0
400,168,36269,2,4,B|480:168|504:264,1,140,4|4
400,264,37227,6,0,B|288:264,1,70
330,264,37705,1,2
232,264,38184,2,0,B|112:264,1,70
162,264,38663,1,2
160,168,39142,2,0,B|272:168,1,70
230,168,39621,1,2
328,168,40100,2,0,B|432:168,1,70
398,168,40579,1,4
256,56,41027,5,4
256,192,41379,1,0
256,328,41732,1,0
392,328,42085,1,0
424,192,42438,1,4
392,56,42791,1,0
368,192,43144,1,0
224,192,43496,1,0
24,192,43849,6,0,B|88:144,1,70,4|0
144,160,44202,2,0,B|208:200,1,70,0|0
272,200,44555,2,0,B|336:152,1,70
400,160,44908,2,0,B|464:208,1,70,0|4
448,272,45261,2,0,B|360:208,1,70,4|0
320,232,45613,2,0,B|248:288,1,70
192,272,45966,2,0,B|120:224,1,70
64,232,46319,2,0,B|0:280,1,70
80,344,46672,6,0,B|120:240|232:304,2,140,4|0|4
80,200,47730,1,0
216,200,48083,2,0,B|320:200|296:88,2,140,4|0|4
216,336,49142,1,2
256,192,60785,5,0
288,192,60962,1,0
320,192,61138,1,2
344,168,61315,1,0
368,144,61491,1,0
384,112,61667,1,0
384,80,61844,1,2
368,48,62020,1,0
336,32,62197,5,0
304,32,62373,1,0
272,32,62550,1,4
240,32,62726,1,0
200,32,62902,1,4
128,32,63255,2,4,B|24:32|16:152,1,140,4|0
24,144,63785,5,0
40,176,63961,1,2
64,200,64137,1,0
96,200,64314,1,0
128,200,64490,1,0
160,216,64667,1,2
176,248,64843,1,0
184,280,65019,5,0
200,312,65196,1,0
232,320,65372,1,4
264,320,65549,1,0
296,320,65725,1,4
368,320,66078,2,4,B|464:320|464:208,1,140,4|0
464,200,66607,5,0
464,168,66784,1,2
456,136,66960,1,0
432,112,67136,1,0
400,112,67313,1,0
368,128,67489,1,2
368,160,67666,1,0
368,192,67842,5,0
352,224,68019,1,0
320,248,68195,1,4
288,256,68371,1,0
256,256,68548,1,4
184,256,68901,2,4,B|56:256|56:128,1,140,4|0
64,160,69430,5,0
64,128,69606,1,2
64,88,69783,1,0
64,56,69959,1,0
96,56,70136,1,0
120,80,70312,1,2
136,104,70488,1,0
168,104,70665,5,0
192,80,70841,1,0
216,56,71018,1,4
248,56,71194,1,0
272,80,71371,1,4
272,152,71723,2,4,B|264:240|392:248,1,140
488,192,72429,5,0
424,64,72782,1,0
360,192,73135,1,0
296,64,73488,1,0
264,128,73664,5,0
240,192,73840,1,0
168,192,74017,1,0
96,192,74193,1,0
24,192,74370,1,0
24,264,74546,1,0
96,264,74722,1,0
232,264,74899,5,0
232,264,75075,1,0
304,264,75252,1,0
376,264,75428,2,0,B|456:248|368:144,1,140
408,96,75957,1,0
336,96,76134,1,0
296,32,76310,5,0
296,32,76487,1,0
256,88,76663,1,0
200,128,76839,2,0,B|72:160|104:232,1,140
56,264,77369,1,0
128,264,77545,1,0
200,264,77722,5,0
200,264,77898,1,0
272,264,78074,1,0
200,264,78251,1,0
216,192,78427,2,0,B|176:144|384:128,1,140
319,134,78957,2,0,B|464:104|392:272,1,210
120,192,79839,5,4
400,192,80191,5,4
256,352,80544,6,0,B|184:264|368:152|208:72,1,280
192,136,81426,1,0
240,184,81603,1,0
288,232,81779,1,0
336,280,81956,2,0,B|432:280|432:192,1,140
431,201,82485,1,0
288,200,82838,1,0
144,200,83191,1,0
256,192,83720,12,0,85837
256,336,86190,6,0,B|344:272|168:192|296:80,1,280
344,128,87072,1,0
296,176,87248,1,0
248,224,87425,1,0
200,272,87601,2,0,B|144:320|56:296|96:208,1,140
86,256,88130,1,0
200,176,88483,1,0
320,112,88836,1,0
256,192,89365,12,4,91482
8,168,91835,6,0,B|192:40|304:320|488:144,1,490,0|4
192,192,94658,5,0
192,192,94834,1,0
192,192,95011,1,2
192,192,95187,1,0
264,192,95363,5,0
264,192,95540,1,4
264,192,95716,1,0
264,192,95893,1,4
264,120,96069,5,0
264,120,96246,1,0
264,120,96422,1,2
264,120,96598,1,0
192,120,96775,5,0
192,120,96951,1,4
192,120,97128,1,0
192,120,97304,1,4
120,120,97480,5,0
120,192,97657,1,0
120,264,97833,1,2
120,336,98010,1,0
192,336,98186,5,0
192,336,98363,1,4
192,336,98539,1,0
192,336,98715,1,4
264,336,98892,5,0
264,264,99068,1,0
336,264,99245,1,2
336,192,99421,1,0
336,120,99598,5,0
336,120,99774,1,4
336,120,99950,1,0
336,120,100127,1,4
256,192,100303,12,4,102773
56,192,103126,5,0
152,288,103479,1,2
104,160,103832,1,0
200,256,104184,1,2
152,128,104537,1,0
288,128,104890,1,2
360,128,105066,1,4
323,67,105243,1,4
321,207,105596,1,2
456,192,105949,5,0
360,288,106301,1,2
408,160,106654,1,0
312,256,107007,1,2
360,128,107360,1,0
220,133,107713,1,2
148,133,107889,1,4
185,72,108066,1,4
186,211,108418,1,2
328,192,108771,5,0
328,48,109124,1,2
328,192,109477,1,0
464,192,109830,1,2
328,192,110183,1,0
328,328,110535,1,2
256,312,110712,1,4
216,256,110888,1,4
328,192,111241,1,2
256,72,111594,5,0
160,168,111947,1,2
256,72,112300,1,0
352,168,112652,1,2
256,72,113005,1,0
256,208,113358,1,2
256,280,113535,1,4
256,352,113711,1,4
256,208,114064,1,2
392,192,114417,5,0
392,48,114770,5,2
320,48,114946,1,4
320,48,115122,1,0
320,48,115299,1,0
320,120,115475,1,2
320,192,115652,1,0
320,192,115828,1,4
320,192,116004,1,0
248,192,116181,5,2
176,192,116357,1,0
176,192,116534,1,4
176,192,116710,1,0
104,192,116887,1,2
104,264,117063,1,0
104,264,117239,1,4
104,264,117416,1,0
176,264,117592,5,2
248,264,117769,1,0
248,264,117945,1,4
384,264,118298,5,2
384,192,118474,1,0
456,192,118651,1,4
456,120,118827,1,0
456,48,119004,1,2
384,48,119180,1,0
312,48,119356,1,0
240,48,119533,1,0
240,48,119621,1,0
240,48,119709,1,2
224,184,120062,5,4
360,184,120415,5,2
432,184,120591,2,0,B|432:280,2,70,0|4|0
432,112,121121,1,2
432,40,121297,2,0,B|512:40,2,70,0|4|0
360,40,121826,5,2
288,40,122003,2,0,B|192:40,2,70,0|4|0
288,112,122532,1,2
288,184,122708,2,0,B|288:296,2,70,0|4|0
216,184,123238,5,2
144,184,123414,1,0
72,184,123590,1,4
80,320,123943,5,2
144,304,124120,1,0
208,280,124296,1,0
272,256,124473,1,0
208,224,124649,1,2
144,192,124825,1,0
80,160,125002,1,2
144,136,125178,1,0
176,123,125266,1,0
208,112,125355,1,2
120,296,138410,5,0
120,296,138586,1,0
192,296,138762,1,0
264,296,138939,2,0,B|392:304|416:208,1,140
440,200,139468,1,0
368,200,139645,1,0
296,200,139821,6,2,B|304:88|416:112,3,140,2|2|2|2
56,192,141409,5,0
96,248,141585,1,0
136,192,141762,1,0
176,248,141938,2,0,B|296:248|312:192,1,140
304,207,142467,2,0,B|368:160|440:160|384:280,1,140
403,222,142997,1,0
160,88,143349,5,4
360,280,143702,5,4
216,280,144055,5,0
178,221,144231,1,0
250,221,144408,2,0,B|328:256|352:168,1,70
376,192,144761,2,0,B|448:144|328:72,1,140
280,56,145290,2,0,B|128:16|32:112|104:232,1,280
128,224,146172,5,0
176,272,146348,1,0
224,320,146525,1,0
240,248,146701,2,0,B|128:232|144:336|72:304,1,140,0|0
72,248,147231,1,0
56,176,147407,2,2,B|48:88|232:72,1,210,2|0
288,72,148113,5,0
360,72,148289,1,0
320,208,148642,1,4
320,208,148730,1,4
320,208,148818,1,4
320,208,148907,1,4
320,208,148995,1,4
320,280,149171,1,4
112,288,149700,6,0,B|40:288|40:136|120:104,1,210
160,80,150406,1,0
224,56,150583,1,0
296,48,150759,1,0
368,56,150935,1,0
432,88,151112,2,0,B|504:128|504:208|400:248,1,210
344,264,151817,1,0
280,288,151994,1,0
208,296,152170,1,0
136,280,152347,1,0
88,224,152523,5,4
88,64,152788,1,4
248,64,153052,1,4
336,192,153317,1,4
176,192,153582,1,4
176,192,153758,5,4
256,328,154023,1,4
416,328,154287,1,4
416,168,154552,1,4
256,144,154817,1,4
104,96,155081,1,4
144,248,155346,1,4
256,336,166637,5,4
424,192,167695,5,0
384,136,167872,1,0
328,88,168048,1,0
256,72,168224,1,0
184,72,168401,1,0
120,104,168577,1,0
88,160,168754,1,2
88,232,168930,1,0
144,272,169106,1,2
208,248,169283,1,0
240,184,169459,5,0
184,136,169636,1,0
120,168,169812,1,0
96,232,169989,1,0
136,288,170165,1,2
200,320,170341,1,0
264,304,170518,1,2
320,264,170694,1,0
352,200,170871,5,0
344,128,171047,1,0
304,72,171224,1,0
232,64,171400,1,0
192,120,171576,1,2
200,192,171753,1,0
248,240,171929,1,2
312,264,172106,1,0
384,248,172282,5,0
384,88,172547,1,0
256,184,172811,1,0
152,64,173076,1,0
24,152,173341,1,0
88,296,173605,1,0
232,352,173870,1,0
328,232,174134,1,0
480,192,174399,2,2,B|472:72|368:96,1,140
192,88,175105,5,0
328,168,175369,1,0
184,224,175634,1,0
72,336,175899,1,0
40,184,176163,1,0
120,48,176428,1,0
272,64,176692,1,0
384,168,176957,1,0
256,264,177222,2,2,B|152:264|176:160,1,140,2|2
32,184,177927,5,0
256,16,178280,5,0
480,184,178633,5,0
256,360,178986,5,0
256,192,179339,12,0,180397
144,192,180750,5,0
144,192,180927,1,0
216,192,181103,1,0
288,192,181279,2,4,B|392:192|424:296,1,140
440,312,181809,1,0
368,312,181985,1,0
296,312,182161,5,0
296,312,182338,1,0
224,312,182514,1,0
152,312,182691,2,4,B|64:312|64:200,1,140
32,160,183220,1,0
104,160,183396,1,0
176,160,183573,5,0
176,160,183749,1,0
248,160,183926,1,0
176,160,184102,1,0
176,88,184278,2,0,B|176:32|328:32,1,140
291,32,184808,2,0,B|392:24|456:80|384:200,1,210
144,56,185690,5,4
144,344,186043,5,4
280,344,186396,6,0,B|280:224|160:224|176:40,1,280,0|0
240,96,187278,1,0
288,144,187454,1,0
240,192,187630,1,0
288,240,187807,2,0,B|392:216|376:88,1,140
376,144,188336,1,0
256,64,188689,1,0
136,144,189042,1,0
256,192,189571,12,4,191688
176,344,192041,6,0,B|176:192|288:248|288:48,1,280
216,96,192923,1,0
144,96,193099,1,0
144,168,193276,1,0
216,168,193452,2,0,B|288:168|336:240,1,140
332,234,193982,1,0
392,360,194334,1,0
248,360,194687,1,0
256,192,195216,12,4,197333
24,312,197686,6,4,B|24:216|112:192|200:216|200:312,1,280
256,264,198568,1,4
304,216,198745,1,4
352,168,198921,1,4
392,112,199098,1,4
440,56,199274,1,4
368,56,199450,2,4,B|328:112|328:112|368:168|368:168|320:224|320:224|376:296,1,280
496,320,200509,6,4,B|496:224|408:200|320:224|320:320,1,280
264,272,201391,1,4
216,224,201568,1,4
168,176,201744,1,4
128,120,201920,1,4
80,64,202097,1,4
152,64,202273,2,4,B|192:120|192:120|152:176|152:176|200:232|200:232|144:304,1,280
144,144,203332,6,0,B|208:48|320:48|376:144,1,280
328,192,204214,1,0
280,240,204390,1,0
232,288,204567,1,0
256,192,204743,12,0,206154
80,192,210570,6,0,B|128:128|160:176,1,93.3333333333333
200,168,211049,1,2
280,168,211369,1,2
280,304,211849,1,2
224,304,212009,1,2
224,216,212329,1,0
224,160,212489,2,0,B|224:48,1,93.3333333333333
270,66,212969,1,2
363,69,213289,1,2
400,224,213769,5,0
400,272,213929,1,0
312,272,214249,1,0
256,272,214409,2,0,B|152:272,1,93.3333333333333
112,272,214888,5,2
24,272,215208,1,2
24,128,215688,1,2
72,128,215848,1,2
160,128,216168,1,0
208,128,216328,2,0,B|208:232,1,93.3333333333333
208,264,216808,1,2
296,264,217128,1,2
400,200,217608,1,0
400,248,217768,1,0
256,272,218248,6,0,B|149:321|112:224,1,140
129,256,219047,2,0,B|48:136|128:40|296:72,1,326.666666666667
248,208,220647,1,2
336,208,220967,1,2
336,64,221447,5,2
280,64,221607,1,2
192,64,221927,2,2,B|121:62|96:152|112:192,1,140
107,210,222567,1,0
224,280,223047,1,0
360,280,223526,1,0
416,240,223846,2,0,B|400:40|288:16|112:40,1,420,0|0
122,37,225446,1,0
176,88,225926,6,0,B|69:137|232:168,1,140,0|0
202,161,226726,2,0,B|338:233|234:297|42:129|34:249|50:289|80:296,1,326.666666666667,0|0
224,296,228325,1,2
312,296,228645,1,2
448,296,229125,5,2
448,240,229285,1,2
448,152,229605,2,2,B|377:150|352:240|368:280,1,140
363,245,230245,1,0
224,248,230725,1,0
280,120,231205,1,0
344,192,231524,2,0,B|368:48|160:40|16:72|72:256|208:216,1,466.666666666667
244,317,233604,6,0,B|260:221|388:245,1,140,0|0
432,240,234404,1,0
432,184,234564,1,0
344,184,234884,1,0
344,240,235044,1,0
256,240,235364,1,0
256,184,235524,2,0,B|112:184,1,140
120,96,236323,5,0
120,40,236483,1,0
208,40,236803,1,0
208,96,236963,1,0
296,96,237283,2,0,B|440:96|464:256|408:312|368:328|256:344|192:344|128:288|72:232,1,606.666666666667
256,192,239842,5,0
256,192,240162,1,0
268,317,241282,6,0,B|252:221|124:245,1,140,0|0
80,240,242082,1,0
80,184,242242,1,0
168,184,242562,1,0
168,240,242722,1,0
256,240,243042,1,0
256,184,243202,2,0,B|400:184,1,140
376,96,244001,5,0
376,40,244161,1,0
288,40,244481,1,0
288,96,244641,1,0
200,96,244961,2,0,B|56:96|32:256|88:312|128:328|240:344|304:344|368:288|432:232,1,606.666666666667,0|0
256,192,247521,5,0
256,192,247841,1,0
256,360,248960,6,0,B|160:288|392:192|200:16,1,373.333333333333
209,24,250400,1,2
88,192,250880,6,0,B|160:96|256:328|424:128,1,373.333333333333
419,133,252319,1,2
256,192,252799,12,4,255679
256,312,256638,5,4
176,240,257358,5,4
8,184,258558,6,4,B|8:40|136:40|136:184|160:264|280:264|328:184|328:40|368:160|456:176,1,560,4|0
