osu file format v5

[General]
AudioFilename: The Great Giana Sisters (Long Version).mp3
AudioLeadIn: 0
PreviewTime: -1
Countdown: 1
SampleSet: Soft
StackLeniency: 0.7
Mode: 0
LetterboxInBreaks: 1
EditorBookmarks: 46661

[Metadata]
Title:The Great Gianna Sisters
Artist:Machinae Supremacy
Creator:Sushi971
Version:Domination
Source:
Tags:

[Difficulty]
HPDrainRate:5
CircleSize:3
OverallDifficulty:5
SliderMultiplier:1
SliderTickRate:2

[Events]
//Background and Video events
0,0,"The Great Giana Sisters (Long Version)-BG.png"
//Break Periods
2,49330,59572
2,125530,137482
2,155516,165704
2,206315,209717
//Storyboard Layer 0 (Background)
//Storyboard Layer 1 (Failing)
//Storyboard Layer 2 (Passing)
//Storyboard Layer 3 (Foreground)
//Storyboard Sound Samples
//Background Colour Transformations
3,100,163,162,255

[TimingPoints]
21902,478.908089555813,4,2,0,100,1
41027,352.837400764481,4,1,0,100,1
59318,-100,4,2,0,100,0
72018,-100,4,1,0,100,0
91463,-200,4,1,0,100,0
94638,-100,4,2,0,100,0
102399,-100,4,1,0,100,0
210570,479.884827641366,4,2,0,100,1
256635,-200,4,2,0,100,0

[Colours]
Combo1 : 0,255,128
Combo2 : 0,0,255
Combo3 : 0,255,255
Combo4 : 0,128,192

[HitObjects]
256,192,21901,2,0,B|304:128|392:128|432:192,1,200
352,328,23817,1,0
392,264,24296,1,0
312,264,24775,1,0
256,192,25733,6,0,B|208:256|120:256|80:192,1,200
160,56,27648,1,0
80,56,28127,1,0
80,136,28606,1,0
256,192,29564,6,0,B|192:144|192:56|256:16,1,200
392,96,31480,1,0
432,24,31959,1,0
352,24,32437,1,0
256,192,33395,6,0,B|320:240|320:328|256:368,1,200
120,288,35311,1,2
120,208,35790,1,2
200,208,36269,1,2
280,208,36748,1,0
352,232,37227,5,0
352,152,37705,1,0
296,88,38184,1,0
216,88,38663,1,0
168,152,39142,1,0
168,232,39621,1,0
216,296,40099,1,0
296,296,40578,1,0
256,192,41027,5,4
256,192,42438,5,4
208,192,43849,6,0,B|264:168|344:200,3,100
264,280,45261,1,4
264,280,45613,1,0
264,280,45966,1,0
64,280,46672,6,0,B|64:168|128:176,1,100,0|0
184,184,47378,1,0
280,184,47730,1,0
392,184,48083,2,0,B|288:56|88:128,1,300,4|2
256,192,60785,6,0,B|144:192|88:304,1,200
96,360,61844,1,0
168,360,62197,2,2,B|216:312|272:368,2,100,2|0|2
96,360,63255,1,4
96,288,63608,6,0,B|96:184|216:208|216:104,1,200
280,136,64667,1,0
352,136,65019,2,2,B|408:136|416:56,2,100,2|0|2
280,136,66078,1,4
280,208,66431,6,0,B|280:264|392:240|240:368,1,200
173,365,67489,1,0
176,296,67842,2,2,B|176:216|72:248,2,100,2|0|2
175,366,68901,1,4
176,296,69253,5,0
176,224,69606,1,0
176,152,69959,1,0
248,152,70312,1,4
320,152,70665,1,2
392,152,71018,2,0,B|464:144|464:240,2,100,4|4|4
392,264,72076,5,0
288,264,72429,1,0
184,264,72782,1,0
80,264,73135,1,0
80,160,73488,2,0,B|128:112,3,50
168,120,74193,2,0,B|216:168,3,50,0|0|0|0
216,208,74899,5,0
216,208,75075,1,0
312,208,75428,2,0,B|384:232|424:96,1,150,0|0
416,24,76310,5,0
416,24,76487,1,0
312,24,76839,2,0,B|176:8|184:96,1,150,0|0
184,168,77722,5,0
184,264,78074,1,0
280,288,78427,2,0,B|344:208|256:128,2,150,0|0|0
128,288,79839,5,4
128,136,80191,5,4
72,288,80544,6,0,B|96:184|192:136|320:128,1,300
400,136,81956,2,0,B|376:240|280:288|152:296,1,300,0|0
170,193,83367,1,0
256,192,83720,12,0,85837
384,280,86190,6,0,B|360:176|136:200|160:72,1,300,0|0
259,102,87601,2,0,B|467:94|43:270|258:284,1,300,0|0
329,284,89012,1,0
256,192,89365,12,4,91482
192,272,91835,6,0,B|328:192|328:104|192:104|192:192|320:272,1,350
176,192,94658,5,0
176,192,94834,1,0
176,192,95011,1,2
272,192,95363,2,0,B|344:192|344:96,1,100,0|4
440,136,96069,5,0
440,136,96246,1,0
440,136,96422,1,2
440,232,96775,2,0,B|440:344,1,100,0|4
336,336,97480,5,0
288,336,97657,1,0
312,288,97833,1,2
312,184,98186,2,0,B|312:104|232:80,1,100,0|4
168,104,98892,5,0
120,104,99068,1,0
144,144,99245,1,2
144,240,99598,2,0,B|144:304|240:288,1,100,0|2
256,192,100303,12,4,102773
208,64,103126,5,0
304,64,103479,1,2
256,152,103832,1,0
208,240,104184,1,2
304,240,104537,1,0
280,336,104890,2,4,B|192:336,2,50,2|4|2
256,240,105596,1,2
208,328,105949,5,0
304,328,106301,1,2
256,240,106654,1,0
208,152,107007,1,2
304,152,107360,1,0
280,56,107713,2,4,B|192:56,2,50,2|4|2
256,152,108418,1,2
256,248,108771,5,0
152,248,109124,1,2
208,328,109477,1,0
304,328,109830,1,2
368,248,110183,1,0
304,176,110535,1,2
256,176,110712,1,4
208,176,110888,1,4
256,88,111241,1,2
256,88,111594,5,0
152,88,111947,1,2
208,8,112300,1,0
304,8,112652,1,2
368,88,113005,1,0
304,160,113358,1,2
256,160,113535,1,4
208,160,113711,1,4
256,248,114064,1,2
256,344,114417,5,0
352,344,114770,1,2
448,344,115122,1,0
448,240,115475,1,2
448,136,115828,2,4,B|344:136,3,100,4|2|4|2
248,136,117239,5,0
144,136,117592,1,2
144,232,117945,1,0
144,328,118298,1,2
40,328,118651,2,0,B|40:200,3,100,4|2|4|2
240,328,120062,5,4
240,224,120415,1,0
240,120,120768,2,2,B|160:120,2,50,2|0|2
336,120,121473,1,4
336,224,121826,1,0
336,328,122179,2,2,B|400:328,2,50,2|0|2
256,264,122885,6,2,B|216:224|256:160,1,100,2|2
249,171,123590,2,2,B|304:112|248:56,1,100
256,192,124296,12,4,125355
256,80,138410,5,0
256,80,138586,1,0
256,176,138939,2,0,B|328:224|264:312,1,150,0|0
168,304,139821,2,2,B|152:352|96:296,6,50,2|2|2|2|2|2|2
120,112,141585,5,0
120,208,141938,2,0,B|216:240|256:152,2,150
200,80,143349,5,4
304,192,143702,5,4
416,296,144055,5,0
416,192,144408,2,0,B|488:192|488:112,2,100,0|0|0
416,192,145290,2,0,B|264:152|168:248|200:304,1,250
144,264,146348,5,0
96,264,146525,1,0
48,264,146701,2,0,B|24:192|152:136,1,150,0|0
123,149,147407,2,2,B|216:112|144:40|288:48,1,200,2|0
278,47,148289,1,0
280,144,148642,2,4,B|328:144,4,25
280,144,149171,1,4
256,288,149700,6,0,B|136:288,1,100
56,288,150406,2,2,B|56:176,1,100,0|2
56,88,151112,2,0,B|184:88,1,100
256,96,151817,2,2,B|344:200,1,100,0|2
256,192,152523,12,4,155346
256,336,166637,5,4
424,192,167695,5,0
376,192,167871,1,0
328,192,168048,1,0
224,192,168401,1,0
192,152,168577,1,0
160,112,168754,1,2
80,48,169106,5,2
80,96,169283,1,0
80,144,169459,1,0
80,240,169812,1,0
128,240,169988,1,0
176,240,170165,1,2
272,240,170518,5,2
304,200,170694,1,0
336,160,170871,1,0
392,72,171223,1,0
344,72,171400,1,0
296,72,171576,1,2
192,72,171929,1,2
192,120,172105,1,0
192,168,172282,1,0
264,256,172547,5,0
344,176,172811,1,0
272,88,173076,1,0
160,96,173341,1,0
120,200,173605,1,0
168,296,173870,1,0
280,320,174134,1,0
392,304,174399,2,2,B|464:248|464:224,1,100,2|2
440,88,175105,5,0
328,64,175369,1,0
216,72,175634,1,0
120,128,175899,1,0
88,232,176163,1,0
152,320,176428,1,0
264,312,176692,1,0
328,216,176957,1,0
224,168,177222,2,2,B|168:224|248:240,1,100,2|2
96,192,177927,5,0
256,72,178280,5,0
416,192,178633,5,0
256,312,178986,5,0
256,192,179339,12,0,180397
144,192,180750,5,0
144,192,180926,1,0
240,192,181279,2,4,B|344:192|376:288,1,150
280,312,182161,5,0
280,312,182338,1,0
176,312,182691,2,4,B|88:312|88:200,1,140
200,216,183573,5,0
296,216,183926,1,0
392,208,184278,2,0,B|392:128|248:136,2,150,0|0|0
296,344,185690,5,4
144,344,186043,5,4
312,272,186395,6,0,B|448:88|32:328|240:112,1,300,0|0
309,146,187807,2,0,B|445:330|29:90|237:306,1,300,0|0
256,360,189218,1,0
256,192,189571,12,4,191688
72,200,192041,6,0,B|320:152|192:144|128:56|256:56,1,300
253,56,193452,2,0,B|373:56|317:144|189:152|445:200,1,300
440,199,194864,1,0
256,192,195216,12,4,197333
24,312,197686,6,4,B|24:192|168:136|312:192|312:16,1,400
400,88,199450,1,4
456,168,199803,1,4
400,248,200156,1,4
472,312,200509,6,4,B|472:192|328:136|184:192|184:16,1,400
96,88,202273,1,4
40,168,202626,1,4
96,248,202979,1,4
152,168,203332,6,0,B|224:288|320:48|416:224,1,300,0|0
256,192,204743,12,4,206154
80,192,210570,6,0,B|128:128|160:176,1,100
216,176,211369,1,2
312,176,211849,1,2
312,176,212009,1,2
168,320,212969,1,2
232,320,213289,1,2
432,192,214409,6,0,B|384:256|352:208,1,100
296,208,215208,1,2
200,208,215688,1,2
200,208,215848,1,2
344,64,216808,1,2
280,64,217128,1,2
256,272,218248,6,0,B|200:312|152:280,1,100
162,286,219047,2,0,B|8:264|24:104|232:80|328:184,1,433.333333333333,0|0
376,144,221447,5,2
376,144,221607,1,2
368,80,221927,2,2,B|297:78|280:112|232:120,1,133.333333333333
239,219,223047,1,0
335,219,223526,1,0
335,219,223846,2,0,B|359:75|231:51|96:48,1,333.333333333333,0|0
88,144,225926,6,0,B|48:168|48:232,1,100,0|0
48,230,226726,2,0,B|16:294|192:213|48:374|136:384|440:301,1,433.333333333333,0|0
424,232,229125,5,2
424,232,229285,1,2
416,168,229605,2,2,B|345:166|320:256|288:208,1,133.333333333333
192,216,230725,1,0
192,112,231205,1,0
192,112,231524,2,0,B|208:48|40:96|32:128|88:320,1,333.333333333333,0|0
249,308,233604,6,0,B|265:212|376:216,1,166.666666666667,0|0
367,215,234564,1,0
365,117,235044,1,0
361,12,235524,2,0,B|192:14,1,166.666666666667
194,13,236483,1,0
189,111,236963,1,0
265,108,237283,2,0,B|409:108|433:268|377:324|217:340|169:308,1,433.333333333333,0|4
264,336,241282,6,0,B|248:240|136:248,1,166.666666666667,0|0
143,247,242242,1,0
144,144,242722,1,0
144,40,243202,2,0,B|328:40,1,166.666666666667
310,40,244161,1,0
304,136,244641,1,0
240,136,244961,2,0,B|96:136|72:296|128:352|288:360|336:328,1,433.333333333333,0|4
72,192,248960,6,6,B|136:112|264:112,1,200,2|2
432,192,250880,6,2,B|384:272|256:272,1,200,2|2
256,192,252799,12,4,255679
312,296,256638,5,4
200,296,257358,5,4
32,216,258558,6,4,B|160:256|160:72|160:256|352:256|352:72|352:256|464:208,1,400,4|0
