osu file format v5

[General]
AudioFilename: 04-machinae_supremacy-megascorcher.mp3
AudioLeadIn: 0
PreviewTime: 48343
Countdown: 0
SampleSet: Normal
StackLeniency: 0.3
Mode: 0
LetterboxInBreaks: 1
EditorBookmarks: 13093,25093,37093,49093,55280,61093,73093,85093,90343,97093,103093,112843

[Metadata]
Title:Megascorcher
Artist:Machinae Supremacy
Creator:MattW_CFI
Version:Normal
Source:Jets 'n Guns
Tags:machinae supremacy megascorcher jets 'n guns

[Difficulty]
HPDrainRate:5
CircleSize:3
OverallDifficulty:5
SliderMultiplier:1.1
SliderTickRate:1

[Events]
//Background and Video events
0,0,"Megascorcher-bg.png"
//Break Periods
2,48945,54107
2,85320,89170
//Storyboard Layer 0 (Background)
//Storyboard Layer 1 (Failing)
//Storyboard Layer 2 (Passing)
//Storyboard Layer 3 (Foreground)
//Storyboard Sound Samples
//Background Colour Transformations
3,100,163,162,255

[TimingPoints]
9745,375,4,1,0,100,1

[Colours]
Combo1 : 215,215,0
Combo2 : 206,103,0
Combo3 : 192,192,192
Combo4 : 177,56,60

[HitObjects]
256,192,9745,12,0,11807
224,64,13307,6,0,B|288:64,4,55
256,160,14432,2,0,B|256:352,2,165
256,64,15932,1,0
352,64,16307,6,0,B|416:64,4,55
384,160,17432,2,0,B|384:352|224:320,1,220
288,64,19307,6,0,B|224:64,4,55
256,160,20432,2,0,B|256:352,2,165
256,64,21932,1,0
160,64,22307,6,0,B|96:64,4,55
128,160,23432,2,0,B|128:352|288:320,1,220
256,64,25120,6,2,B|384:104|416:160,1,165
224,320,26807,2,2,B|128:288|96:192,1,165
96,128,27745,1,0
160,64,28120,2,2,B|288:64|320:160,1,165
256,192,29432,12,0,30745
256,192,31120,6,2,B|160:64|96:64|96:64,1,165
128,352,32807,2,2,B|256:352|320:288,1,165
288,224,33745,1,0
288,88,34307,6,2,B|160:64|112:64,1,165
128,160,35245,1,0
128,256,35620,1,2
256,256,36182,1,2
384,256,36745,1,2
384,160,37120,6,2,B|384:96|256:64,1,165
240,336,38807,2,2,B|128:320|96:256,1,165
96,176,39745,1,0
128,96,40120,2,2,B|224:32|288:32,1,165
256,192,41432,12,0,42745
256,192,43120,6,2,B|352:96|416:96,1,165
384,352,44807,2,2,B|192:352,1,165
217,263,45745,1,0
216,120,46307,6,2,B|140:131|120:256,1,165
121,328,47245,1,0
208,327,47620,1,2
319,256,48182,1,2
403,154,48745,1,2
448,64,55307,5,0
304,64,55870,1,0
160,64,56432,2,0,B|96:128|128:256,2,165
256,64,57932,1,0
256,160,58307,5,0
400,160,58870,1,0
400,288,59432,2,0,B|248:376|224:240,1,220
256,32,61120,5,2
256,160,61682,2,2,B|192:256|128:256|64:160,1,220
64,96,62807,1,0
187,50,63370,1,0
369,43,64120,2,2,B|374:202|272:190,1,165
256,192,65432,12,2,67120
256,192,67682,6,2,B|64:192|64:320,1,220
160,320,68807,1,0
296,312,69370,1,0
480,256,70120,2,2,B|416:160|320:128,1,165
128,96,71620,2,2,B|128:288,2,165
224,96,73120,5,2
384,96,73870,1,2
384,256,74620,1,2
224,256,75370,1,2
224,96,76120,1,2
64,96,76870,2,2,B|64:256|224:256,2,220
224,96,79120,5,2
224,256,79870,1,2
64,256,80620,1,2
64,96,81370,1,2
224,96,82120,2,2,B|480:160|276:312|192:256,1,330
256,192,83620,12,0,85120
384,160,90370,5,0
384,320,91120,1,0
256,320,91682,1,0
256,192,92245,5,4
160,192,92620,5,0
160,64,93182,1,0
64,64,93557,1,0
64,192,94120,5,0
192,192,94682,1,0
320,192,95245,5,4
320,96,95620,5,0
192,96,96182,1,0
192,96,96370,2,0,B|64:96|64:96,1,110
64,192,97120,5,0
64,288,97495,1,0
160,288,97870,1,0
160,192,98245,1,0
160,96,98620,1,0
256,96,98995,1,0
256,192,99370,2,0,B|256:320,1,110
352,288,100120,5,0
352,192,100495,1,0
352,96,100870,1,0
256,96,101245,1,0
160,96,101620,1,0
64,96,101995,1,0
64,192,102370,2,0,B|192:192,1,110
256,192,103120,5,0
256,96,103495,1,0
352,96,103870,1,0
352,192,104245,1,0
352,288,104620,1,0
256,288,104995,1,0
160,288,105370,2,0,B|160:160,1,110
64,192,106120,5,0
64,96,106495,1,0
160,96,106870,1,0
256,96,107245,1,0
352,96,107620,1,0
448,96,107995,1,0
448,192,108370,2,0,B|352:352|256:160,3,220
256,192,111370,12,0,112870
