osu file format v5

[General]
AudioFilename: 04-machinae_supremacy-megascorcher.mp3
AudioLeadIn: 0
PreviewTime: 48343
Countdown: 0
SampleSet: Normal
StackLeniency: 0.3
Mode: 0
LetterboxInBreaks: 1
EditorBookmarks: 13093,25093,37093,49093,55280,61093,73093,85093,90343,97093,103093,112843

[Metadata]
Title:Megascorcher
Artist:Machinae Supremacy
Creator:MattW_CFI
Version:Insane
Source:Jets 'n Guns
Tags:machinae supremacy megascorcher jets 'n guns

[Difficulty]
HPDrainRate:8
CircleSize:6
OverallDifficulty:8
SliderMultiplier:1.6
SliderTickRate:2

[Events]
//Background and Video events
0,0,"Megascorcher-bg.png"
//Break Periods
2,48945,54370
2,85320,89620
//Storyboard Layer 0 (Background)
//Storyboard Layer 1 (Failing)
//Storyboard Layer 2 (Passing)
//Storyboard Layer 3 (Foreground)
//Storyboard Sound Samples
//Background Colour Transformations
3,100,163,162,255

[TimingPoints]
9745,375,4,1,0,100,1

[Colours]
Combo1 : 215,215,0
Combo2 : 206,103,0
Combo3 : 192,192,192
Combo4 : 177,56,60

[HitObjects]
256,128,9745,5,0
256,256,10120,1,0
400,128,10682,1,0
400,256,11057,1,0
400,128,11432,1,0
400,256,11807,2,0,B|16:120|128:24|136:24,1,400
256,24,13120,5,0
256,88,13307,1,0
256,120,13401,1,0
256,152,13495,1,0
256,216,13682,1,0
256,248,13776,1,0
256,280,13870,1,0
320,280,14057,1,0
320,216,14245,1,0
320,152,14432,2,0,B|320:80|240:32|200:32,1,160
160,32,14995,1,0
96,32,15182,2,0,B|56:56|64:160|136:144,1,160
200,144,15745,1,0
264,144,15932,1,0
264,208,16120,5,0
264,272,16307,1,0
264,304,16401,1,0
264,336,16495,1,0
328,336,16682,1,0
360,336,16776,1,0
392,336,16870,1,0
392,272,17057,1,0
392,208,17245,1,0
392,144,17432,2,0,B|384:64|328:40|248:40,1,160
224,40,17995,1,0
160,40,18182,2,0,B|40:192|168:240,1,240
288,240,19120,5,0
352,240,19307,1,0
384,240,19401,1,0
416,240,19495,1,0
480,240,19682,1,0
480,208,19776,1,0
480,176,19870,1,0
480,112,20057,1,0
480,48,20245,1,0
416,48,20432,2,0,B|296:168,1,160
238,161,20995,1,0
174,162,21182,2,0,B|48:288,1,160
61,340,21745,1,0
124,340,21932,1,0
188,340,22120,5,0
242,339,22307,1,0
242,306,22401,1,0
242,273,22495,1,0
243,209,22682,1,0
243,176,22776,1,0
243,143,22870,1,0
243,79,23057,1,0
307,79,23245,1,0
368,80,23432,2,0,B|482:59|456:168,1,160
456,224,23995,1,0
456,288,24182,2,0,B|384:360|256:200,1,240
176,104,25120,6,2,B|24:56|56:160,1,160
50,201,25682,2,2,B|72:280|296:200,1,240
448,139,26807,2,2,B|448:312,1,160
448,360,27370,1,2
320,328,27745,1,0
264,296,27932,1,0
320,272,28120,2,2,B|368:176|304:120,1,160
256,80,28682,2,2,B|216:48|152:112|168:200,1,160
256,192,29432,12,0,30745
472,24,31120,6,2,B|304:24,1,160
248,24,31682,2,2,B|80:24,1,160
32,272,32807,2,2,B|112:360|176:256,1,160
200,216,33370,1,2
272,112,33745,1,0
237,165,33932,1,0
316,64,34307,2,2,B|384:128|316:224,1,160
288,264,34870,1,2
160,264,35245,1,0
224,264,35432,1,0
288,264,35620,2,2,B|344:200|288:112,1,160
248,72,36182,2,2,B|176:8|88:64,1,160
54,101,36745,1,2
16,224,37120,6,2,B|8:296|160:280,1,160
206,276,37682,2,2,B|288:280|352:352,1,160
336,88,38807,2,2,B|264:8|184:96,1,160
152,128,39370,1,2
248,216,39745,1,0
304,248,39932,1,0
248,280,40120,2,2,B|112:232|136:168,1,160
133,119,40682,2,2,B|141:31|253:23,1,160
256,192,41432,12,0,42745
376,344,43120,6,2,B|488:344|488:256,1,160
488,192,43682,2,2,B|488:72|376:72,1,160
144,80,44807,2,2,B|32:80|32:208,1,160
34,237,45370,1,2
161,237,45745,1,0
97,239,45932,1,0
224,238,46307,2,2,B|352:240|352:168,1,160
353,108,46870,1,2
225,106,47245,1,0
288,107,47432,1,0
352,108,47620,2,2,B|360:240|280:232,1,160
223,231,48182,2,2,B|146:226|168:96,1,160
168,40,48745,1,2
96,24,55120,5,0
160,24,55307,1,0
192,24,55401,1,0
224,24,55495,1,0
224,88,55682,1,0
192,88,55776,1,0
160,88,55870,1,0
160,152,56057,1,0
192,152,56151,1,0
224,152,56245,1,0
224,88,56432,2,0,B|400:88,1,160
384,152,56995,1,0
384,216,57182,2,0,B|256:344,1,160
208,328,57745,1,0
144,328,57932,1,0
80,328,58120,5,0
80,264,58307,1,0
112,264,58401,1,0
144,264,58495,1,0
144,200,58682,1,0
112,200,58776,1,0
80,200,58870,1,0
80,136,59057,1,0
144,136,59245,1,0
208,136,59432,2,0,B|272:56|280:72|336:152,1,160
323,199,59995,1,0
323,262,60182,2,0,B|168:344|136:168,1,240
144,64,61120,6,2,B|240:24|328:24,1,160
360,24,61682,2,2,B|448:96|424:312|312:296,1,320
208,296,62807,1,0
208,232,62995,1,0
144,232,63182,1,0
144,296,63370,1,0
80,296,63557,1,0
80,232,63745,1,0
80,168,63932,1,0
80,104,64120,2,2,B|104:40|256:40|272:152|272:152,1,240
256,192,65432,12,0,66745
40,200,67120,6,2,B|48:336|208:344,3,240
264,344,68995,1,0
328,344,69182,1,0
392,344,69370,1,0
392,280,69557,1,0
328,280,69745,1,0
328,344,69932,1,0
264,344,70120,2,2,B|96:344|80:224,2,240
328,344,71432,1,0
328,280,71620,1,0
328,280,71713,1,0
328,280,71807,1,0
328,216,71995,1,0
328,152,72182,1,0
328,152,72276,1,0
328,152,72370,1,0
328,88,72557,1,0
264,88,72745,1,0
224,208,73120,5,2
224,208,73213,1,0
224,208,73307,1,0
224,208,73401,1,0
224,208,73495,1,0
224,208,73588,1,0
224,208,73682,1,0
224,208,73776,1,0
224,208,73870,5,2
224,208,73963,1,0
224,208,74057,1,0
224,208,74151,1,0
224,208,74245,1,0
224,208,74338,1,0
224,208,74432,1,0
224,208,74526,1,0
224,208,74620,5,2
224,208,74713,1,0
224,208,74807,1,0
224,208,74901,1,0
224,208,74995,1,0
224,208,75088,1,0
224,208,75182,1,0
224,208,75276,1,0
224,208,75370,5,2
224,208,75463,1,0
224,208,75557,1,0
224,208,75651,1,0
224,208,75745,1,0
224,208,75838,1,0
224,208,75932,1,0
224,208,76026,1,0
224,208,76120,5,2
224,208,76213,1,0
224,208,76307,1,0
224,208,76401,1,0
224,208,76495,1,0
224,208,76588,1,0
224,208,76682,1,0
224,208,76776,1,0
224,208,76870,6,2,B|224:296,1,80
295,286,77245,2,2,B|295:198,1,80
392,240,77620,1,2
392,240,77713,1,0
392,240,77807,1,0
392,240,77901,1,0
392,240,77995,1,0
392,240,78088,1,0
392,240,78182,1,2
392,240,78276,1,2
392,240,78370,1,2
136,240,79120,5,2
136,240,79213,1,0
136,240,79307,1,0
136,240,79401,1,0
136,240,79495,1,0
136,240,79588,1,0
136,240,79682,1,0
136,240,79776,1,0
136,240,79870,5,2
136,240,79963,1,0
136,240,80057,1,0
136,240,80151,1,0
136,240,80245,1,0
136,240,80338,1,0
136,240,80432,1,0
136,240,80526,1,0
136,240,80620,5,2
136,240,80713,1,0
136,240,80807,1,0
136,240,80901,1,0
136,240,80995,1,0
136,240,81088,1,0
136,240,81182,1,0
136,240,81276,1,0
136,240,81370,5,2
136,240,81463,1,0
136,240,81557,1,0
136,240,81651,1,0
136,240,81745,1,0
136,240,81838,1,0
136,240,81932,1,0
136,240,82026,1,0
136,240,82120,2,2,B|264:360|464:232|360:72|200:72|192:200,1,480,2|2
256,192,83620,12,0,85120
40,32,90370,5,0
72,32,90463,1,0
104,32,90557,1,0
104,224,91120,1,0
136,224,91213,1,0
168,224,91307,1,0
168,96,91682,1,0
200,96,91776,1,0
232,96,91870,1,0
360,96,92245,5,4
488,96,92620,5,0
488,128,92713,1,0
488,160,92807,1,0
488,288,93182,1,0
456,288,93276,1,0
424,288,93370,1,0
360,288,93557,1,0
296,288,93745,1,0
168,288,94120,5,0
168,256,94213,1,0
168,224,94307,1,0
296,224,94682,1,0
296,192,94776,1,0
296,160,94870,1,0
296,32,95245,5,4
168,32,95620,5,0
168,64,95713,1,0
168,96,95807,1,0
296,96,96182,1,0
296,128,96276,1,0
296,160,96370,2,0,B|464:160,2,160
232,160,97307,5,0
168,160,97495,1,0
104,160,97682,1,0
40,160,97870,1,0
40,224,98057,1,0
40,224,98245,1,0
40,224,98432,1,0
104,224,98620,1,0
168,224,98807,1,0
232,224,98995,1,0
232,160,99182,1,0
232,96,99370,2,0,B|296:16|368:104,1,160
368,224,100120,5,0
304,224,100307,1,0
240,224,100495,1,0
240,160,100682,1,0
240,96,100870,1,0
176,96,101057,1,0
176,96,101245,1,0
176,96,101432,1,0
176,160,101620,1,0
176,224,101807,1,0
176,288,101995,1,0
240,288,102182,1,0
304,288,102370,2,0,B|376:216|296:144,1,160
176,152,103120,5,0
112,152,103307,1,0
112,88,103495,1,0
176,88,103682,1,0
176,152,103870,1,0
176,216,104057,1,0
176,152,104245,1,0
176,216,104432,1,0
240,216,104620,1,0
240,152,104807,1,0
176,152,104995,1,0
112,152,105182,1,0
112,216,105370,2,0,B|192:296|264:200,1,160
240,88,106120,5,0
304,88,106307,1,0
368,88,106495,1,0
368,152,106682,1,0
368,216,106870,1,0
304,216,107057,1,0
368,216,107245,1,0
304,216,107432,1,0
240,216,107620,1,0
176,216,107807,1,0
176,152,107995,1,0
176,88,108182,1,0
240,88,108370,2,0,B|392:104|400:232|232:272,3,320
256,192,111370,12,0,112870
184,120,113245,5,8
328,120,113620,1,8
328,264,113995,1,8
184,264,114370,1,12
