osu file format v5

[General]
AudioFilename: 04-machinae_supremacy-megascorcher.mp3
AudioLeadIn: 0
PreviewTime: 48343
Countdown: 0
SampleSet: Normal
StackLeniency: 0.3
Mode: 0
LetterboxInBreaks: 1
EditorBookmarks: 13093,25093,37093,49093,55280,61093,73093,85093,90343,97093,103093,112843

[Metadata]
Title:Megascorcher
Artist:Machinae Supremacy
Creator:MattW_CFI
Version:Hard
Source:Jets 'n Guns
Tags:machinae supremacy megascorcher jets 'n guns

[Difficulty]
HPDrainRate:7
CircleSize:5
OverallDifficulty:6
SliderMultiplier:1.5
SliderTickRate:2

[Events]
//Background and Video events
0,0,"Megascorcher-bg.png"
//Break Periods
2,48945,54257
2,85320,89320
//Storyboard Layer 0 (Background)
//Storyboard Layer 1 (Failing)
//Storyboard Layer 2 (Passing)
//Storyboard Layer 3 (Foreground)
//Storyboard Sound Samples
//Background Colour Transformations
3,100,163,162,255

[TimingPoints]
9745,375,4,1,0,100,1

[Colours]
Combo1 : 215,215,0
Combo2 : 206,103,0
Combo3 : 192,192,192
Combo4 : 177,56,60

[HitObjects]
256,32,9745,5,0
160,32,10120,1,0
352,32,10682,1,0
256,32,11057,1,0
160,32,11432,1,0
64,32,11807,1,0
32,192,13120,5,0
96,192,13307,1,0
160,192,13495,1,0
224,192,13682,1,0
288,192,13870,2,0,B|288:128|160:128|32:128,1,225
96,256,14807,2,0,B|224:256|288:256,1,150
247,120,15557,2,0,B|420:120,1,150
416,224,16307,5,0
352,224,16495,1,0
288,224,16682,1,0
224,224,16870,2,0,B|32:192|96:64,1,225
192,96,17807,1,0
256,96,17995,1,0
320,96,18182,2,0,B|448:256|192:320|192:320,1,300
64,320,19307,5,0
64,256,19495,1,0
64,192,19682,1,0
64,128,19870,2,0,B|96:32|256:32,1,225
384,32,20807,2,0,B|384:192,1,150
256,183,21557,2,0,B|256:26,1,150
128,32,22307,5,0
128,96,22495,1,0
128,160,22682,1,0
128,224,22870,2,0,B|320:288|384:288,1,225
352,160,23807,1,0
352,96,23995,1,0
352,32,24182,2,0,B|96:32,1,225
32,32,25120,6,2,B|32:192,1,150
32,182,25682,2,2,B|32:352,1,150
256,352,26807,2,2,B|256:128,1,150
256,202,27370,1,2
256,96,27745,1,0
256,96,27932,1,0
256,96,28120,2,2,B|96:96,1,150
106,96,28682,2,2,B|106:252,1,150
256,192,29432,12,0,30745
256,192,31120,6,2,B|256:32,1,150
256,42,31682,2,2,B|97:42,1,150
96,288,32807,2,2,B|256:288,1,150
246,288,33370,1,2
246,168,33745,1,0
246,168,33932,1,0
366,168,34307,2,2,B|366:328,1,150,2|2
366,318,34870,1,2
256,320,35245,1,0
256,320,35432,1,0
256,320,35620,2,2,B|256:160,1,150
256,170,36182,2,2,B|256:0,1,150
256,20,36745,1,2
384,32,37120,6,2,B|384:192,1,150
384,182,37682,2,2,B|384:352,1,150
128,320,38807,2,2,B|128:160,1,150,2|2
128,170,39370,1,2
212,84,39745,1,0
212,84,39932,1,0
212,84,40120,2,2,B|403:84,1,150
362,84,40682,2,2,B|362:241,1,150
256,192,41432,12,0,42745
256,192,43120,6,2,B|128:96,1,150
136,102,43682,2,2,B|136:276,1,150
384,256,44807,2,2,B|384:96,1,150
384,106,45370,1,2
256,96,45745,1,0
256,96,45932,1,0
128,96,46307,2,2,B|128:256,1,150
128,246,46870,1,2
207,335,47245,1,0
207,335,47432,1,0
207,335,47620,2,2,B|352:288,1,150
349,288,48182,2,2,B|416:128,1,150
406,149,48745,1,2
256,64,55307,6,0,B|256:0,2,37.5
288,96,55682,2,0,B|352:96,2,37.5
256,128,56057,2,0,B|256:192,2,37.5
224,96,56432,2,0,B|64:96,1,150
72,160,56995,1,0
72,224,57182,2,0,B|224:224,1,150
224,288,57745,1,0
288,288,57932,1,0
384,192,58307,6,0,B|448:192,2,37.5
352,160,58682,2,0,B|352:96,2,37.5
320,192,59057,1,0
256,192,59245,1,0
192,192,59432,2,0,B|96:256|128:320,1,150
192,320,59995,1,0
256,320,60182,2,0,B|384:256|384:128,1,225
384,32,61120,6,2,B|224:32,1,150
234,32,61682,2,2,B|22:10|64:224,1,300
64,320,62807,2,2,B|160:320,2,75
64,256,63370,1,0
64,192,63557,1,0
128,192,63745,1,0
192,192,63932,1,0
256,192,64120,2,2,B|384:128|192:32|192:128,1,225
256,192,65432,12,0,66745
256,304,67120,6,2,B|256:63,2,225
256,128,68807,1,0
256,64,68995,1,0
192,64,69182,1,0
192,128,69370,1,0
192,192,69557,1,0
128,192,69745,1,0
128,128,69932,1,0
128,64,70120,2,2,B|384:64,2,225
128,128,71432,1,0
128,192,71620,2,0,B|64:192,2,37.5
192,192,71995,1,0
256,192,72182,2,0,B|256:128,2,37.5
320,192,72557,1,0
384,192,72745,1,0
384,312,73120,5,2
320,312,73307,1,0
256,312,73495,1,0
192,312,73682,1,0
128,312,73870,1,0
128,248,74057,1,0
128,184,74245,1,2
128,64,74620,5,2
192,64,74807,1,0
256,64,74995,1,0
320,64,75182,1,0
384,64,75370,1,0
384,128,75557,1,0
384,192,75745,1,2
384,312,76120,5,2
320,312,76307,1,0
256,312,76495,1,0
192,312,76682,1,0
128,312,76870,1,0
128,248,77057,1,0
128,184,77245,2,0,B|128:120,2,37.5,0|0|0
192,184,77620,2,0,B|256:184,8,37.5,0|0|0|0|0|0|0|0|0
432,192,79120,5,2
432,128,79307,1,0
432,64,79495,1,0
368,64,79682,1,0
304,64,79870,1,0
240,64,80057,1,0
176,64,80245,1,2
176,184,80620,5,2
176,248,80807,1,0
176,312,80995,1,0
240,312,81182,1,0
304,312,81370,1,0
368,312,81557,1,0
432,312,81745,1,2
432,248,81932,1,2
432,184,82120,2,2,B|424:40|216:16|96:96|224:240,1,450,2|2
256,192,83620,12,0,85120
256,32,90370,5,0
256,32,90463,1,0
256,32,90557,1,0
256,192,91120,1,0
256,192,91213,1,0
256,192,91307,1,0
256,320,91682,1,0
256,320,91776,1,0
256,320,91870,1,0
256,192,92245,5,4
128,192,92620,5,0
128,192,92713,1,0
128,192,92807,1,0
128,64,93182,1,0
128,64,93276,1,0
128,64,93370,1,0
192,64,93557,1,0
256,64,93745,1,0
256,192,94120,5,0
256,192,94213,1,0
256,192,94307,1,0
384,192,94682,1,0
384,192,94776,1,0
384,192,94870,1,0
384,64,95245,5,4
256,64,95620,5,0
256,64,95713,1,0
256,64,95807,1,0
128,64,96182,1,0
128,64,96276,1,0
128,64,96370,2,0,B|128:224,2,150
192,64,97307,5,0
256,64,97495,1,0
320,64,97682,1,0
384,64,97870,1,0
448,64,98057,2,0,B|512:0,2,75
448,128,98620,1,0
448,192,98807,1,0
448,256,98995,1,0
448,320,99182,1,0
384,320,99370,2,0,B|224:320,1,150
224,192,100120,5,0
224,128,100307,1,0
224,64,100495,1,0
160,64,100682,1,0
96,64,100870,1,0
32,64,101057,2,0,B|32:160,2,75
96,64,101620,1,0
160,64,101807,1,0
224,64,101995,1,0
288,64,102182,1,0
352,64,102370,2,0,B|352:224,1,150
224,224,103120,5,0
160,224,103307,1,0
96,224,103495,1,0
32,224,103682,1,0
32,160,103870,1,0
96,160,104057,2,0,B|192:160,2,75
96,96,104620,1,0
160,96,104807,1,0
160,160,104995,1,0
160,224,105182,1,0
160,288,105370,2,0,B|256:288|256:192,1,150
256,64,106120,5,0
320,64,106307,1,0
384,64,106495,1,0
448,64,106682,1,0
448,128,106870,1,0
384,128,107057,2,0,B|288:128,2,75
448,128,107620,1,0
448,192,107807,1,0
384,192,107995,1,0
320,192,108182,1,0
256,192,108370,2,0,B|0:256|288:352,3,300
256,192,111370,12,0,112870
256,192,113245,5,8
256,192,113620,1,8
256,192,113995,1,8
256,192,114370,1,12
