osu file format v5

[General]
AudioFilename: machinae_supremacy-hybrid.mp3
AudioLeadIn: 0
PreviewTime: -1
Countdown: 3
SampleSet: Normal
StackLeniency: 0.7
Mode: 0
EditorBookmarks: 216750,229375

[Metadata]
Title:Hybrid
Artist:Machinae Supremacy
Creator:Snake55wildcat
Version:Normal

[Difficulty]
HPDrainRate:4
CircleSize:6
OverallDifficulty:7
SliderMultiplier:1.5
SliderTickRate:4

[Events]
//Background and Video events
//Break Periods
//Storyboard Layer 0 (Background)
//Storyboard Layer 1 (Failing)
//Storyboard Layer 2 (Passing)
//Storyboard Layer 3 (Foreground)
//Storyboard Sound Samples
//Background Colour Transformations
3,100,161,160,255

[TimingPoints]
0,1000,4,1,0,100

[Colours]
Combo1 : 192,192,192
Combo2 : 255,0,0
Combo3 : 0,255,255
Combo4 : 255,255,0

[HitObjects]
256,192,5125,5,0
96,256,7750,1,0
256,256,8750,1,0
448,256,12875,1,0
320,256,13375,1,0
256,256,13875,1,0
96,96,18125,1,0
96,256,19125,1,0
416,96,23375,1,0
416,224,23750,1,0
416,288,24250,1,0
192,192,26375,5,0
192,256,26875,1,0
320,256,29000,1,0
320,192,29500,1,0
320,128,31375,1,0
192,128,32250,1,0
256,192,32750,1,0
96,320,35250,5,0
192,320,36250,1,0
320,320,40500,1,0
448,320,41000,1,0
384,320,41500,1,0
128,96,45750,1,0
192,160,46625,1,0
416,96,50875,1,0
352,160,51375,1,0
224,288,51875,1,0
224,192,54750,5,0
256,192,55250,1,0
288,192,55750,1,0
256,224,57375,1,0
256,192,57875,1,0
256,160,58375,1,0
288,192,59875,1,0
224,192,60375,1,0
256,192,60875,1,0
256,224,62500,1,0
256,160,63000,1,0
256,192,63500,1,0
224,160,65125,1,0
256,192,65625,1,0
288,224,66125,1,0
288,160,67750,1,0
256,192,68250,1,0
224,224,68750,1,0
288,160,70250,1,0
288,224,70750,1,0
224,160,71250,1,0
224,224,72875,1,0
256,192,73375,1,0
288,192,73875,1,0
384,288,74750,5,0
288,288,75250,1,0
128,288,77250,1,0
128,160,77750,1,0
320,96,79875,1,0
384,160,80375,1,0
96,352,82500,1,0
128,288,83000,1,0
160,224,83875,6,0,B|209:254|209:200|192:192,1,75
96,160,86500,2,0,B|143:184|256:128,1,150
224,192,89125,1,0
288,192,89625,1,0
256,224,90375,1,0
256,160,90875,1,0
256,192,91625,12,0,94250
288,160,96875,1,0
288,224,99500,1,0
224,224,100000,1,0
224,192,100750,1,0
288,160,101250,1,0
288,192,102125,1,0
224,160,102625,1,0
256,128,103125,2,0,B|256:288,1,150
256,224,105125,5,0
256,256,105625,1,0
128,160,107750,1,0
192,160,108250,1,0
320,160,110125,1,0
384,160,110625,1,0
352,192,111500,1,0
256,224,112750,5,0
256,192,113250,1,0
256,160,113750,1,0
224,192,115375,1,0
256,192,115875,1,0
288,192,116375,1,0
288,160,118000,1,0
256,192,118500,1,0
224,224,119000,1,0
224,160,120500,1,0
256,192,121000,1,0
288,224,121500,1,0
288,320,123125,1,0
256,192,123625,1,0
224,96,124125,1,0
320,96,125750,1,0
224,192,126250,1,0
288,256,126750,1,0
160,320,128375,1,0
288,192,128875,1,0
192,160,129375,1,0
224,256,130875,1,0
288,192,131375,1,0
256,192,131875,1,0
192,160,132750,5,0
320,160,133250,1,0
320,224,135375,1,0
192,224,135875,1,0
224,128,137875,5,0
224,256,138375,1,0
288,256,140000,1,0
256,128,140500,1,0
160,192,141000,1,0
160,160,142000,6,0,B|430:320|472:27|302:126,1,393.75
289,96,147125,1,0
174,160,147625,1,0
210,300,148375,1,0
338,240,148875,1,0
256,192,149750,12,0,152375
352,224,155000,6,0,B|82:64|40:357|210:258,1,393.75
223,278,158000,1,0
343,227,158750,1,0
360,188,159250,1,0
299,156,160125,2,0,B|-1:160|-1:201|301:200|143:255,1,375
192,259,164000,5,0
250,269,164500,1,0
304,258,165000,1,0
383,106,166500,1,0
272,104,167000,1,0
236,173,167500,1,0
168,320,169125,1,0
201,218,169625,1,0
251,128,170125,1,0
374,279,171750,1,0
394,216,172250,1,0
368,130,172750,1,0
91,195,174375,6,0,B|220:316|236:76|221:188|433:296,1,393.75
165,161,179500,2,0,B|336:200,1,168.75
344,218,180875,2,0,B|184:265,1,150
256,192,182250,12,0,184750
233,208,186125,2,0,B|252:211|258:265,1,56.25
280,253,186750,2,0,B|328:244|297:212,1,56.25
296,200,187375,2,0,B|246:177|295:128,1,75
350,111,190000,2,0,B|245:209,1,131.25
254,200,191250,2,0,B|400:203,1,131.25
256,192,192500,12,0,195125
168,157,199000,5,0
312,229,200000,1,0
210,238,204250,1,0
268,173,204750,1,0
331,126,205250,1,0
423,190,209375,1,0
264,320,210375,1,0
168,198,214500,2,0,B|219:166|231:222,2,75
192,219,217750,5,0
290,226,218250,1,0
233,222,219875,1,0
279,223,220375,1,0
305,176,220750,1,0
282,173,222875,1,0
185,145,223375,1,0
190,289,225000,1,0
248,291,225500,1,0
332,291,226000,1,0
70,301,229375,2,4,B|117:107|211:304|458:99|133:68,2,468.75
