osu file format v5

[General]
AudioFilename: machinae_supremacy-hybrid.mp3
AudioLeadIn: 0
PreviewTime: -1
Countdown: 3
SampleSet: Normal
StackLeniency: 0.7
Mode: 0

[Metadata]
Title:Hybrid
Artist:Machinae Supremacy
Creator:Snake55wildcat
Version:Easy

[Difficulty]
HPDrainRate:5
CircleSize:5
OverallDifficulty:5
SliderMultiplier:1.5
SliderTickRate:4

[Events]
//Background and Video events
//Break Periods
//Storyboard Layer 0 (Background)
//Storyboard Layer 1 (Failing)
//Storyboard Layer 2 (Passing)
//Storyboard Layer 3 (Foreground)
//Storyboard Sound Samples
//Background Colour Transformations
3,100,163,162,255

[TimingPoints]
0,1000,4,1,0,100

[HitObjects]
256,192,5125,5,0
96,256,7875,1,0
256,256,8750,1,0
448,256,12875,1,0
320,256,13375,1,0
256,256,13875,1,0
96,96,18125,1,0
96,256,19125,1,0
416,96,23375,1,0
416,224,23750,1,0
416,288,24250,1,0
192,192,26375,5,0
192,256,26875,1,0
320,256,29000,1,0
320,192,29500,1,0
320,128,31375,1,0
192,128,32250,1,0
256,192,32750,1,0
96,320,35250,5,0
192,320,36250,1,0
320,320,40500,1,0
448,320,41000,1,0
384,320,41500,1,0
128,96,45750,1,0
192,160,46625,1,0
416,96,50875,1,0
352,160,51250,1,0
224,288,51750,1,0
224,192,54750,5,0
256,192,55250,1,0
288,192,55750,1,0
256,224,57375,1,0
256,192,57875,1,0
256,160,58375,1,0
288,192,59875,1,0
224,192,60375,1,0
256,192,60875,1,0
256,224,62500,1,0
256,160,63000,1,0
256,192,63500,1,0
224,160,65125,1,0
256,192,65625,1,0
288,224,66125,1,0
288,160,67750,1,0
256,192,68250,1,0
224,224,68750,1,0
288,160,70250,1,0
288,224,70750,1,0
224,160,71250,1,0
224,224,72875,1,0
256,192,73375,1,0
288,192,73875,1,0
