osu file format v7

[General]
AudioFilename: Hero - Machinae Supremacy.mp3
AudioLeadIn: 3000
PreviewTime: -1
Countdown: 1
SampleSet: Normal
StackLeniency: 0.7
Mode: 0
LetterboxInBreaks: 1

[Editor]
Bookmarks: 27422,37085,50081,75406,98586,126085,148751,192749
DistanceSpacing: 0.800000011920929
BeatDivisor: 4
GridSize: 16

[Metadata]
Title:Hero
Artist:Machinae Superemacy
Creator:Invert Tails Prower
Version:Normal
Source:
Tags:

[Difficulty]
HPDrainRate:5
CircleSize:4
OverallDifficulty:2
SliderMultiplier:1.4
SliderTickRate:2

[Events]
//Background and Video events
0,0,"21736_logo.jpg"
//Break Periods
2,50288,73693
2,119452,126025
//Storyboard Layer 0 (Background)
//Storyboard Layer 1 (Fail)
//Storyboard Layer 2 (Pass)
//Storyboard Layer 3 (Foreground)
//Storyboard Sound Samples
//Background Colour Transformations
3,100,163,162,255

[TimingPoints]
27422.1494125422,666.644518493835,4,1,0,80,1,0

[Colours]
Combo1 : 255,150,0
Combo2 : 5,240,5
Combo3 : 5,5,240
Combo4 : 240,5,5
Combo5 : 223,208,19

[HitObjects]
128,112,27588,2,4,B|208:112,1,70
256,112,28922,6,0,B|256:160,1,35
256,160,29422,1,8
336,176,30088,6,0,B|336:112,1,35
336,80,30588,1,0
336,80,30922,2,0,B|416:80,1,70
448,144,31588,1,0
448,144,31755,2,8,B|384:240,1,105
256,272,32921,5,0
160,272,33588,1,0
64,272,34255,1,0
64,176,35088,2,4,B|64:48|224:48|224:192|96:192|96:80|192:80|192:160|128:160|128:112|160:112,2,210
256,192,38088,5,0
256,192,38255,1,0
256,192,38421,1,0
256,192,38588,1,2
352,192,39588,5,0
352,192,39921,1,0
352,192,40088,1,0
272,192,40921,6,0,B|192:192,5,70
256,32,43754,5,0
256,32,43921,1,0
304,32,44254,1,0
352,32,44588,1,0
352,80,44921,1,0
352,128,45254,1,0
352,176,45588,1,0
352,224,45921,2,12,B|352:352|160:352|160:224,1,280
256,192,48754,12,0,50088
256,192,75253,5,4
256,192,76920,5,0
256,192,77087,1,0
288,192,77420,1,4
336,192,78253,5,0
336,192,78420,1,0
368,192,78753,1,4
448,192,79587,5,0
448,192,79753,1,0
448,240,80087,1,0
448,288,80420,1,0
448,336,80753,1,0
400,336,81087,1,0
352,336,81420,1,4
160,192,82253,6,0,B|240:192,8,70
80,192,85253,1,0
80,128,85586,2,4,B|256:64|368:128,1,280
464,32,87586,5,0
384,32,87920,1,0
304,32,88253,1,0
224,32,88586,1,4
144,32,88920,5,0
64,32,89253,1,0
64,112,89586,1,4
64,112,89753,2,4,B|144:224|240:112,1,210
236,116,91086,1,0
320,112,91586,1,0
400,112,91920,1,2
400,336,92919,5,0
320,336,93253,1,0
240,336,93586,1,0
160,336,93919,1,2
160,336,94086,1,2
80,336,94419,1,0
80,256,94753,1,0
80,176,95086,2,4,B|256:176|320:144|352:96|320:32|256:16|176:32|160:96|192:144|240:176|416:176,1,595
464,176,98586,5,0
464,336,99253,1,0
304,336,99919,1,4
128,336,100586,5,0
48,336,100919,1,0
48,336,101086,1,0
48,256,101419,1,0
48,176,101753,1,0
48,96,102086,1,0
144,96,102586,2,12,B|352:96,1,175
448,96,103919,5,0
448,240,104586,2,4,B|304:240,1,140
224,240,105586,5,0
144,240,105919,1,0
64,240,106252,1,0
64,160,106586,1,2
64,160,106752,1,2
64,80,107086,5,0
144,80,107419,1,0
224,80,107752,2,4,B|272:80,3,35
432,80,109252,5,0
432,240,109919,1,0
256,240,110586,1,0
96,240,111252,1,0
96,160,111586,1,0
96,80,111919,1,0
176,80,112252,1,0
256,80,112585,1,0
256,80,112752,1,0
320,80,113085,2,12,B|496:80|496:128|464:192,1,210
416,224,114585,5,0
272,224,115252,1,0
80,224,116252,1,0
80,304,116585,1,0
80,304,116752,1,0
160,304,117085,1,0
240,304,117419,1,0
320,304,117752,1,0
400,304,118085,1,0
480,304,118419,2,4,B|480:96,1,175
48,48,127585,5,0
48,48,127752,1,0
96,48,128085,1,4
176,48,128918,5,0
176,48,129085,1,0
224,48,129418,1,4
320,48,130252,5,0
320,48,130418,1,0
320,48,130585,1,0
400,48,130918,1,0
480,48,131252,1,0
480,48,131418,1,0
480,160,131918,1,0
480,240,132251,1,4
384,192,132918,5,0
304,192,133251,1,0
224,192,133585,1,0
144,192,133918,1,0
64,192,134251,1,0
64,272,134585,1,0
144,272,134918,1,0
224,272,135251,1,0
304,272,135585,1,0
384,272,135918,1,0
464,272,136251,2,4,B|464:192,3,70
464,128,138251,5,0
384,128,138585,1,0
304,128,138918,1,0
224,128,139251,1,0
144,128,139585,1,0
64,128,139918,1,0
64,208,140251,1,0
64,208,140418,2,4,B|192:208|192:80,1,175
192,48,141585,5,0
272,48,141918,1,0
352,48,142251,1,0
432,48,142584,1,2
432,48,142751,1,2
432,192,143584,5,0
432,272,143918,1,0
432,272,144084,1,0
352,352,144418,1,0
352,272,144751,1,0
352,192,145084,1,0
272,192,145418,1,0
192,192,145751,2,0,B|80:192|0:0,2,280
400,192,149251,5,0
400,336,149918,1,0
240,336,150584,1,0
128,336,151251,5,0
48,336,151584,1,0
48,336,151751,1,0
48,256,152084,1,0
48,176,152418,1,0
48,96,152751,1,0
144,96,153251,2,12,B|352:96,1,175
448,144,154584,5,0
448,288,155251,2,4,B|304:288,1,140
224,288,156251,5,0
144,288,156584,1,0
64,288,156917,1,0
64,208,157251,1,2
64,208,157417,1,2
64,128,157751,5,0
144,128,158084,1,0
224,128,158417,2,4,B|272:128,3,35
432,128,159917,5,0
432,288,160584,1,0
256,288,161251,1,0
96,288,161917,1,0
96,208,162251,1,0
96,128,162584,1,0
176,128,162917,1,0
256,128,163250,1,2
256,128,163417,1,2
320,128,163750,2,12,B|496:128|496:176|464:240,1,210
416,272,165250,5,0
272,272,165917,1,0
80,272,166917,1,0
80,352,167250,1,2
80,352,167417,1,2
160,352,167750,1,0
240,352,168084,1,0
320,352,168417,1,0
400,352,168750,1,0
480,352,169084,2,4,B|480:144,1,175
416,208,170584,5,0
272,208,171250,1,0
272,336,171917,1,0
128,336,172583,5,0
48,336,172916,1,2
48,336,173083,1,2
48,256,173416,1,0
48,176,173750,1,0
48,96,174083,1,0
144,96,174583,2,12,B|352:96,1,175
448,96,175916,5,0
448,240,176583,2,4,B|304:240,1,140
224,240,177583,5,0
144,240,177916,1,0
64,240,178249,1,0
64,160,178583,1,2
64,160,178749,1,2
64,80,179083,5,0
144,80,179416,1,0
224,80,179749,2,4,B|272:80,3,35
432,80,181249,5,0
432,240,181916,1,0
256,240,182583,1,0
96,240,183249,1,0
96,160,183583,1,0
96,80,183916,1,0
176,80,184249,1,0
256,80,184582,1,2
256,80,184749,1,2
320,80,185082,2,12,B|496:80|496:128|464:192,1,210
416,224,186582,5,0
272,224,187249,1,0
80,224,188249,1,0
80,304,188582,1,0
80,304,188749,1,0
160,304,189082,1,0
240,304,189416,1,0
320,304,189749,1,0
400,304,190082,1,0
480,304,190416,2,4,B|480:96,1,175
160,192,193249,5,0
240,192,193583,1,0
320,192,193916,1,0
256,192,194416,12,0,198083
