osu file format v14

[General]
AudioFilename: Strong cut ver.mp3
AudioLeadIn: 0
PreviewTime: 66210
Countdown: 0
SampleSet: Normal
StackLeniency: 0.2
Mode: 0
LetterboxInBreaks: 1
WidescreenStoryboard: 0

[Editor]
Bookmarks: 30000,37500,52500
DistanceSpacing: 1.7
BeatDivisor: 4
GridSize: 4
TimelineZoom: 1.3

[Metadata]
Title:Strong!!! (Cut Ver.)
TitleUnicode:Strong!!! (Cut Ver.)
Artist:Machina ft. Lukkade
ArtistUnicode:Machina ft. Lukkade
Creator:Inversal
Version:Light Insane
Source:The Face Thailand
Tags:Thai
BeatmapID:930316
BeatmapSetID:430690

[Difficulty]
HPDrainRate:7
CircleSize:4
OverallDifficulty:6
ApproachRate:8.9
SliderMultiplier:1.3
SliderTickRate:1

[Events]
//Background and Video events
0,0,"Strong!!.jpg",0,0
//Break Periods
2,30199,36884
//Storyboard Layer 0 (Background)
//Storyboard Layer 1 (Fail)
//Storyboard Layer 2 (Pass)
//Storyboard Layer 3 (Foreground)
//Storyboard Sound Samples

[TimingPoints]
0,468.75,4,1,0,100,1,0
0,-102.040816326531,4,1,0,100,0,0
13593,-90.9090909090909,4,1,0,100,0,0
35625,-76.9230769230769,4,1,0,100,0,0
52500,-76.9230769230769,4,1,0,100,0,0
66093,-66.5335994677312,4,1,0,60,0,0
67500,-66.5335994677312,4,1,0,60,0,1
80625,-66.5335994677312,4,1,0,60,0,0
82500,-66.5335994677312,4,1,0,60,0,1
95625,-66.5335994677312,4,1,0,60,0,0

[HitObjects]
148,164,0,6,0,L|160:304,1,127.399998833618
48,128,937,2,0,P|76:84|128:64,1,95.5499991252136
168,72,1406,2,0,L|256:60,1,63.6999994168091
404,188,1875,6,0,P|328:192|288:156,1,127.399998833618
404,188,2813,2,0,L|416:304,1,95.5499991252136
416,332,3281,2,0,P|376:316|328:316,1,63.6999994168091
192,320,3750,6,0,P|128:324|76:284,1,127.399998833618
167,135,4688,2,0,P|171:187|142:238,1,95.5499991252136
154,226,5157,2,0,L|244:204,1,63.6999994168091
396,140,5625,6,0,P|364:76|300:56,2,127.399998833618
352,252,6914,1,0,0:0:0:0:
352,252,7031,2,0,L|264:280,1,63.6999994168091
212,192,7500,6,0,P|172:248|180:320,1,127.399998833618
336,256,8438,2,0,P|376:200|376:152,1,95.5499991252136
364,132,8907,2,0,B|296:112,1,63.6999994168091
96,192,9375,6,0,P|164:200|224:156,1,127.399998833618
420,40,10313,2,0,L|428:148,1,95.5499991252136
432,184,10782,1,0,0:0:0:0:
392,332,11016,1,0,0:0:0:0:
284,248,11250,6,0,P|216:224|156:256,1,127.399998833618
40,328,12187,1,0,0:0:0:0:
88,212,12539,1,0,0:0:0:0:
88,212,12656,2,0,L|96:140,1,63.6999994168091
140,80,13125,1,0,0:0:0:0:
256,192,13242,12,0,14531,0:0:0:0:
360,356,15000,6,0,L|276:344,1,71.5000021820069
128,280,15467,2,0,L|44:264,2,71.5000021820069
164,272,16053,2,0,P|212:244|240:188,1,107.25000327301
110,163,16757,1,0,0:0:0:0:
110,163,16874,6,0,P|167:207|238:196,1,143.000004364014
188,116,17577,1,0,0:0:0:0:
104,68,17812,2,0,P|64:76|36:100,1,71.5000021820069
188,116,18281,2,0,P|228:108|256:84,1,71.5000021820069
110,163,18749,6,0,P|88:232|128:296,1,143.000004364014
208,344,19452,1,0,0:0:0:0:
300,320,19687,1,0,0:0:0:0:
300,320,19804,2,0,L|416:308,1,107.25000327301
320,184,20507,1,0,0:0:0:0:
320,184,20624,6,0,P|244:188|184:236,1,143.000004364014
132,352,21327,1,0,0:0:0:0:
101,251,21562,1,0,0:0:0:0:
212,316,21796,1,0,0:0:0:0:
48,324,22031,1,0,0:0:0:0:
190,230,22265,1,0,0:0:0:0:
212,316,22499,6,0,P|132:300|100:244,1,143.000004364014
233,143,23202,1,0,0:0:0:0:
289,219,23437,1,0,0:0:0:0:
289,219,23554,2,0,P|233:243|181:223,1,107.25000327301
364,104,24257,1,0,0:0:0:0:
364,104,24374,6,0,P|416:160|424:240,1,143.000004364014
348,352,25077,1,0,0:0:0:0:
289,219,25312,1,0,0:0:0:0:
426,223,25546,1,0,0:0:0:0:
204,340,25781,1,0,0:0:0:0:
140,204,26015,1,0,0:0:0:0:
289,219,26249,1,0,0:0:0:0:
256,192,26367,12,0,29999,0:0:0:0:
80,176,37499,6,0,L|168:196,1,84.4999961318971
240,232,37968,2,0,P|312:216|344:168,1,126.749994197846
341,175,38437,1,0,0:0:0:0:
272,76,38671,5,0,0:0:0:0:
376,296,38906,2,0,L|464:304,1,84.4999961318971
288,332,39257,1,0,0:0:0:0:
288,332,39374,6,0,L|152:312,1,126.749994197846
124,336,39843,2,0,P|140:288|132:248,1,84.4999961318971
32,148,40312,1,0,0:0:0:0:
32,148,40429,1,0,0:0:0:0:
32,148,40546,2,0,L|128:136,1,84.4999961318971
192,176,41015,1,0,0:0:0:0:
272,212,41249,6,0,P|316:208|356:176,1,84.4999961318971
192,176,41718,2,0,L|164:316,1,126.749994197846
167,300,42187,1,0,0:0:0:0:
124,120,42421,1,0,0:0:0:0:
272,212,42656,2,0,P|288:256|284:296,1,84.4999961318971
192,176,43007,1,0,0:0:0:0:
192,176,43124,6,0,P|232:132|304:128,1,126.749994197846
336,144,43593,2,0,L|424:132,1,84.4999961318971
460,208,44062,1,0,0:0:0:0:
460,208,44179,1,0,0:0:0:0:
460,208,44296,2,0,L|376:220,1,84.4999961318971
308,272,44765,1,0,0:0:0:0:
240,320,44999,6,0,L|144:304,1,84.4999961318971
80,268,45468,2,0,L|72:132,1,126.749994197846
72,141,45937,1,0,0:0:0:0:
136,36,46171,1,0,0:0:0:0:
216,164,46406,2,0,L|304:152,1,84.4999961318971
372,88,46757,1,0,0:0:0:0:
372,88,46874,6,0,P|424:144|416:208,1,126.749994197846
372,264,47343,2,0,L|472:252,1,84.4999961318971
300,320,47812,1,0,0:0:0:0:
300,320,47929,1,0,0:0:0:0:
300,320,48046,2,0,L|216:328,1,84.4999961318971
132,312,48515,1,0,0:0:0:0:
32,116,48749,2,0,L|160:104,1,126.749994197846
188,136,49218,2,0,L|320:124,1,126.749994197846
314,124,49687,1,0,0:0:0:0:
444,180,49921,1,0,0:0:0:0:
360,332,50156,1,0,0:0:0:0:
256,192,50624,5,0,0:0:0:0:
256,192,51562,1,0,0:0:0:0:
112,276,52031,1,0,0:0:0:0:
76,105,52499,6,0,P|119:105|162:134,1,84.4999961318971
435,278,52968,2,0,P|392:278|349:249,1,84.4999961318971
202,44,53437,2,0,P|232:75|242:125,1,84.4999961318971
308,336,53906,2,0,P|277:305|267:254,1,84.4999961318971
327,91,54374,6,0,P|327:134|299:177,1,84.4999961318971
187,289,54843,2,0,P|187:245|216:202,1,84.4999961318971
356,263,55312,2,0,P|313:263|270:235,1,84.4999961318971
158,123,55663,1,0,0:0:0:0:
158,123,55781,2,0,P|202:123|245:152,1,84.4999961318971
180,208,56249,6,0,L|88:220,1,84.4999961318971
237,144,56718,2,0,L|324:128,1,84.4999961318971
264,220,57187,2,0,L|276:312,1,84.4999961318971
160,128,57656,2,0,L|148:40,1,84.4999961318971
180,208,58124,6,0,L|123:281,1,84.4999961318971
237,144,58593,2,0,L|290:73,1,84.4999961318971
342,240,59062,2,0,P|299:240|256:212,1,84.4999961318971
158,124,59413,1,0,0:0:0:0:
158,124,59531,2,0,P|202:124|245:153,1,84.4999961318971
115,306,59999,5,0,0:0:0:0:
31,263,60234,1,0,0:0:0:0:
73,179,60468,1,0,0:0:0:0:
157,222,60702,1,0,0:0:0:0:
82,326,60937,5,0,0:0:0:0:
16,226,61171,1,0,0:0:0:0:
116,160,61406,1,0,0:0:0:0:
180,261,61640,1,0,0:0:0:0:
47,303,61875,5,0,0:0:0:0:
39,170,62109,1,0,0:0:0:0:
171,161,62343,1,0,0:0:0:0:
179,294,62577,1,0,0:0:0:0:
11,268,62812,5,0,0:0:0:0:
73,145,63046,1,0,0:0:0:0:
196,206,63281,1,0,0:0:0:0:
133,328,63515,1,0,0:0:0:0:
40,88,63749,5,0,0:0:0:0:
56,76,63867,1,0,0:0:0:0:
81,65,63984,1,0,0:0:0:0:
107,60,64101,1,0,0:0:0:0:
132,60,64218,1,0,0:0:0:0:
158,65,64335,1,0,0:0:0:0:
183,81,64452,1,0,0:0:0:0:
199,101,64570,1,0,0:0:0:0:
214,122,64687,1,0,0:0:0:0:
235,137,64804,1,0,0:0:0:0:
260,147,64921,1,0,0:0:0:0:
286,152,65038,1,0,0:0:0:0:
312,148,65156,2,0,L|352:144,8,21.1249990329743
364,308,66093,5,8,0:0:0:0:
204,372,66562,1,8,0:0:0:0:
144,212,67031,1,0,0:0:0:0:
300,140,67499,5,0,0:0:0:0:
76,280,67734,1,0,0:0:0:0:
124,112,67968,1,0,0:0:0:0:
124,112,68085,1,0,0:0:0:0:
124,112,68202,2,0,L|176:120,1,48.8474997167656
292,232,68437,2,0,P|340:228|380:192,1,97.6949994335312
240,108,68788,1,0,0:0:0:0:
240,108,68906,2,0,P|192:112|152:148,1,97.6949994335312
257,316,69257,1,0,0:0:0:0:
257,316,69374,6,0,P|287:279|291:231,1,97.6949994335312
88,104,69843,1,0,0:0:0:0:
88,104,69960,1,0,0:0:0:0:
88,104,70077,1,0,0:0:0:0:
88,104,70195,1,0,0:0:0:0:
80,104,70312,2,0,P|116:135|168:136,1,97.6949994335312
348,228,70663,1,0,0:0:0:0:
348,228,70781,2,0,P|395:231|432:262,1,97.6949994335312
76,260,71249,6,0,P|113:229|161:226,1,97.6949994335312
376,312,71718,1,0,0:0:0:0:
328,320,71835,1,0,0:0:0:0:
284,300,71952,1,0,0:0:0:0:
256,260,72070,1,0,0:0:0:0:
252,212,72187,2,0,P|268:164|304:136,1,97.6949994335312
240,24,72538,1,0,0:0:0:0:
240,24,72656,2,0,P|224:72|188:100,1,97.6949994335312
56,220,73007,1,0,0:0:0:0:
56,220,73124,6,0,L|156:236,1,97.6949994335312
308,320,73593,1,0,0:0:0:0:
308,320,73710,1,0,0:0:0:0:
308,320,73827,1,0,0:0:0:0:
308,320,73945,1,0,0:0:0:0:
380,104,74296,1,0,0:0:0:0:
380,104,74413,1,0,0:0:0:0:
380,104,74531,2,0,L|272:92,1,97.6949994335312
144,200,74999,6,0,P|96:184|64:144,1,97.6949994335312
232,160,75468,1,0,0:0:0:0:
240,208,75585,1,0,0:0:0:0:
224,252,75702,1,0,0:0:0:0:
184,280,75820,1,0,0:0:0:0:
136,292,75937,2,0,L|40:264,1,97.6949994335312
240,208,76288,1,0,0:0:0:0:
240,208,76406,2,0,L|344:236,1,97.6949994335312
376,260,76757,1,0,0:0:0:0:
420,240,76874,6,0,P|452:200|452:152,1,97.6949994335312
352,76,77343,1,0,0:0:0:0:
304,68,77460,1,0,0:0:0:0:
256,60,77577,1,0,0:0:0:0:
208,52,77695,1,0,0:0:0:0:
160,44,77812,1,0,0:0:0:0:
44,228,78046,1,0,0:0:0:0:
92,236,78163,1,0,0:0:0:0:
140,244,78281,2,0,P|184:264|196:312,1,97.6949994335312
44,228,78749,6,0,P|60:180|100:152,1,97.6949994335312
296,176,79218,1,0,0:0:0:0:
328,212,79335,1,0,0:0:0:0:
332,260,79452,1,0,0:0:0:0:
308,304,79570,1,0,0:0:0:0:
264,324,79687,2,0,L|164:312,1,97.6949994335312
76,220,80038,1,0,0:0:0:0:
76,220,80156,2,0,L|176:232,1,97.6949994335312
216,152,80507,1,0,0:0:0:0:
216,152,80624,6,0,L|112:140,1,97.6949994335312
352,120,81093,1,0,0:0:0:0:
384,148,81210,1,0,0:0:0:0:
396,188,81327,1,0,0:0:0:0:
384,228,81445,1,0,0:0:0:0:
148,172,81796,1,0,0:0:0:0:
148,172,81913,1,0,0:0:0:0:
148,172,82031,2,0,L|116:80,1,97.6949994335312
256,164,82499,6,0,P|268:208|248:256,1,97.6949994335312
76,328,82968,1,0,0:0:0:0:
124,320,83085,1,0,0:0:0:0:
172,312,83202,1,0,0:0:0:0:
220,304,83320,1,0,0:0:0:0:
268,296,83437,2,0,P|316:296|352:328,1,97.6949994335312
452,252,83788,1,0,0:0:0:0:
452,252,83906,2,0,P|404:252|368:220,1,97.6949994335312
284,78,84257,1,0,0:0:0:0:
284,78,84374,6,0,P|284:130|252:166,1,97.6949994335312
64,248,84843,1,0,0:0:0:0:
100,216,84960,1,0,0:0:0:0:
148,208,85077,1,0,0:0:0:0:
192,228,85195,1,0,0:0:0:0:
232,252,85312,2,0,P|276:264|320:240,1,97.6949994335312
428,80,85663,1,0,0:0:0:0:
428,80,85781,2,0,L|440:180,1,97.6949994335312
330,337,86249,6,0,L|320:232,1,97.6949994335312
168,64,86718,1,0,0:0:0:0:
120,76,86835,1,0,0:0:0:0:
76,100,86952,1,0,0:0:0:0:
56,144,87070,1,0,0:0:0:0:
52,192,87187,2,0,L|60:296,1,97.6949994335312
152,348,87538,1,0,0:0:0:0:
152,348,87656,2,0,L|144:250,1,97.6949994335312
312,164,88007,1,0,0:0:0:0:
312,164,88124,6,0,P|280:200|228:216,1,97.6949994335312
328,72,88593,1,0,0:0:0:0:
372,92,88710,1,0,0:0:0:0:
400,132,88827,1,0,0:0:0:0:
400,180,88945,1,0,0:0:0:0:
247,328,89296,1,0,0:0:0:0:
247,328,89413,1,0,0:0:0:0:
247,328,89531,2,0,L|151:348,1,97.6949994335312
36,208,89999,6,0,L|132:188,1,97.6949994335312
256,216,90468,1,0,0:0:0:0:
304,204,90585,1,0,0:0:0:0:
352,192,90702,1,0,0:0:0:0:
400,180,90820,1,0,0:0:0:0:
448,168,90937,2,0,L|468:68,1,97.6949994335312
352,192,91288,1,0,0:0:0:0:
352,192,91406,2,0,L|332:292,1,97.6949994335312
156,352,91757,1,0,0:0:0:0:
156,352,91874,6,0,L|256:336,1,97.6949994335312
448,168,92343,1,0,0:0:0:0:
424,124,92460,1,0,0:0:0:0:
380,100,92577,1,0,0:0:0:0:
332,96,92695,1,0,0:0:0:0:
288,120,92812,2,0,L|188:112,1,97.6949994335312
34,180,93163,1,0,0:0:0:0:
34,180,93281,2,0,L|132:188,1,97.6949994335312
224,320,93749,6,0,P|276:308|304:272,1,97.6949994335312
304,76,94218,1,0,0:0:0:0:
288,120,94335,1,0,0:0:0:0:
300,168,94452,1,0,0:0:0:0:
332,204,94570,1,0,0:0:0:0:
380,216,94687,2,0,L|480:200,1,97.6949994335312
212,72,95038,1,0,0:0:0:0:
212,72,95156,2,0,P|196:112|208:168,1,97.6949994335312
248,332,95507,1,0,0:0:0:0:
248,331,95624,6,0,P|264:285|254:238,1,97.6949994335312
88,136,96093,1,0,0:0:0:0:
88,136,96210,1,0,0:0:0:0:
88,136,96327,1,0,0:0:0:0:
88,136,96445,1,0,0:0:0:0:
176,276,96679,1,0,0:0:0:0:
176,276,96796,1,0,0:0:0:0:
176,276,96914,1,0,0:0:0:0:
432,184,97148,1,0,0:0:0:0:
432,184,97265,1,0,0:0:0:0:
432,184,97382,1,0,0:0:0:0:
432,184,97500,5,0,0:0:0:0:
