osu file format v10

[General]
AudioFilename: OP.mp3
AudioLeadIn: 2000
PreviewTime: 71245
Countdown: 0
SampleSet: Normal
StackLeniency: 0.7
Mode: 0
LetterboxInBreaks: 0

[Editor]
DistanceSpacing: 1
BeatDivisor: 4
GridSize: 4

[Metadata]
Title:Magical Happy Show!
TitleUnicode:Magical Happy Show!
Artist:Machico
ArtistUnicode:Machico
Creator:-[NYAN]-
Version:Normal
Source:Supipara
Tags:minori a3272509123 op opening
BeatmapID:165438
BeatmapSetID:52796

[Difficulty]
HPDrainRate:4
CircleSize:4
OverallDifficulty:4
ApproachRate:5
SliderMultiplier:1
SliderTickRate:1

[Events]
//Background and Video events
Video,0,"OP.avi"
0,0,"BG.png"
//Break Periods
2,15376,17286
//Storyboard Layer 0 (Background)
//Storyboard Layer 1 (Fail)
//Storyboard Layer 2 (Pass)
//Storyboard Layer 3 (Foreground)
//Storyboard Sound Samples
//Background Colour Transformations
3,100,255,128,128

[TimingPoints]
1935,413.793103448276,4,1,0,55,1,0
44969,-133.333333333333,4,1,0,40,0,0
56555,-133.333333333333,4,2,0,55,0,0
58210,-100,4,1,0,55,0,0
64831,-100,4,1,0,70,0,0
72900,-100,4,1,0,55,0,1
99590,-100,4,1,0,55,0,0
102486,-100,4,1,0,55,0,0
118003,-100,4,1,0,5,0,0

[Colours]
Combo1 : 240,5,5
Combo2 : 128,0,255
Combo3 : 255,0,128
Combo4 : 128,0,64

[HitObjects]
96,288,1935,2,0,B|192:252|292:284,1,200,4|0,0:0|0:0,0:0:0
392,292,3176,1,8,0:0:0
408,192,3590,2,0,B|368:96|264:64,1,200
168,96,4831,1,8,0:0:0
76,56,5245,6,0,B|56:112|88:160,1,100,0|8,0:0|0:0,0:0:0
172,200,6072,2,0,B|200:250|172:296,1,100,0|8,0:0|0:0,0:0:0
264,340,6900,2,0,B|320:344|368:336|400:296,1,150
428,252,7728,1,0,0:0:0
432,152,8141,1,8,0:0:0
340,116,8555,6,0,B|292:104,1,50,2|0,0:0|0:0,0:0:0
192,116,9176,2,0,B|144:104,1,50,2|0,0:0|0:0,0:0:0
172,200,9797,2,0,B|200:248|256:256|312:248|340:200,2,200,0|0|0,0:0|0:0|0:0,0:0:0
88,144,11866,1,2,0:0:0
88,144,12072,1,2,0:0:0
88,244,12486,1,2,0:0:0
88,244,12693,1,2,0:0:0
256,192,13107,12,4,15176,0:0:0
448,240,18486,5,0,0:0:0
448,240,18900,1,10,0:0:0
364,292,19314,2,0,B|396:336|448:340,2,100,0|8|0,0:0|0:0|0:0,0:0:0
348,192,20555,2,0,B|324:144|284:112|228:96|180:104,1,200,8|8,0:0|0:0,0:0:0
136,300,22210,5,10,0:0:0
232,320,22624,2,0,B|304:248,1,100,0|8,0:0|0:0,0:0:0
400,272,23452,2,0,B|408:220|388:168|328:140|280:152,1,200
180,156,24693,1,8,0:0:0
52,312,25521,5,10,0:0:0
144,276,25935,2,0,B|240:244,1,100,0|8,0:0|0:0,0:0:0
252,144,26762,2,0,B|300:144|348:192|356:252|324:292,1,200
272,376,28003,1,8,0:0:0
440,268,28831,5,10,0:0:0
348,232,29245,2,0,B|300:212|280:160,1,100,0|8,0:0|0:0,0:0:0
204,100,30072,2,0,B|136:68|56:92,2,150,0|0|8,0:0|0:0|0:0,0:0:0
152,292,32141,5,10,0:0:0
252,292,32555,2,0,B|352:292,1,100,0|8,0:0|0:0,0:0:0
444,256,33383,2,0,B|404:228|372:184|356:136,1,150,0|0,0:0|0:0,0:0:0
284,68,34417,1,0,0:0:0
236,60,34624,1,8,0:0:0
188,76,34831,1,0,0:0:0
152,220,35452,5,10,0:0:0
248,248,35866,2,0,B|328:312,1,100,0|8,0:0|0:0,0:0:0
388,232,36693,2,0,B|372:188|372:132|404:88,2,150,0|0|8,0:0|0:0|0:0,0:0:0
268,72,38762,5,10,0:0:0
264,172,39176,2,0,B|244:220|196:244,1,100,0|8,0:0|0:0,0:0:0
96,236,40003,2,0,B|88:188|96:132|128:92|176:68,1,200
272,44,41245,1,8,0:0:0
336,120,41659,6,0,B|348:168|400:200|452:196,2,150,2|0|0,0:0|0:0|0:0,0:0:0
268,196,43314,2,0,B|268:252|216:272|216:272|112:272,1,200
100,172,44555,5,0,0:0:0
156,84,44969,2,0,B|179:57|216:42|253:43|293:66,1,150.000005722046,4|0,0:0|0:0,0:0:0
356,148,46210,1,2,0:0:0
292,232,46624,2,0,B|296:272|260:300,2,75.0000028610231,0|0|0,0:0|0:0|0:0,0:0:0
188,232,47866,1,0,0:0:0
112,304,48279,2,0,P|84:240|108:168,1,150.000005722046
168,80,49521,1,2,0:0:0
264,36,49935,2,0,B|332:68,1,75.0000028610231,0|0,0:0|0:0,0:0:0
300,168,50762,2,0,B|332:192|372:192,1,75.0000028610231,0|2,0:0|0:0,0:0:0
400,292,51590,6,0,B|368:308|328:316|288:308|256:292,1,149.999995529652,4|0,0:0|0:0,0:0:0
192,208,52831,1,2,0:0:0
100,152,53245,2,0,B|64:136|28:152,1,75.0000028610231,0|2,0:0|0:0,0:0:0
28,256,54072,2,0,B|64:272|100:256,1,75.0000028610231,0|0,0:0|0:0,0:0:0
256,192,54900,12,0,56555,0:0:0
304,304,58210,6,0,B|352:304|392:264,2,100,0|8|0,0:0|0:0|0:0,0:0:0
204,296,59452,1,8,0:0:0
124,236,59866,2,0,B|108:188|136:140,1,100,0|8,0:0|0:0,0:0:0
236,120,60693,2,0,B|276:144|332:136,1,100,0|8,0:0|0:0,0:0:0
432,112,61521,1,0,0:0:0
376,304,62348,6,0,B|336:268|284:268,1,100,2|8,0:0|0:0,0:0:0
192,304,63176,2,0,B|192:256|160:208|112:184,1,150
68,160,64003,1,2,0:0:0
264,120,64831,6,0,B|304:144|352:160|408:160,1,150,4|0,0:0|0:0,0:0:0
456,160,65659,1,8,0:0:0
288,268,66486,2,0,B|248:244|200:228|144:228,1,150,4|0,0:0|0:0,0:0:0
96,228,67314,1,8,0:0:0
272,320,68141,6,0,B|288:280|324:264,1,75,0|8,0:0|0:0,0:0:0
380,220,68762,1,0,0:0:0
412,184,68969,2,0,B|400:144|364:128,1,75,0|8,0:0|0:0,0:0:0
300,92,69590,1,0,0:0:0
252,84,69797,2,0,B|220:76|180:84|148:108|132:140|124:172|128:204,1,200
152,296,71038,1,0,0:0:0
152,296,71245,6,0,B|184:256|232:232|280:224,1,150,0|8,0:0|0:0,0:0:0
376,192,72279,2,0,B|384:136|336:104,1,100,0|8,0:0|0:0,0:0:0
292,88,72900,6,0,B|244:112|196:120|144:112,1,150,4|8,0:0|0:0,0:0:0
152,212,73935,2,0,B|160:268|112:300,2,100,0|10|0,0:0|0:0|0:0,0:0:0
200,124,75176,1,8,0:0:0
200,124,75383,2,0,B|244:104|296:100|348:112,1,150,0|8,0:0|0:0,0:0:0
392,128,76210,5,0,0:0:0
428,164,76417,2,0,B|452:264,2,100,2|8|0,0:0|0:0|0:0,0:0:0
360,236,77659,2,0,B|304:244|280:292,1,100,8|0,0:0|0:0,0:0:0
204,356,78486,1,8,0:0:0
204,356,78693,2,0,B|132:284,1,100
104,244,79314,1,8,0:0:0
120,196,79521,1,0,0:0:0
168,184,79728,6,0,B|216:200|268:184,1,100,2|8,0:0|0:0,0:0:0
268,84,80555,2,0,B|220:68|169:82,1,100,0|8,0:0|0:0,0:0:0
80,128,81383,2,0,B|36:164|32:216,1,100,2|8,0:0|0:0,0:0:0
44,260,82003,2,0,B|172:344,1,150,0|8,0:0|0:0,0:0:0
268,328,83038,6,0,B|292:279|340:263,1,100,0|8,0:0|0:0,0:0:0
404,184,83866,2,0,B|356:160|348:104,1,100,0|8,0:0|0:0,0:0:0
268,44,84693,2,2,B|212:60|196:108|196:108|148:92|100:124,1,200
116,324,86348,6,0,B|164:324|212:356,1,100,4|8,0:0|0:0,0:0:0
260,364,86969,1,0,0:0:0
308,352,87176,2,0,B|340:312|384:288,1,100,0|8,0:0|0:0,0:0:0
428,264,87797,1,0,0:0:0
428,212,88003,2,0,B|388:180|372:132,1,100,0|8,0:0|0:0,0:0:0
340,92,88624,2,0,B|204:156,1,150,0|8,0:0|0:0,0:0:0
156,176,89452,1,0,0:0:0
148,224,89659,6,2,B|204:240|236:280,1,100,2|8,0:0|0:0,0:0:0
176,360,90486,2,2,B|120:344|88:304,1,100,2|8,0:0|0:0,0:0:0
44,220,91314,1,0,0:0:0
100,136,91728,1,8,0:0:0
100,136,91935,2,0,B|236:72,1,150,2|8,0:0|0:0,0:0:0
336,76,92969,6,0,B|368:116|376:172,1,100,0|8,0:0|0:0,0:0:0
284,208,93797,2,0,B|252:168|244:112,1,100,2|8,0:0|0:0,0:0:0
160,64,94624,1,0,0:0:0
96,140,95038,1,8,0:0:0
96,140,95245,2,0,B|104:188|136:236|184:252,1,150,2|8,0:0|0:0,0:0:0
284,272,96279,6,0,B|384:264,1,100,0|8,0:0|0:0,0:0:0
436,180,97107,1,0,0:0:0
436,180,97314,1,0,0:0:0
436,180,97521,1,8,0:0:0
352,128,97935,2,0,B|320:160|264:160|208:160|168:200,2,200
256,192,99797,12,8,101659,0:0:0
144,112,102486,5,8,0:0:0
144,112,102900,2,0,B|156:164|200:192,1,100,0|8,0:0|0:0,0:0:0
220,292,103728,2,0,B|276:276|292:228,1,100,0|8,0:0|0:0,0:0:0
320,132,104555,2,0,B|404:120|456:180,2,150,0|0|8,0:0|0:0|0:0,0:0:0
220,132,106210,6,2,B|168:132,1,50,0|0,0:0|0:0,0:0:0
172,232,106831,2,2,B|224:232,1,50
256,192,107452,12,0,108693,0:0:0
200,104,109521,5,0,0:0:0
200,104,109728,1,0,0:0:0
292,68,110141,1,0,0:0:0
292,68,110348,1,0,0:0:0
276,168,110762,1,0,0:0:0
276,168,110969,1,0,0:0:0
180,200,111383,1,0,0:0:0
180,200,111590,1,0,0:0:0
248,272,112003,2,0,B|228:300|188:300,2,66.6666666666667
296,232,112831,6,0,B|336:200|336:144,1,100,0|8,0:0|0:0,0:0:0
416,84,113659,2,0,B|384:44|328:44,1,100,0|8,0:0|0:0,0:0:0
228,64,114486,2,0,B|188:104|200:156,2,100,0|8|0,0:0|0:0|0:0,0:0:0
300,136,115728,1,8,0:0:0
416,232,116348,6,0,B|460:208,2,50
376,264,116969,2,0,B|360:280|332:284,1,50
280,292,117383,1,0,0:0:0
232,280,117590,6,0,B|180:268|136:292,1,100,4|4,0:0|0:0,0:0:0
